osu file format v9

[General]
AudioFilename: Skinny Genes.mp3
AudioLeadIn: 0
PreviewTime: 45218
Countdown: 1
SampleSet: Soft
StackLeniency: 0.7
Mode: 0
LetterboxInBreaks: 1

[Editor]
Bookmarks: 18114,46865,75616,88195,104367,133118,139408,145697,147045,172651,176245
DistanceSpacing: 0.8
BeatDivisor: 6
GridSize: 8

[Metadata]
Title:Skinny Genes
Artist:Eliza Doolittle
Creator:RandomJibberish
Version:Easy
Source:
Tags:

[Difficulty]
HPDrainRate:3
CircleSize:3
OverallDifficulty:2
ApproachRate:3
SliderMultiplier:1.6
SliderTickRate:1

[Events]
//Background and Video events
0,0,"narrowtrousers.png"
Video,-576,"Eliza Doolittle - Skinny Genes.flv.AVI"
//Break Periods
2,76060,87216
2,133563,138878
//Storyboard Layer 0 (Background)
//Storyboard Layer 1 (Fail)
//Storyboard Layer 2 (Pass)
//Storyboard Layer 3 (Foreground)
//Storyboard Sound Samples
//Background Colour Transformations
3,100,147,230,153

[TimingPoints]
157,449.236298292902,4,2,0,70,1,0
46790,-100,4,1,0,50,0,0
48737,-100,4,2,0,70,0,0
50384,-100,4,1,0,50,0,0
51582,-100,4,2,0,70,0,0
51732,-100,4,1,0,50,0,0
52031,-100,4,2,0,70,0,0
52181,-100,4,1,0,50,0,0
52406,-100,4,2,0,70,0,0
53978,-100,4,1,0,50,0,0
54128,-100,4,2,0,70,0,0
54876,-100,4,1,0,50,0,0
55026,-100,4,2,0,70,0,0
57572,-100,4,1,0,50,0,0
57722,-100,4,2,0,70,0,0
61166,-100,4,1,0,50,0,0
62663,-100,4,2,0,70,0,0
64760,-100,4,1,0,50,0,0
66257,-100,4,2,0,70,0,0
68354,-100,4,1,0,50,0,0
68503,-100,4,2,0,70,0,0
69252,-100,4,1,0,50,0,0
69402,-100,4,2,0,70,0,0
71947,-100,4,1,0,50,0,0
72097,-100,4,2,0,70,0,0
75616,-100,4,1,0,30,0,0
88195,-100,4,2,0,70,0,0
104292,-100,4,1,0,50,0,0
105416,-100,4,2,0,70,0,0
105640,-100,4,1,0,50,0,0
105790,-100,4,2,0,70,0,0
106089,-100,4,1,0,50,0,0
106239,-100,4,2,0,70,0,0
107886,-100,4,1,0,51,0,0
109009,-100,4,2,0,70,0,0
109234,-100,4,1,0,50,0,0
109384,-100,4,2,0,70,0,0
109683,-100,4,1,0,50,0,0
109833,-100,4,2,0,70,0,0
111480,-100,4,1,0,50,0,0
111630,-100,4,2,0,70,0,0
112397,-100,4,1,0,50,0,0
112510,-100,4,2,0,70,0,0
115074,-100,4,1,0,50,0,0
115224,-100,4,2,0,70,0,0
118668,-100,4,1,0,50,0,0
119791,-100,4,2,0,70,0,0
120016,-100,4,1,0,50,0,0
120165,-100,4,2,0,70,0,0
122262,-100,4,1,0,50,0,0
123460,-100,4,2,0,70,0,0
123610,-100,4,1,0,50,0,0
123759,-100,4,2,0,70,0,0
125856,-100,4,1,0,50,0,0
126006,-100,4,2,0,70,0,0
126754,-100,4,1,0,50,0,0
126904,-100,4,2,0,70,0,0
129450,-100,4,1,0,50,0,0
129599,-100,4,2,0,70,0,0
139408,-133.333333333333,4,2,0,50,0,0
147344,-100,4,1,0,50,0,0
148617,-100,4,2,0,70,0,0
148767,-100,4,1,0,50,0,0
148917,-100,4,2,0,70,0,0
149216,-100,4,1,0,50,0,0
149366,-100,4,2,0,70,0,0
150938,-100,4,1,0,50,0,0
152211,-100,4,2,0,70,0,0
152361,-100,4,1,0,50,0,0
152510,-100,4,2,0,70,0,0
152810,-100,4,1,0,50,0,0
152960,-100,4,2,0,70,0,0
154607,-100,4,1,0,50,0,0
154757,-100,4,2,0,70,0,0
155505,-100,4,1,0,50,0,0
155655,-100,4,2,0,70,0,0
158201,-100,4,1,0,50,0,0
158351,-100,4,2,0,70,0,0
161795,-100,4,1,0,50,0,0
163367,-100,4,2,0,71,0,0
163592,-100,4,1,0,49,0,0
163741,-100,4,2,0,70,0,0
165389,-100,4,1,0,50,0,0
166512,-100,4,2,0,70,0,0
167186,-100,4,1,0,50,0,0
167335,-100,4,2,0,70,0,0
168982,-100,4,1,0,50,0,0
169132,-100,4,2,0,70,0,0
169881,-100,4,1,0,50,0,0
170031,-100,4,2,0,70,0,0

[HitObjects]
256,64,18126,53,4
320,176,18575,1,8
384,288,19024,2,2,B|352:360|256:407|160:360|128:288,1,320,2|4
40,96,20672,1,0
256,64,21720,5,4
256,192,22169,1,8
188,240,22469,2,0,B|216:280|256:281|296:280|324:240,1,160,0|2
360,80,23517,2,0,B|506:113|508:274,1,266.666666666667,4|0
256,64,25314,5,4
192,176,25763,1,8
128,288,26212,2,2,B|160:360|256:407|352:360|384:288,1,320,2|4
472,96,27859,1,0
256,64,28908,5,4
256,192,29357,1,8
324,240,29656,2,0,B|296:280|256:281|216:280|188:240,1,160,0|2
152,80,30705,2,0,B|6:113|4:274,1,266.666666666667,4|0
232,240,32502,5,4
344,304,32951,1,8
456,368,33400,2,2,B|528:336|575:240|528:144|456:112,1,320,2|4
256,40,35047,1,0
256,352,36095,5,4
256,224,36545,1,8
325,177,36844,2,0,B|297:137|257:136|217:137|189:177,1,160,0|2
328,64,37892,2,0,B|448:136|424:304,1,266.666666666667,4|0
280,240,39689,5,4
168,304,40139,1,8
56,368,40588,2,2,B|-16:336|-63:240|-16:144|56:112,1,320,2|4
256,40,42235,1,0
256,384,43283,5,4
256,256,43732,1,8
256,128,44182,1,0
128,48,45529,5,2
256,48,45979,1,8
384,48,46428,1,4
400,192,46877,6,2,B|312:136|352:240|208:320|304:64|160:144|200:248|112:192,1,320,6|2
8,120,48225,5,8
8,248,48674,2,0,B|16:320|104:400|216:368,1,266.666666666667,0|4
112,192,50022,5,8
112,192,50471,2,2,B|200:248|160:144|304:64|208:320|352:240|312:136|400:192,1,320,6|2
504,264,51819,5,8
504,136,52268,2,0,B|496:64|408:-16|296:16,1,266.666666666667,0|4
176,120,53616,5,8
176,120,54065,2,0,B|344:120,1,160,4|0
336,208,54963,2,0,B|168:208,1,160,0|8
176,296,55862,2,0,B|360:296,1,160,2|0
336,384,56760,2,0,B|144:384,1,160,0|8
72,304,57659,6,0,B|24:152|256:-50|488:152|440:304,1,640,4|4
184,288,60354,21,8
184,288,60803,1,2
112,192,61253,6,2,B|200:136|160:240|304:320|208:64|352:144|312:248|400:192,1,320,6|2
504,120,62600,5,8
504,248,63050,2,0,B|496:320|408:400|296:368,1,266.666666666667,0|4
400,192,64397,5,8
400,192,64847,2,2,B|312:248|352:144|208:64|304:320|160:240|200:136|112:192,1,320,6|2
8,264,66194,5,8
8,136,66643,2,0,B|16:64|104:-16|216:16,1,266.666666666667,0|4
336,120,67991,5,8
336,120,68440,2,0,B|168:120,1,160,4|0
176,208,69339,2,0,B|344:208,1,160,0|8
336,296,70237,2,0,B|152:296,1,160,2|0
176,384,71136,2,0,B|368:384,1,160,0|8
440,304,72034,6,0,B|488:152|256:-50|24:152|72:304,1,640,4|4
256,192,73981,12,0,75628
256,320,88656,5,0
256,192,89105,1,2
256,64,89555,1,8
384,32,90004,6,2,B|496:23|580:152|488:261,1,320
407,352,91351,1,8
319,352,91651,2,0,B|79:352,1,213.333333333333,0|4
128,32,93598,6,2,B|16:23|-68:152|24:261,1,320
128,320,94945,1,8
128,192,95395,2,0,B|257:127|384:192,1,266.666666666667
152,16,97192,5,2
280,16,97641,1,8
408,16,98090,2,2,B|480:32|517:112|480:192|408:208,1,266.666666666667,2|4
232,208,99438,1,0
104,208,99887,2,0,B|35:228|8:296|40:356,1,160,2|8
128,368,100785,6,0,B|257:303|384:368,1,266.666666666667
384,48,103032,5,2
256,48,103481,1,8
128,48,103930,1,4
112,192,104379,6,2,B|200:136|160:240|304:320|208:64|352:144|312:248|400:192,1,320,6|2
504,120,105727,5,8
504,248,106176,2,0,B|496:320|408:400|296:368,1,266.666666666667,0|4
400,192,107524,5,8
400,192,107973,2,2,B|312:248|352:144|208:64|304:320|160:240|200:136|112:192,1,320,6|2
8,264,109321,5,8
8,136,109770,2,0,B|16:64|104:-16|216:16,1,266.666666666667,0|4
336,120,111118,5,8
336,120,111567,2,0,B|168:120,1,160,4|0
176,208,112466,2,0,B|344:208,1,160,0|8
336,296,113364,2,0,B|152:296,1,160,2|0
176,384,114263,2,0,B|368:384,1,160,0|8
440,304,115161,6,0,B|488:152|256:-50|24:152|72:304,1,640,4|4
328,288,117856,21,8
328,288,118306,1,2
400,192,118755,6,2,B|312:136|352:240|208:320|304:64|160:144|200:248|112:192,1,320,6|2
8,120,120103,5,8
8,248,120552,2,0,B|16:320|104:400|216:368,1,266.666666666667,0|4
112,192,121900,5,8
112,192,122349,2,2,B|200:248|160:144|304:64|208:320|352:240|312:136|400:192,1,320,6|2
504,264,123696,5,8
504,136,124146,2,0,B|496:64|408:-16|296:16,1,266.666666666667,0|4
176,120,125493,5,8
176,120,125943,2,0,B|344:120,1,160,4|0
336,208,126841,2,0,B|168:208,1,160,0|8
176,296,127740,2,0,B|360:296,1,160,2|0
336,384,128638,2,0,B|144:384,1,160,0|8
72,304,129537,6,0,B|24:152|256:-50|488:152|440:304,1,640,4|4
256,192,131483,12,0,133130
208,256,140318,53,4
304,256,140767,1,0
352,344,141217,2,0,B|256:392|160:344,1,199.999994039536,2|0
160,88,143014,6,0,B|256:136|352:88,1,199.999994039536,2|0
256,32,144212,1,0
256,192,144811,12,0,146608
256,48,147506,22,2,B|312:136|208:96|128:240|384:144|304:288|200:248|256:336,1,320,6|2
368,264,148854,5,0
328,384,149303,2,0,B|483:363|496:208,1,266.666666666667,0|2
328,160,150651,1,8
256,344,151100,6,2,B|200:256|304:296|384:152|128:248|208:104|312:144|256:56,1,320,6|2
144,136,152448,5,0
184,16,152897,2,0,B|29:37|16:192,1,266.666666666667
176,120,154245,5,8
176,120,154694,2,0,B|344:120,1,160,4|0
336,208,155592,2,0,B|168:208,1,160,0|8
176,296,156491,2,0,B|360:296,1,160,2|0
336,384,157389,2,0,B|144:384,1,160,0|8
64,320,158288,6,0,B|-30:253|9:116,1,213.333333333333,4|0
64,64,159186,1,0
80,192,159635,1,8
80,192,159935,1,4
184,152,160983,21,0
184,152,161432,1,8
256,48,161882,22,2,B|200:136|304:96|384:240|128:144|208:288|312:248|256:336,1,320,6|2
144,264,163229,5,0
184,384,163679,2,0,B|29:363|16:208,1,266.666666666667,0|2
184,160,165026,1,8
256,344,165475,6,2,B|312:256|208:296|128:152|384:248|304:104|200:144|256:56,1,320,6|2
368,136,166823,5,0
328,16,167272,2,0,B|483:37|496:192,1,266.666666666667
336,120,168620,5,8
336,120,169069,2,0,B|168:120,1,160,4|0
176,208,169968,2,0,B|344:208,1,160,0|8
336,296,170866,2,0,B|152:296,1,160,2|0
176,384,171765,2,0,B|368:384,1,160,0|8
256,192,172663,12,4,176257
