osu file format v9

[General]
AudioFilename: Missing.mp3
AudioLeadIn: 0
PreviewTime: 47180
Countdown: 0
SampleSet: Soft
StackLeniency: 0.7
Mode: 0
LetterboxInBreaks: 0

[Editor]
Bookmarks: 79639,95377,142590,158327
DistanceSpacing: 0.8
BeatDivisor: 8
GridSize: 4

[Metadata]
Title:Missing
Artist:Eliza Doolittle
Creator:Krisom
Version:Hard
Source:
Tags:RandomJibberish RJ Come Softly To Me The Fleetwoods

[Difficulty]
HPDrainRate:6
CircleSize:5
OverallDifficulty:7
ApproachRate:7
SliderMultiplier:2
SliderTickRate:2

[Events]
//Background and Video events
0,0,"BG.jpg"
//Break Periods
2,79786,94401
2,142694,157326
//Storyboard Layer 0 (Background)
//Storyboard Layer 1 (Fail)
//Storyboard Layer 2 (Pass)
//Storyboard Layer 3 (Foreground)
//Storyboard Sound Samples
//Background Colour Transformations
3,100,163,162,255

[TimingPoints]
16645,491.601802539943,4,2,1,60,1,0
48107,-83.3333333333333,4,2,1,60,0,1
56576,-100,4,2,1,60,0,1
57314,-83.3333333333333,4,2,1,60,0,1
59527,-90.9090909090909,4,2,1,60,0,1
63592,-83.3333333333333,4,2,1,60,0,0
63838,-83.3333333333333,4,2,1,60,0,1
74650,-90.9090909090909,4,2,1,60,0,1
79570,-100,4,2,1,60,0,0
111032,-83.3333333333333,4,1,1,50,0,1
111166,-83.3333333333333,4,2,1,61,0,1
122232,-90.9090909090909,4,2,1,61,0,1
123461,-100,4,2,1,61,0,1
124199,-90.9090909090909,4,2,1,61,0,1
125429,-100,4,2,1,61,0,1
126518,-83.3333333333333,4,2,1,60,0,0
126763,-83.3333333333333,4,2,1,60,0,1
138215,-90.9090909090909,4,2,1,60,0,1
139199,-100,4,2,1,60,0,1
140183,-90.9090909090909,4,2,1,60,0,1
141166,-100,4,2,1,60,0,1
141904,-83.3333333333333,4,2,1,60,0,1
142495,-100,4,2,1,60,0,0
173957,-83.3333333333333,4,1,1,50,0,1
174117,-83.3333333333333,4,2,1,60,0,1
189443,-83.3333333333333,4,2,1,60,0,0
189688,-83.3333333333333,4,2,1,60,0,1
205420,-83.3333333333333,4,2,1,60,0,0

[Colours]
Combo1 : 248,7,175
Combo2 : 163,238,6
Combo3 : 241,122,3
Combo4 : 71,190,254

[HitObjects]
256,356,16645,1,12
124,268,17136,1,8
52,304,17382,1,8
16,232,17628,1,2
88,200,17874,2,0,B|164:156|164:156|168:136|168:136|248:88,1,200,8|8
316,44,18611,2,0,B|340:80|340:80|356:80|356:80|376:116,1,100,8|2
420,184,19103,1,0
464,116,19348,1,8
464,116,19840,1,8
420,184,20086,2,0,B|400:216|400:216|404:232|404:232|376:268,1,100,2|8
332,332,20577,5,8
256,192,21069,1,8
184,228,21315,1,8
188,148,21561,1,2
108,152,21806,2,0,B|104:96|160:52|216:60|252:104,1,200,8|8
308,160,22544,1,8
356,96,22790,2,0,B|380:140|440:136,1,100,2|0
428,56,23281,1,8
428,56,23773,2,0,B|404:12|344:16,1,100,8|2
264,36,24264,1,8
188,56,24510,5,8
36,108,25002,1,8
68,180,25248,1,8
140,144,25493,1,2
172,220,25739,2,0,B|200:264|256:284|312:264|340:220,1,200,8|8
372,144,26477,1,8
444,180,26722,1,2
444,100,26968,1,0
372,64,27214,1,8
372,64,27706,2,0,B|324:40|276:64,1,100,8|2
204,100,28197,1,8
272,144,28443,5,8
408,228,28935,1,2
464,284,29180,2,0,B|404:344|404:344|288:344,1,200,8|8
128,340,30164,1,8
48,340,30409,2,0,B|48:264|48:264|80:232|80:232|80:148,1,200,8|2
80,72,31147,2,8,B|160:72|160:72|180:100|180:100|264:100,2,200
40,84,32253,1,8
4,100,32376,5,4
28,176,32622,1,0
56,252,32867,2,0,B|72:300|72:300|92:360|148:344|148:344|200:328,2,200,8|2|0
132,228,34096,1,0
216,228,34342,1,2
296,228,34588,1,0
380,228,34834,1,8
456,252,35080,2,0,B|440:300|440:300|420:360|364:344|364:344|312:328,1,200,2|8
280,256,35817,2,0,B|296:208|296:208|316:148|372:164|372:164|424:180,1,200
344,36,36800,6,0,B|264:36|264:36|248:68|248:68|160:68,1,200,8|2
92,212,37783,1,2
28,244,38029,1,0
96,280,38275,1,0
96,352,38521,1,0
164,320,38767,1,8
228,284,39012,2,0,B|332:228|420:288,1,200,2|8
416,352,39750,2,0,B|416:228|416:228|408:208|408:208|408:152,1,200
408,72,40487,5,0
344,116,40733,2,0,B|300:160|256:168|212:160|168:116,1,200,8|2
116,268,41716,1,2
176,216,41962,1,0
256,200,42208,1,0
336,216,42454,1,0
396,268,42699,1,8
344,328,42945,2,0,B|300:284|256:276|212:284|168:328,2,200,2|8|8
396,268,44174,6,0,B|352:224|308:212|308:212|348:176|336:124,1,200,0|8
256,148,44912,1,0
176,164,45157,2,0,B|168:116|200:84|200:84|176:24|108:32,1,200,2|0
84,108,45895,1,0
64,184,46141,1,2
44,260,46386,1,0
120,284,46632,1,8
120,284,47124,1,0
144,208,47370,5,10
216,244,47615,1,0
212,164,47861,1,0
256,96,48107,1,12
360,256,48599,2,0,B|316:312|256:320|196:312|152:256,1,240.000005722046,2|0
60,232,49336,1,8
76,136,49582,1,0
100,44,49828,1,8
152,124,50073,2,0,B|196:180|256:188|316:180|360:124,1,240.000005722046,8|0
372,220,50811,2,0,B|256:276|140:220,1,240.000005722046,8|8
256,68,51794,5,8
340,20,52040,2,0,B|364:80|336:136,1,120.000002861023,8|2
172,20,52531,2,0,B|148:80|176:136,1,120.000002861023,0|8
120,216,53023,2,0,B|172:216|172:216|200:252|232:256,1,120.000002861023,0|8
392,216,53515,2,0,B|340:216|340:216|312:252|280:256,1,120.000002861023,0|8
212,164,54006,2,0,B|232:204|256:208|280:204|300:164,1,120.000002861023,8|0
304,260,54498,1,0
208,260,54744,1,8
152,340,54989,2,0,B|180:380|256:420|332:380|360:340,1,240.000005722046,8|0
404,256,55727,1,8
420,212,55850,1,8
440,168,55973,6,0,B|460:116|460:116|484:48|408:28|408:28|340:8,1,240.000005722046,0|2
352,88,56710,2,0,B|284:64|284:64|256:56|228:64|228:64|160:88,1,200,8|8
167,9,57447,2,0,B|104:28|104:28|28:48|52:116|52:116|72:168,1,240.000005722046,8|0
164,196,58185,1,2
256,224,58431,1,0
348,196,58676,1,8
256,36,59168,5,8
256,36,59414,1,0
180,36,59660,2,0,B|80:36|80:36|12:36|12:104|12:104|12:124,1,219.999993443489,8|2
12,192,60397,1,0
12,269,60643,2,0,B|12:280|12:280|12:348|80:348|80:348|180:348,1,219.999993443489,8|2
256,348,61380,1,0
332,348,61626,2,0,B|432:348|432:348|500:348|500:280|500:280|500:269,1,219.999993443489,8|2
500,192,62363,1,0
500,114,62609,2,0,B|500:104|500:104|500:36|432:36|432:36|332:36,1,219.999993443489,8|8
256,80,63347,1,8
256,176,63592,1,8
256,224,63715,1,8
256,272,63838,5,12
152,108,64330,2,0,B|196:52|256:44|316:52|360:108,1,240.000005722046,8|0
428,164,65067,1,8
496,228,65313,1,0
404,256,65559,1,8
360,336,65805,2,0,B|316:392|256:400|196:392|152:336,1,240.000005722046,8|0
144,240,66542,2,0,B|220:232|256:272|256:272|292:232|368:240,1,240.000005722046,8|8
256,96,67525,5,8
176,40,67771,2,0,B|224:-12|296:4,1,120.000002861023,8|2
352,68,68263,2,0,B|368:136|316:176,1,120.000002861023,8|0
224,204,68754,2,0,B|157:183|148:118,1,120.000002861023,0|8
200,36,69246,2,0,B|244:32|256:48|256:48|268:32|312:36,1,120.000002861023,0|2
384,100,69737,2,0,B|348:160|284:168,1,120.000002861023
128,100,70229,2,0,B|164:160|228:168,1,120.000002861023,8|0
348,48,70721,2,0,B|324:108|256:144|188:108|164:48,1,240.000005722046,0|0
100,120,71458,1,8
76,160,71581,1,8
56,204,71704,6,0,B|32:268|88:328|152:344|212:292,1,240.000005722046,0|8
148,220,72441,2,0,B|196:180|256:152|316:180|364:220,1,240.000005722046,2|8
304,295,73179,2,0,B|360:341|424:328|480:268|456:204,1,240.000005722046,0|0
444,108,73916,1,2
420,16,74162,1,8
328,44,74408,1,0
256,204,74899,5,8
256,292,75145,1,0
332,336,75391,2,0,B|432:336|432:336|500:336|500:268|500:268|500:248,1,219.999993443489,8|2
500,180,76128,1,8
500,103,76374,2,0,B|500:92|500:92|500:24|432:24|432:24|332:24,1,219.999993443489,8|2
256,24,77112,1,0
180,24,77357,2,0,B|80:24|80:24|12:24|12:92|12:92|12:103,1,219.999993443489,8|2
12,180,78095,1,8
12,258,78341,2,0,B|12:268|12:268|12:336|80:336|80:336|180:336,1,219.999993443489,8|8
256,292,79078,1,8
256,204,79324,2,8,B|256:144,3,36.6666655739149,8|8|8|12
476,40,95301,5,12
424,100,95547,1,2
488,148,95792,2,0,B|444:196|384:168,1,100,0|8
428,248,96284,2,0,B|328:228,1,100,2|8
352,304,96776,2,0,B|288:284|252:320,1,100,0|8
204,372,97267,1,8
172,296,97513,1,0
120,356,97759,1,0
228,236,98005,1,6
341,122,98496,1,8
200,44,98988,1,8
160,40,99111,1,8
120,36,99234,5,8
24,148,99725,2,0,B|68:196|128:168,1,100,0|8
84,248,100217,2,0,B|184:228,1,100,2|8
160,304,100708,2,0,B|224:284|260:320,1,100,0|8
308,372,101200,1,8
340,296,101446,1,0
392,356,101692,1,0
284,236,101937,1,6
220,188,102183,1,2
276,132,102429,1,0
200,108,102675,1,2
256,52,102921,1,0
408,100,103412,5,2
476,140,103658,2,0,B|432:224|432:224|416:256|364:268|348:228,1,200,8|0
336,148,104395,2,0,B|320:100|256:84|192:100|176:148,1,200,8|8
180,228,105133,1,8
256,256,105379,1,2
332,228,105624,1,0
336,308,105870,2,8,B|320:356|256:372|192:356|176:308,2,200
352,272,106976,1,8
364,236,107099,5,8
392,160,107345,1,2
428,88,107591,1,0
356,56,107837,1,8
320,128,108082,2,0,B|300:168|300:168|284:196|256:208|228:196|212:168|212:168|192:128,1,200,2|2
156,56,108820,1,8
84,88,109066,1,0
120,160,109311,1,2
164,228,109557,2,0,B|256:296|348:228,1,200,2|0
392,160,110295,5,8
416,84,110540,1,2
340,104,110786,1,8
256,96,111032,1,0
352,264,111524,2,0,B|312:200|252:232|256:264|260:292|200:328|160:264,1,240.000005722046,8|2
160,168,112261,1,8
256,152,112507,1,0
352,168,112753,1,0
448,160,112998,2,0,B|442:100|442:100|436:24|364:30|364:30|304:36,1,240.000005722046,2|8
208,36,113736,2,0,B|147:30|147:30|75:24|69:100|69:100|63:159,1,240.000005722046,0|8
256,160,114719,5,0
188,227,114965,2,0,B|156:259|156:259|148:259|148:259|156:267|156:267|148:267|148:267|112:303,1,120.000002861023
200,344,115456,2,0,B|256:380|312:344,1,120.000002861023,8|0
397,300,115948,2,0,B|364:267|364:267|356:267|356:267|364:259|364:259|356:259|356:259|324:227,1,120.000002861023,0|8
312,132,116440,2,0,B|268:144|256:152|256:152|244:144|200:132,1,120.000002861023
148,212,116931,1,0
208,288,117177,1,0
304,288,117423,1,8
364,212,117669,1,0
360,120,117914,2,0,B|288:136|256:176|256:176|224:136|152:120,1,240.000005722046
68,164,118652,1,8
92,204,118775,1,8
120,240,118898,6,0,B|164:216|216:244|232:292|240:348|168:384,1,240.000005722046,0|8
144,308,119635,2,0,B|224:296|256:268|256:268|288:296|368:308,1,240.000005722046,8|8
341,382,120372,2,0,B|272:348|280:292|296:244|348:216|392:240,1,240.000005722046,8|0
448,160,121110,1,2
424,68,121356,1,0
360,140,121601,2,0,B|308:192|256:212|204:192|152:140,1,240.000005722046,8|8
112,76,122339,5,2
44,104,122585,2,0,B|0:124|0:176|0:176|0:216|0:216|0:268|44:288,1,219.999993443489,8|2
112,312,123322,1,8
164,360,123568,2,0,B|196:392|236:392|236:392|276:392|276:392|316:392|348:360,1,200,8|2
400,312,124305,1,8
468,288,124551,2,0,B|512:268|512:216|512:216|512:176|512:176|512:124|468:104,1,219.999993443489,8|2
400,80,125288,1,8
348,32,125534,2,0,B|316:0|276:0|276:0|236:0|236:0|196:0|164:32,1,200,8|8
172,108,126272,1,8
208,196,126518,1,8
232,240,126640,1,8
256,280,126763,5,12
352,120,127255,2,0,B|312:184|252:152|256:120|260:92|200:56|160:120,1,240.000005722046,8|2
160,216,127992,1,8
256,232,128238,1,0
352,216,128484,1,0
428,156,128730,2,0,B|464:88|428:24|336:8|296:56,1,240.000005722046,0|8
213,53,129467,2,0,B|176:8|84:24|48:88|84:156,1,240.000005722046,8|8
256,224,130450,5,0
176,280,130696,2,0,B|224:332|296:316,1,120.000002861023,0|2
352,252,131188,2,8,B|368:184|316:144,1,120.000002861023,8|0
224,116,131679,2,0,B|157:137|148:202,1,120.000002861023,0|8
120,292,132171,2,0,B|172:292|172:292|200:256|232:252,1,120.000002861023,0|2
392,292,132663,2,0,B|340:292|340:292|312:256|280:252,1,120.000002861023,0|0
212,344,133154,2,0,B|232:304|256:300|280:304|300:344,1,120.000002861023,8|0
356,268,133646,2,0,B|316:216|256:196|196:216|152:272,1,240.000005722046,2|8
68,220,134383,1,8
92,180,134506,1,8
120,144,134629,6,0,B|164:168|216:140|232:92|240:36|168:0,1,240.000005722046,0|8
144,76,135366,2,0,B|224:88|256:116|256:116|288:88|368:76,1,240.000005722046,8|8
341,2,136104,2,0,B|272:36|280:92|296:140|348:168|392:144,1,240.000005722046,8|0
448,224,136841,1,2
424,316,137087,1,0
360,244,137333,2,0,B|292:276|256:304|256:304|220:276|152:244,1,240.000005722046,8|8
112,308,138070,5,2
44,284,138316,2,0,B|0:264|0:212|0:212|0:172|0:172|0:120|44:100,1,219.999993443489,8|2
112,76,139053,1,8
164,32,139299,2,0,B|196:0|236:0|236:0|276:0|276:0|316:0|348:32,1,200,8|2
400,76,140037,1,8
468,100,140282,2,0,B|512:120|512:172|512:172|512:212|512:212|512:264|468:284,1,219.999993443489,8|2
400,308,141020,1,8
348,352,141266,2,0,B|316:384|276:384|276:384|236:384|236:384|196:384|164:352,1,200,8|8
172,280,142003,1,8
256,264,142249,2,8,B|256:204,3,40.0000009536743,8|8|8|12
224,112,158226,5,0
76,172,158717,2,0,B|28:212|40:276|104:312|152:280,1,200,2|0
116,224,159455,2,0,B|116:296|116:296|116:384|216:364,1,200,2|0
256,308,160192,2,0,B|304:280|352:328,2,100,2|0|0
256,228,160930,1,2
376,104,162159,5,0
216,124,162650,2,0,B|166:162|106:137|84:67|126:27,1,200,2|0
176,72,163388,2,0,B|100:133|100:133|48:176|68:224,1,200,2|0
120,284,164125,2,0,B|168:308|212:272,2,100,2|0|0
156,212,164862,1,2
384,320,166091,5,0
336,168,166583,2,0,B|364:116|336:56|284:28|224:56,1,200,2|0
176,104,167320,2,0,B|148:156|176:216|228:244|288:216,1,200,2|0
344,264,168058,2,0,B|312:300|256:324|200:300|168:264,1,200,0|2
168,184,168795,2,0,B|200:148|256:124|312:148|344:184,2,200,0|2|2
112,240,170024,5,0
76,84,170516,2,0,B|168:84|168:84|180:96|180:96|280:96,1,200,2|0
352,96,171253,2,0,B|400:192|352:288,1,200,2|0
424,288,171991,2,0,B|316:288|316:288|304:300|304:300|228:300,1,200,0|2
148,300,172728,1,0
184,144,173220,5,2
256,176,173465,1,8
328,144,173711,1,0
256,100,173957,1,0
344,272,174449,2,0,B|324:336|256:372|188:336|168:272,2,240.000005722046,8|0|2
396,192,175678,1,0
360,104,175923,2,0,B|304:48|256:84|256:104|256:124|208:160|152:104,1,240.000005722046,0|8
84,36,176661,2,0,B|84:116|84:116|64:164|64:164|64:272,1,240.000005722046,0|8
256,288,177644,5,8
312,368,177890,2,0,B|364:336|352:264,1,120.000002861023,0|2
428,324,178381,2,0,B|436:260|408:208,1,120.000002861023,8|0
400,112,178873,2,0,B|360:168|292:140,1,120.000002861023,0|8
217,140,179365,2,0,B|152:168|112:112,1,120.000002861023,2|0
104,207,179856,2,0,B|76:260|84:324,1,120.000002861023
160,263,180348,2,0,B|148:336|200:368,1,120.000002861023,8|0
288,312,180840,2,0,B|308:268|304:184|256:220|208:184|204:268|224:312,1,240.000005722046,2|0
256,380,181577,1,8
256,380,181700,1,8
256,380,181823,5,0
396,248,182314,1,8
360,160,182560,2,0,B|316:104|256:96|196:104|152:160,1,240.000005722046,8|8
116,248,183298,1,8
208,80,183789,1,0
304,80,184035,1,2
256,164,184281,1,8
344,200,184527,2,0,B|320:268|256:296|192:268|168:200,1,240.000005722046,0|8
140,120,185264,1,0
64,72,185510,6,0,B|64:324,1,240.000005722046,2|0
152,268,186247,1,8
136,364,186493,2,0,B|380:364,1,240.000005722046,2|8
360,268,187230,1,8
448,312,187476,2,0,B|448:60,1,240.000005722046,2|0
360,116,188214,1,8
376,20,188459,2,0,B|132:20,1,240.000005722046,2|8
152,116,189197,1,8
256,124,189443,1,8
256,172,189565,1,8
256,220,189688,5,12
360,60,190180,2,0,B|316:4|256:-4|196:4|152:60,2,240.000005722046,8|0|0
384,152,191409,1,0
360,244,191655,2,0,B|304:300|256:264|256:244|256:224|208:188|152:244,1,240.000005722046,0|8
84,308,192392,2,0,B|84:228|84:228|64:180|64:180|64:72,1,240.000005722046,0|8
256,48,193375,5,8
164,72,193621,1,2
196,164,193867,1,0
104,184,194113,2,0,B|116:244|188:260,1,120.000002861023,8|0
120,332,194604,1,0
208,376,194850,1,8
304,376,195096,1,2
392,332,195342,1,0
324,259,195588,2,0,B|396:244|408:184,1,120.000002861023
316,164,196079,1,8
348,72,196325,1,0
256,40,196571,2,0,B|252:152|252:152|260:180|260:180|256:288,1,240.000005722046,2|0
256,376,197308,1,8
256,376,197431,1,8
256,376,197554,5,0
116,248,198046,1,8
152,160,198291,2,0,B|196:104|256:96|316:104|360:160,1,240.000005722046,8|8
396,248,199029,1,8
304,80,199520,1,0
208,80,199766,1,2
256,164,200012,1,8
168,200,200258,2,0,B|192:268|256:296|320:268|344:200,1,240.000005722046,0|8
372,120,200995,1,0
256,192,201241,12,4,205420
