osu file format v9

[General]
AudioFilename: Missing.mp3
AudioLeadIn: 0
PreviewTime: 47180
Countdown: 0
SampleSet: Soft
StackLeniency: 0.7
Mode: 0
LetterboxInBreaks: 0

[Editor]
Bookmarks: 79639,95377,142590,158327
DistanceSpacing: 0.8
BeatDivisor: 4
GridSize: 4

[Metadata]
Title:Missing
Artist:Eliza Doolittle
Creator:Krisom
Version:Easy
Source:
Tags:RandomJibberish RJ Come Softly To Me The Fleetwoods

[Difficulty]
HPDrainRate:2
CircleSize:3
OverallDifficulty:2
ApproachRate:2
SliderMultiplier:0.999999999999999
SliderTickRate:2

[Events]
//Background and Video events
0,0,"BG.jpg"
//Break Periods
2,79770,93741
2,142695,156666
//Storyboard Layer 0 (Background)
//Storyboard Layer 1 (Fail)
//Storyboard Layer 2 (Pass)
//Storyboard Layer 3 (Foreground)
//Storyboard Sound Samples
//Background Colour Transformations
3,100,163,162,255

[TimingPoints]
16645,491.601802539943,4,2,1,60,1,0
48107,-90.9090909090909,4,2,1,60,0,1
63573,-90.9090909090909,4,2,1,60,0,0
63838,-90.9090909090909,4,2,1,60,0,1
79570,-100,4,2,1,60,0,0
111032,-90.9090909090909,4,1,1,50,0,1
111143,-90.9090909090909,4,2,1,60,0,1
126508,-90.9090909090909,4,2,1,60,0,0
126763,-90.9090909090909,4,2,1,60,0,1
142495,-100,4,2,1,60,0,0
173957,-90.9090909090909,4,1,1,50,0,1
174117,-90.9090909090909,4,2,1,60,0,1
189486,-90.9090909090909,4,2,1,60,0,0
189688,-90.9090909090909,4,2,1,60,0,1
205420,-90.9090909090909,4,2,1,60,0,0

[Colours]
Combo1 : 248,7,175
Combo2 : 163,238,6
Combo3 : 241,122,3
Combo4 : 71,190,254

[HitObjects]
256,8,16645,1,12
316,64,17136,1,2
348,136,17628,2,0,B|256:204|164:136,1,200,8|2
184,256,19348,2,0,B|256:292|328:256,1,150,8|2
392,208,20577,5,8
376,128,21069,1,2
352,52,21561,2,0,B|256:4|160:52,1,200,8|2
184,168,23281,2,0,B|256:132|328:168,1,150,8|2
364,240,24510,5,8
420,300,25002,1,2
356,344,25493,2,0,B|152:344,1,200,8|2
180,228,27214,2,0,B|344:228,1,150,8|2
332,148,28443,5,8
332,308,29426,2,0,B|164:308,1,150,8|2
182,147,31147,2,0,B|342:147,1,150,2|8
412,147,32376,5,4
412,227,32867,1,2
464,288,33359,2,0,B|412:320|368:292,1,99.9999999999999,8|0
328,360,34342,2,0,B|256:324|184:360,2,150,2|8|8
400,328,36309,5,0
352,264,36800,1,2
304,200,37292,2,0,B|256:180|208:200,1,99.9999999999999,8|0
184,124,38275,2,0,B|256:88|328:124,2,150,2|8|8
100,147,40241,5,0
100,227,40733,1,2
48,288,41225,2,0,B|100:320|144:292,1,99.9999999999999,8|0
184,360,42208,2,0,B|256:324|328:360,2,150,2|8|8
112,328,44174,5,0
160,264,44666,1,2
208,200,45157,2,0,B|256:180|304:200,1,99.9999999999999,8|0
336,128,46141,1,2
256,112,46632,1,8
176,128,47124,1,0
256,284,48107,5,12
168,284,48599,2,0,B|100:240|124:192|100:144|168:100,1,219.999993443489,2|8
256,100,50073,1,0
344,100,50565,2,0,B|412:144|388:192|412:240|344:284,1,219.999993443489,2|8
256,296,52040,5,0
172,272,52531,1,2
136,192,53023,1,8
172,112,53515,1,0
256,88,54006,1,0
340,112,54498,1,2
376,192,54989,1,8
340,272,55481,1,0
356,360,55973,6,0,B|256:316|256:316|156:360,1,219.999993443489,8|2
132,276,57447,1,8
156,192,57939,2,0,B|256:148|256:148|356:192,1,219.999993443489,8|2
380,108,59414,1,8
436,176,59905,5,8
256,236,60889,1,2
76,176,61872,1,8
256,136,62855,1,2
256,224,63347,1,0
256,312,63838,5,4
340,284,64330,2,0,B|408:240|384:192|408:144|340:100,1,219.999993443489,2|8
256,72,65805,1,0
172,100,66296,2,0,B|104:144|128:192|104:240|172:284,1,219.999993443489,2|8
256,296,67771,5,0
340,272,68263,1,2
376,192,68754,1,8
340,112,69246,1,0
256,88,69737,1,0
172,112,70229,1,2
136,192,70721,1,8
172,272,71212,1,0
156,360,71704,6,0,B|256:316|256:316|356:360,1,219.999993443489,8|2
380,276,73179,1,8
356,192,73670,2,0,B|256:148|256:148|156:192,1,219.999993443489,8|2
132,108,75145,1,8
76,176,75637,5,8
256,236,76620,1,2
436,176,77603,1,8
256,136,78586,1,2
256,224,79078,1,0
256,308,79570,1,12
256,64,95301,5,12
196,116,95792,1,2
128,76,96284,2,0,B|72:104|80:176,1,99.9999999999999,8|0
88,236,97267,2,0,B|132:316|216:292,1,150,0|2
256,64,99234,5,8
316,116,99725,1,2
384,76,100217,2,0,B|440:104|432:176,1,99.9999999999999,8|0
424,236,101200,2,0,B|380:316|296:292,1,150,0|2
208,28,103658,6,0,B|256:4|304:28,1,99.9999999999999,8|2
256,92,104641,1,0
172,104,105133,2,0,B|116:104|116:104|104:120|104:120|28:120,2,150,0|2|8
208,28,107099,6,0,B|256:4|304:28,1,99.9999999999999,8|2
256,92,108082,1,0
340,104,108574,2,0,B|396:104|396:104|408:120|408:120|484:120,2,150,0|2|0
256,260,111032,5,0
176,292,111524,2,0,B|168:232|132:192|132:192|168:152|176:92,1,219.999993443489,2|8
256,60,112998,1,0
336,92,113490,2,0,B|344:152|380:192|380:192|344:232|336:292,1,219.999993443489,2|8
364,376,114965,6,0,B|136:376,3,219.999993443489,2|8|0|8
128,288,118406,1,0
48,256,118898,6,0,B|48:208|48:208|48:128|112:128|112:128|176:128,1,219.999993443489,0|2
256,128,120372,1,8
344,128,120864,2,0,B|400:128|400:128|464:128|464:208|464:208|464:256,1,219.999993443489,0|2
384,288,122339,1,8
304,320,122830,5,8
144,244,123814,1,2
208,64,124797,1,8
384,144,125780,1,2
328,76,126272,1,0
256,124,126763,5,4
176,92,127255,2,0,B|168:152|132:192|132:192|168:232|176:292,1,219.999993443489,2|8
256,324,128730,1,0
336,292,129221,2,0,B|344:232|380:192|380:192|344:152|336:92,1,219.999993443489,2|8
364,8,130696,6,0,B|136:8,3,219.999993443489,2|8|0|8
128,96,134137,1,0
48,128,134629,6,0,B|48:176|48:176|48:256|112:256|112:256|176:256,1,219.999993443489,0|2
256,256,136104,1,8
344,256,136595,2,0,B|400:256|400:256|464:256|464:176|464:176|464:128,1,219.999993443489,0|2
384,96,138070,1,8
304,64,138562,5,8
144,140,139545,1,2
208,320,140528,1,8
384,240,141511,1,2
328,308,142003,1,0
256,344,142495,1,12
256,32,158226,5,0
176,172,159209,1,0
336,172,160192,1,0
256,264,160930,1,2
152,92,162159,5,0
256,212,163142,1,0
360,92,164125,1,0
256,32,164862,1,2
176,216,166091,5,0
336,216,167075,1,0
331,56,168058,2,0,B|183:56,2,150,0|2|0
336,136,170024,5,0
176,136,171007,1,0
181,295,171991,2,0,B|329:295,1,150,0|2
256,64,173957,5,0
336,92,174449,2,0,B|344:152|380:192|380:192|344:232|336:292,1,219.999993443489,2|8
256,324,175923,1,0
176,292,176415,2,0,B|168:232|132:192|132:192|168:152|176:92,1,219.999993443489,2|8
148,8,177890,6,0,B|376:8,3,219.999993443489,2|8|0|8
384,96,181331,1,0
464,128,181823,6,0,B|464:176|464:176|464:256|400:256|400:256|336:256,1,219.999993443489,0|2
256,256,183298,1,8
168,256,183789,2,0,B|112:256|112:256|48:256|48:176|48:176|48:128,1,219.999993443489,0|2
128,96,185264,1,8
208,64,185756,5,8
368,140,186739,1,2
304,320,187722,1,8
128,240,188705,1,2
184,308,189197,1,0
256,260,189688,5,4
336,292,190180,2,0,B|344:232|380:192|380:192|344:152|336:92,1,219.999993443489,2|8
256,60,191655,1,0
176,92,192146,2,0,B|168:152|132:192|132:192|168:232|176:292,1,219.999993443489,2|8
148,376,193621,6,0,B|376:376,3,219.999993443489,2|8|0|8
384,288,197062,1,0
464,256,197554,6,0,B|464:208|464:208|464:128|400:128|400:128|336:128,1,219.999993443489,0|2
256,128,199029,1,8
168,128,199520,2,0,B|112:128|112:128|48:128|48:208|48:208|48:256,1,219.999993443489,0|2
128,288,200995,1,8
256,192,201487,12,4,205420
