osu file format v5

[General]
AudioFilename: 101011_Tricktrack.mp3
AudioLeadIn: 0
PreviewTime: -1
Countdown: 1
SampleSet: Soft
StackLeniency: 0.7
Mode: 0
LetterboxInBreaks: 1
EditorBookmarks: 18009,22134,24009,34321,36009,52321,53634,58321,60009,62634,69009,70321,72009,82884,84009,84196,84571,84946,85134,85321,85696,85884,86071,86259,86634,86821,87196,87384,90009,90571,90946,91134,91321,91696,91884,92071,92446,92634,92821,93009,93571,93665,93759,96009,96946,97134,97321,97696,97884,98071,98259,99009,99384,99759,100134,100509,101071,101634,104446,106134,106509,108009,111009,111759,112509,113071,123009,125446,125634,126946,127321,127884,128071,128634,129009,129759,130321,132009
EditorDistanceSpacing: 0.600000023841858

[Metadata]
Title:Tricktrack
Artist:EliteFerrex
Creator:Yaahh
Version:Hard
Source:Phantasy Star Online
Tags:Tricktrack PSO

[Difficulty]
HPDrainRate:6
CircleSize:5
OverallDifficulty:8
SliderMultiplier:2.2
SliderTickRate:2

[Events]
//Background and Video events
0,0,"wp3.jpg"
//Break Periods
2,36209,47259
2,72209,83259
2,116271,118884
//Storyboard Layer 0 (Background)
//Storyboard Layer 1 (Fail)
//Storyboard Layer 2 (Pass)
//Storyboard Layer 3 (Foreground)
//Storyboard Sound Samples
//Background Colour Transformations
3,100,163,162,255

[TimingPoints]
9,375,4,2,0,100,1,0
132009,-100,4,2,0,0,0,0

[Colours]
Combo1 : 255,128,128
Combo2 : 128,255,128
Combo3 : 128,128,192

[HitObjects]
64,64,12009,1,4
64,64,12196,1,0
128,64,12384,1,8
128,64,12571,1,0
192,64,12759,1,0
192,64,12946,1,0
256,64,13134,2,0,B|384:64,1,110,8|0
352,128,13509,5,0
352,128,13696,1,0
288,128,13884,1,8
288,128,14071,1,0
224,128,14259,1,0
224,128,14446,1,0
160,128,14634,1,8
160,128,14821,1,0
128,64,15009,6,0,B|64:160|128:288,1,220,4|8
256,272,15759,6,0,B|320:176|256:48,1,220,4|8
192,64,16321,1,0
192,64,16509,6,0,B|160:-64|416:-64|512:32|416:160|128:320,1,660,0|8
64,64,18009,6,0,B|64:192,2,110,0|0|8
64,64,18571,1,0
128,64,18759,2,0,B|128:192,2,110,0|0|8
128,64,19321,1,0
192,64,19509,5,0
256,64,19696,2,0,B|384:64,2,110,0|8|0
256,128,20259,1,0
256,192,20446,2,0,B|384:192,1,110,0|8
384,256,20821,1,0
384,256,21009,6,0,B|416:384|160:384|64:288|160:160|448:0,1,660,0|8
410,21,22321,1,2
410,21,22415,1,0
256,192,22509,12,2,23634
64,32,24009,5,4
64,32,24384,2,0,B|0:128|96:256,1,220,8|0
82,237,24946,1,0
82,237,25134,2,0,B|192:288|320:224,1,220,8|0
295,235,25696,5,0
295,235,25884,2,0,B|352:128|288:0,1,220,8|0
298,22,26446,1,0
298,22,26634,2,0,B|192:64|64:32,1,220,8|0
81,36,27384,5,8
96,160,27759,1,0
160,192,27946,1,0
160,128,28134,1,8
224,160,28321,1,0
224,96,28509,1,0
320,160,28884,1,8
352,32,29259,5,0
320,96,29446,1,0
288,32,29634,1,8
256,96,29821,1,0
256,160,30009,6,0,L|256:32,1,110
257,160,30384,2,0,L|166:69,1,110,8|0
256,160,30759,2,0,L|128:160,1,110
256,160,31134,5,8
256,160,31321,1,0
256,160,31509,2,0,L|256:288,1,110
256,160,31884,2,0,L|352:256,1,110,8|0
256,160,32259,2,0,L|384:160,1,110
256,160,32634,1,8
256,160,32821,1,0
256,160,33009,2,0,L|256:96,13,55
256,192,34321,12,4,36009
224,32,48009,5,0
160,32,48196,1,0
96,32,48384,2,0,B|64:96|96:160,1,110,8|0
160,128,48759,1,0
224,128,48946,1,0
288,128,49134,6,0,B|320:192|288:256,1,110,8|0
224,224,49509,1,0
160,224,49696,1,0
96,224,49884,2,0,B|64:288|128:352,1,110,8|0
176,320,50259,1,0
240,320,50446,1,0
304,320,50634,6,0,B|304:160|464:224,1,220,8|0
416,288,51196,1,0
416,288,51384,1,8
416,288,51571,1,0
416,288,51759,1,0
416,288,51946,1,0
416,288,52134,1,8
480,288,52321,5,0
480,288,52415,1,0
480,288,52509,2,0,B|256:384|0:192|256:0|448:160|480:192,1,660,0|8
32,32,54009,6,0,B|32:160,1,110
96,128,54384,2,0,B|96:256,1,110,8|0
160,224,54759,2,0,B|160:352,1,110
224,288,55134,2,0,B|224:352,2,55,8|0|0
288,320,55509,2,0,B|288:192,1,110
352,224,55884,2,0,B|352:96,1,110,8|0
416,128,56259,2,0,B|416:0,1,110
480,32,56634,2,0,B|480:96,2,55,8|0|0
480,32,57009,6,0,B|256:0|0:0|0:192|384:320,1,770,0|0
256,192,58509,12,2,59634
160,96,60009,5,4
224,96,60196,1,0
288,96,60384,1,8
352,96,60571,1,0
320,160,60759,5,0
256,160,60946,1,0
192,160,61134,1,8
128,160,61321,1,0
160,224,61509,5,0
224,224,61696,1,0
288,224,61884,1,8
352,224,62071,1,0
288,224,62259,5,0
224,224,62446,1,0
160,224,62634,1,8
128,288,62821,6,0,B|256:288,7,110,0|0|0|8|0|0|0|8
288,288,64321,2,0,B|352:288,14,55,0|0|0|0|0|0|8|0|0|0|0|0|0|0|8
352,160,66009,5,0
288,160,66196,2,0,B|160:160,1,110,0|8
96,160,66571,1,0
96,96,66759,1,0
96,160,66946,1,0
96,224,67134,5,8
160,224,67321,2,0,B|288:224,1,110
352,224,67696,1,0
416,224,67884,1,8
416,160,68071,1,0
352,160,68259,5,0
352,160,68446,2,0,B|224:160,1,110,0|8
160,160,68821,1,0
160,160,69009,6,0,B|0:160|0:384|256:384|512:384|512:192|192:160,1,770,0|8
192,224,70509,1,0
192,224,70602,1,0
192,224,70696,1,0
192,224,70790,1,0
192,224,70884,1,0
192,224,70977,1,0
192,224,71071,1,0
192,224,71165,1,0
192,224,71259,1,0
192,224,71352,1,0
192,224,71446,1,0
192,224,71540,1,0
192,224,71634,1,0
192,224,71727,1,0
192,224,71821,1,0
192,224,71915,1,0
192,224,72009,1,4
416,64,84009,5,0
352,64,84196,1,0
224,64,84571,1,8
96,64,84946,1,0
128,128,85134,1,0
160,192,85321,1,8
288,192,85696,1,0
320,128,85884,1,0
256,128,86071,1,8
224,192,86259,1,0
96,192,86634,6,0,B|224:192,1,110,0|8
352,192,87196,2,0,B|224:192,1,110,0|8
96,192,87759,6,0,L|96:64,1,110,0|2
160,32,88134,2,0,L|288:32,1,110,2|2
320,96,88509,2,0,L|320:224,1,110,0|2
256,256,88884,1,2
192,288,89071,1,2
192,224,89259,1,8
256,192,89446,1,8
256,128,89634,1,8
192,160,89821,1,8
128,160,90009,6,0,B|128:32,1,110
128,160,90571,1,8
128,32,90946,1,0
192,64,91134,1,0
256,96,91321,2,0,B|64:224,1,220,8|0
96,288,91884,1,0
160,288,92071,5,8
288,288,92446,1,0
224,288,92634,1,0
224,352,92821,2,0,B|352:352,1,110,8|0
416,192,93571,5,8
416,224,93665,1,0
416,256,93759,1,4
160,256,94509,5,0
160,192,94696,2,2,L|160:128,2,36.6666666666667
256,160,95071,1,0
256,224,95259,2,2,L|256:288,2,36.6666666666667
352,256,95634,2,0,L|352:128,1,110,0|4
256,64,96009,5,0
160,160,96384,1,8
256,256,96759,1,0
352,160,97134,1,8
448,256,97509,1,0
352,352,97884,1,8
256,256,98259,5,0
352,160,98634,1,8
256,64,99009,1,0
160,160,99384,1,8
64,64,99759,1,0
192,0,100134,1,8
256,96,100509,5,2
256,96,100602,1,2
256,96,100696,1,2
256,96,100790,1,2
320,160,101071,1,2
320,160,101165,1,2
320,160,101259,1,2
320,160,101352,1,2
224,224,101634,2,0,B|224:96,1,110,0|8
256,32,102009,6,0,B|256:160,1,110
256,288,102571,1,8
352,192,102946,1,0
352,192,103134,2,0,B|224:192,1,110,0|8
320,96,103696,1,0
224,192,104071,1,8
128,288,104446,5,0
160,320,104634,1,0
192,288,104821,1,8
224,320,105009,1,0
256,288,105196,1,0
288,320,105384,1,0
320,288,105571,1,8
352,320,105759,1,0
384,288,105946,1,0
416,320,106134,1,8
256,192,106509,12,4,108009
64,64,108384,5,8
96,128,108571,1,0
128,192,108759,1,0
160,128,108946,1,0
192,64,109134,1,8
224,128,109321,1,0
256,192,109509,1,0
288,128,109696,1,0
320,64,109884,1,8
352,0,110071,2,0,B|480:192|224:256,1,330,0|8
352,320,111009,5,0
320,256,111196,1,0
288,192,111384,1,8
256,256,111571,1,0
224,320,111759,1,0
192,256,111946,1,0
160,192,112134,1,8
128,256,112321,1,0
96,320,112509,2,0,B|-32:128|224:64,1,330,0|8
192,72,113259,2,0,C|288:64|416:64,1,220,0|8
320,160,114009,5,0
352,224,114196,1,0
320,288,114384,1,8
256,288,114571,1,0
224,224,114759,1,0
256,160,114946,1,0
288,224,115134,1,8
288,224,115321,1,0
288,224,115509,2,0,B|288:96|96:128|128:320,1,330,0|8
128,96,119634,5,0
128,96,119727,1,0
128,96,119821,1,0
128,96,119915,1,0
128,96,120009,2,0,B|256:96,1,110,8|0
192,160,120384,1,0
192,160,120477,1,0
192,160,120571,2,0,B|64:160,1,110,0|8
128,224,120946,2,0,B|256:224,1,110,0|0
238,224,121509,1,0
238,224,121602,1,0
238,224,121696,1,0
288,96,122071,2,0,B|416:288|160:352,1,330,8|8
160,224,123009,5,0
224,256,123196,1,0
288,224,123384,1,8
288,160,123571,1,0
224,128,123759,1,0
160,160,123946,1,0
224,192,124134,2,0,B|224:64,1,110,8|0
288,96,124509,1,0
352,96,124696,1,0
416,96,124884,1,8
416,160,125071,5,0
416,192,125165,1,0
416,224,125259,1,0
352,224,125446,1,0
352,256,125540,1,0
352,288,125634,1,8
224,288,126009,2,0,B|128:384|0:256,1,220,0|8
96,256,126571,1,0
96,256,126665,1,0
96,160,126946,6,0,B|160:32|288:96,1,220,0|8
320,224,127696,1,0
256,224,127884,5,0
256,224,127977,1,0
256,224,128071,1,8
256,32,128634,5,2
480,192,129009,5,8
256,352,129384,5,2
32,192,129759,5,8
256,192,130134,5,2
320,192,130321,1,0
320,192,130415,1,0
320,192,130509,1,0
320,192,130602,1,0
320,192,130696,1,0
320,192,130790,1,0
320,192,130884,1,0
320,192,130977,1,0
320,192,131071,1,0
320,192,131165,1,0
320,192,131259,1,0
320,192,131352,1,0
320,192,131446,1,0
320,192,131540,1,0
320,192,131634,1,0
320,192,131727,1,0
320,192,131821,1,0
320,192,131915,1,0
256,192,132009,12,0,133696
