osu file format v5

[General]
AudioFilename: Elfen Lied - Lilium.mp3
AudioLeadIn: 0
PreviewTime: -1
Countdown: 0
SampleSet: Soft
StackLeniency: 0.7
Mode: 0
LetterboxInBreaks: 1

[Metadata]
Title:Lilium
Artist:Elfen Lied
Creator:Saturos-fangirl
Version:Normal
Source:
Tags:

[Difficulty]
HPDrainRate:4
CircleSize:5
OverallDifficulty:3
SliderMultiplier:1.4
SliderTickRate:1

[Events]
//Background and Video events
0,0,"elfen_lied_wallpaper2.jpg"
//Break Periods
2,11564,12588
2,36205,37230
2,84443,88306
2,123159,125270
2,131731,137055
2,148874,150448
2,160660,161698
//Storyboard Layer 0 (Background)
//Storyboard Layer 1 (Failing)
//Storyboard Layer 2 (Passing)
//Storyboard Layer 3 (Foreground)
//Storyboard Sound Samples
//Background Colour Transformations
3,100,163,162,255

[TimingPoints]
3887,535.714285714286,4,2,0,100,1
89756,535.714285714286,4,2,0,100,1

[Colours]
Combo1 : 255,255,43
Combo2 : 255,210,252
Combo3 : 255,145,34
Combo4 : 255,26,26

[HitObjects]
100,79,2815,1,0
145,116,3083,1,0
193,81,3351,1,0
322,134,3887,2,0,B|392:130|416:194|407:244|415:223,1,140
489,151,4958,2,0,B|488:76|432:39|392:63,1,140
409,57,5762,1,0
410,57,6029,1,4
233,74,6833,5,0
233,74,7101,2,0,B|238:141|237:160|306:196,1,140
412,178,8172,2,0,B|465:193|463:247|420:282|401:297,1,140,2|0
411,287,8976,1,0
411,287,9244,1,2
292,292,9779,2,2,B|230:284|193:282|199:257|242:226|284:239,3,140,2|2|2|6
87,73,14065,5,0
123,119,14333,1,0
164,160,14601,2,2,B|192:181|224:207|275:195|307:141,2,140,0|2|6
265,99,16208,1,2
374,54,16744,1,2
443,149,17279,1,2
487,258,17815,1,2
405,343,18351,5,0
286,346,18886,2,0,B|240:346|218:259|285:219,1,140
383,229,19958,2,0,B|431:194|442:167|416:131|386:148|323:115|318:70|342:29|380:40|423:32,1,280
408,35,21565,1,4
308,99,22101,1,4
267,210,22637,6,0,B|214:196|209:170|204:128|215:83,1,140
110,38,23708,1,0
256,192,24244,12,4,26387
116,292,27458,5,0
85,241,27726,1,0
118,192,27994,1,0
197,104,28529,2,2,B|252:99|293:123|310:149|314:171|314:188|298:200|301:189,1,140
275,219,29333,1,2
220,242,29601,2,2,B|216:260|235:286|259:308|288:323|343:300,1,140,2|6
428,250,30672,1,4
460,15,31744,6,0,B|402:7|375:17|375:38|378:65|391:105,1,140,0|0
277,136,32815,1,2
310,184,33083,1,2
250,186,33351,1,2
286,233,33619,1,2
226,236,33887,1,2
109,216,34422,1,4
102,97,34958,2,4,B|109:71|126:53|143:59|160:43|136:11|200:98|145:117,2,140
104,120,38708,5,0
139,163,38976,1,0
174,206,39244,2,0,B|214:252|260:260|310:201,2,140
281,155,40851,2,2,B|284:110|330:108,2,70
386,208,41922,2,2,B|394:267|345:263,2,70
374,89,42994,6,2,B|304:125,1,70
270,160,43529,1,2
296,212,43797,1,2
240,220,44065,2,0,B|195:160|148:101,1,140
153,227,45137,1,2
271,223,45672,2,0,B|442:225,1,140,2|0
409,165,46476,1,2
467,168,46744,2,0,B|467:319,1,140,2|0
411,313,47547,1,2
354,313,47815,2,0,B|342:282|325:261|305:254|274:272|259:294|274:306|270:334,2,140,2|0|6
257,350,49422,6,0,B|257:270,1,70,2|0
256,280,49958,6,0,B|257:197,1,70,2|0
257,209,50494,6,0,B|257:129,1,70,2|0
257,79,51029,5,2
370,113,51565,1,2
402,213,52101,1,2
330,299,52637,1,2
218,311,53172,1,2
137,232,53708,1,2
168,124,54244,1,2
273,86,54779,1,2
386,120,55315,6,0,B|399:187|334:188,1,70,4|0
308,194,55851,1,0
204,251,56387,1,0
310,301,56922,1,0
411,260,57458,2,4,B|412:232|389:174|361:142|299:116|243:102|207:105|164:122|91:173|89:225,1,420
78,257,59333,1,0
78,257,59601,1,4
87,138,60137,5,2
136,105,60404,1,2
171,152,60672,1,2
235,251,61208,5,2
288,226,61476,1,2
267,170,61744,1,2
219,61,62279,5,4
100,69,62815,6,0,B|67:80|39:105|53:208,1,140
168,195,63887,2,0,B|268:195,1,70,2|0
297,195,64422,2,0,B|197:194,1,70,2|0
237,135,64958,2,0,B|236:294,1,140,2|0
295,277,65762,1,0
348,252,66029,1,4
442,180,66565,5,0
407,131,66833,1,0
356,159,67101,2,0,B|316:146|282:120|279:68|295:33,1,140,2|0
256,192,68172,12,6,71387
148,136,71922,5,0
227,71,72458,2,0,B|269:79|301:131|309:154|304:205,1,140
335,227,73261,1,0
301,275,73529,1,0
162,256,74065,6,0,B|108:240|103:198|111:194,1,70,2|0
193,274,74601,2,2,B|251:305|271:278|306:286|323:277|334:262|343:259|337:246,2,140
102,198,76208,5,2
77,144,76476,1,2
128,114,76744,1,2
245,99,77279,5,2
304,103,77547,1,2
319,160,77815,1,6
215,218,78351,5,0
215,218,78619,1,0
215,218,78886,2,0,B|260:264|271:285|328:287|354:286|364:274,1,140
217,219,79958,2,0,B|170:275|152:283|112:279|91:276,1,140
217,219,81029,6,2,B|168:230|138:219|107:193|87:170|73:131|67:97|67:97|120:134|155:111|190:124|210:148|228:174|245:197|245:197|259:174|271:149|292:126|330:109|358:146|414:101|414:101|409:137|394:170|370:204|337:227|308:239|259:220,1,840
209,320,89756,6,0,B|164:306|110:295|84:248|80:229|93:228,1,140
83,131,90827,2,2,B|74:80|82:41|148:2|235:4|293:22|319:53|296:43,1,280
409,30,92434,1,0
338,124,92970,2,2,B|253:120|227:172|226:206|246:214,1,140
234,195,94041,2,2,B|235:258|229:285|183:301|160:295,1,140,2|2
168,296,94845,1,0
168,296,95113,1,2
53,277,95648,5,0
94,166,96184,2,2,B|108:118|146:94|178:86|218:86,1,140
297,22,97255,2,2,B|342:49|397:129|397:170|378:228|319:263,1,280
211,261,98863,2,2,B|159:259|96:256|96:323,1,140
212,335,99934,2,0,B|285:336,2,70,2|0|2
152,232,101005,1,4
266,263,101541,1,4
369,321,102077,1,4
454,375,102613,6,0,B|513:327|517:299|505:245,1,140,6|2
441,157,103684,1,2
349,232,104220,1,0
349,232,104488,1,0
297,261,104755,2,2,B|244:235|213:208|210:168|249:148,1,140
351,145,105827,2,2,B|400:103|437:84|381:9|321:16|305:67|297:115|336:126|376:120|421:106|412:122,2,280
308,255,108505,5,0
308,255,108773,1,0
308,255,109041,2,2,B|265:295|208:319|155:305|174:316|167:308|152:304,1,140
101,222,110113,1,2
156,117,110648,5,0
156,117,110916,1,0
156,117,111184,2,2,B|191:78|223:46|296:52|298:51,1,140
338,151,112255,2,2,B|328:189|289:191|286:153|290:117|297:109|308:63,1,140,2|2
404,22,113327,2,2,B|455:60|477:136|468:172,1,140,2|2
256,192,114398,12,6,117077
373,224,117613,6,2,B|367:149|335:114|286:95|187:96|143:97|103:137|91:171|80:204|94:249,1,420
112,286,119488,1,0
170,276,119755,2,2,B|247:314|299:284|318:265,2,140,2|2|4
260,198,121363,1,0
312,91,121898,2,2,B|255:43|197:61|168:107|155:100,2,140,2|2|6
260,104,125648,6,0,B|336:138|361:208|360:215,1,140,2|2
278,290,126720,1,2
218,285,126988,1,0
208,226,127255,2,2,B|182:209|146:153|161:134|190:74,1,140
294,112,128327,1,2
326,161,128595,1,0
299,213,128863,2,2,B|261:238|237:273|151:221,5,140
260,350,138505,6,0,B|260:270,1,70,2|0
260,280,139041,6,0,B|261:197,1,70,2|0
261,209,139577,6,0,B|261:129,1,70,2|0
263,68,140113,5,6
321,73,140380,1,2
368,107,140648,1,2
400,156,140916,1,2
403,215,141184,1,6
377,268,141452,1,2
328,301,141720,1,2
269,308,141988,1,2
211,293,142255,1,6
163,258,142523,1,2
148,200,142791,1,2
171,145,143059,1,2
214,104,143327,1,6
270,121,143595,1,2
278,179,143863,1,6
349,273,144398,6,0,B|294:328|206:287|201:268,3,140,2|0|2|0
256,192,146541,12,6,148684
96,71,151898,6,0,B|192:71,1,70
139,124,152434,2,0,B|229:123,1,70
255,86,152970,2,2,B|254:373,1,280
319,267,154577,2,2,B|176:267,1,140
202,150,155648,5,0
202,150,155916,1,0
252,118,156184,2,2,B|251:263,1,140
292,368,157255,2,2,B|331:368|373:347|378:295|383:249|365:198|318:166|236:168|184:164|142:178|97:273|133:337|150:337|196:377|226:371,1,560
255,259,159934,1,0
255,259,160470,1,6
360,134,163148,5,0
308,240,163684,2,0,B|261:287|223:282|195:262|176:242,2,140,2|0|2
244,140,165291,1,2
244,140,165559,1,2
244,140,165827,1,2
129,109,166363,1,2
69,109,166631,1,2
128,109,166898,1,2
48,197,167434,6,0,B|48:235|84:291|145:296,1,140,0|2
251,309,168506,1,0
367,329,169041,2,2,B|413:276|413:239|352:203|320:233,1,140,2|2
217,219,170113,2,2,B|168:230|138:219|107:193|87:170|73:131|67:97|67:97|120:134|155:111|190:124|210:148|228:174|245:197|245:197|259:174|271:149|292:126|330:109|358:146|414:101|414:101|409:137|394:170|370:204|337:227|308:239|259:220,1,840
