osu file format v5

[General]
AudioFilename: Elfen Lied - Lilium.mp3
AudioLeadIn: 0
PreviewTime: -1
Countdown: 0
SampleSet: Soft
StackLeniency: 0.7
Mode: 0
LetterboxInBreaks: 1

[Metadata]
Title:Lilium
Artist:Elfen Lied
Creator:Saturos-fangirl
Version:Hard
Source:
Tags:

[Difficulty]
HPDrainRate:5
CircleSize:5
OverallDifficulty:6
SliderMultiplier:1.4
SliderTickRate:1

[Events]
//Background and Video events
0,0,"elfen_lied_wallpaper2.jpg"
//Break Periods
2,84443,88696
2,133874,137446
2,160660,162088
//Storyboard Layer 0 (Background)
//Storyboard Layer 1 (Failing)
//Storyboard Layer 2 (Passing)
//Storyboard Layer 3 (Foreground)
//Storyboard Sound Samples
//Background Colour Transformations
3,100,163,162,255

[TimingPoints]
3887,535.714285714286,4,2,0,72,1
89756,535.714285714286,4,2,0,66,1

[Colours]
Combo1 : 255,255,47
Combo2 : 255,166,255
Combo3 : 255,141,28
Combo4 : 251,64,101

[HitObjects]
100,79,2815,1,0
151,144,3083,1,0
192,71,3351,1,0
264,220,3887,1,0
306,148,4154,1,0
343,130,4288,1,0
351,170,4422,1,0
415,225,4690,1,0
468,162,4958,2,0,B|508:151|513:81|398:70,1,140
425,73,6029,1,4
362,17,6297,5,0
362,17,6431,1,0
362,17,6565,1,0
293,64,6833,5,0
293,64,7101,2,0,B|298:131|297:150|366:186,1,140
354,180,7904,1,0
354,180,8172,2,0,B|407:195|405:249|362:284|343:299,1,140
355,290,8842,1,4
355,290,8976,1,0
355,290,9244,1,2
226,188,9779,5,0
226,188,9913,1,0
226,188,10047,1,0
202,267,10315,1,0
202,267,10583,1,0
128,306,10851,1,0
128,306,11119,1,0
48,282,11386,1,0
191,196,11922,6,0,B|212:234|306:268|375:265|408:233,1,210
396,178,12994,2,0,B|360:140|326:122|299:132|300:110|243:118|244:136,1,140,0|0
110,89,14065,5,0
186,236,14601,2,2,B|214:257|246:283|297:271|329:217,2,140,0|2|6
265,89,16208,5,0
265,89,16342,1,0
265,89,16476,1,0
348,91,16744,1,0
348,91,17011,1,0
395,159,17279,1,2
478,161,17547,1,2
394,159,17815,1,2
452,314,18351,5,0
287,335,18886,2,0,B|241:335|219:248|286:208,1,140
266,224,19690,1,0
349,227,19958,2,0,B|395:188|406:161|380:125|350:142|287:109|282:64|306:23|344:34|387:26,1,280
203,29,21565,1,4
203,29,21699,1,0
203,29,21833,1,0
269,79,22101,1,4
256,161,22369,5,0
256,162,22637,2,0,B|203:148|198:122|193:80|204:35,1,140
118,40,23440,2,0,B|39:40,1,70
1,109,23976,2,0,B|84:109,1,70,0|0
256,192,24378,12,4,26387
71,230,27458,5,0
71,230,27592,1,0
71,230,27726,1,0
117,161,27994,1,0
251,63,28529,2,0,B|294:55|323:81,1,70,0|0
380,230,29333,2,0,B|370:285|320:273|313:270,1,70
249,271,29869,2,0,B|236:314|264:315|288:337|300:324|305:316,2,70
181,222,30672,1,0
181,222,30940,1,0
185,138,31208,5,0
185,138,31342,1,0
185,138,31476,1,0
244,80,31744,6,0,B|336:104|309:114|309:135|312:162|325:202,1,140
481,208,32815,1,0
399,226,33083,1,0
465,276,33351,1,0
383,293,33619,1,0
448,344,33887,1,0
448,344,34020,1,0
448,344,34154,1,0
382,292,34422,5,0
260,178,34958,2,0,B|267:152|284:134|301:140|318:124|294:92|358:179|303:198,2,140
262,177,36163,1,0
262,177,36297,1,0
178,180,36565,5,0
178,180,36833,1,0
111,129,37101,1,0
111,129,37235,1,0
111,129,37369,1,0
95,210,37637,1,2
160,261,37904,1,2
83,294,38172,1,2
111,130,38708,5,0
168,189,38976,1,0
229,245,39244,2,0,B|269:291|315:299|365:240,2,140
229,244,40449,1,0
229,244,40583,1,0
256,165,40851,6,0,B|259:120|305:118,2,70
256,165,41520,1,0
256,165,41654,1,0
334,193,41922,2,0,B|342:252|293:248,2,70
334,193,42726,1,0
326,110,42994,6,0,B|256:146,1,70,0|0
182,122,43529,1,0
204,156,43663,1,0
227,190,43797,1,0
181,259,44065,2,0,B|136:199|89:140,1,140
95,148,44735,1,0
95,148,44869,1,0
88,230,45137,1,2
88,230,45404,1,0
171,229,45672,6,0,B|343:229,1,140,0|2
310,229,46342,1,2
310,229,46476,1,2
381,187,46744,2,0,B|381:331,1,140,0|2
381,326,47413,1,2
381,326,47547,1,2
302,291,47815,2,2,B|322:253|291:215|265:214|275:250|297:248|335:236|340:188,2,140,0|0|0
260,352,49422,6,0,B|260:295,2,35,2|0|0
261,268,49958,6,0,B|262:204,2,35,2|0|0
261,184,50494,6,0,B|261:115,2,35,2|0|0
262,100,51029,5,2
262,100,51297,1,2
336,136,51565,1,2
336,136,51833,1,2
349,218,52101,1,2
349,218,52369,1,2
287,273,52637,1,2
287,273,52904,1,2
203,276,53172,5,2
203,276,53440,1,2
160,204,53708,1,2
160,204,53976,1,2
188,125,54244,1,2
188,125,54512,1,2
267,100,54779,1,6
416,173,55315,6,0,B|429:240|364:241,1,70,2|0
355,244,55717,1,0
330,210,55851,1,2
273,271,56119,1,0
273,271,56387,1,2
313,343,56654,1,0
396,339,56922,1,2
395,338,57056,1,0
395,338,57190,1,0
441,269,57458,6,2,B|442:241|419:183|391:151|329:125|273:111|237:114|194:131|121:182|119:234,1,420
91,290,59333,1,0
91,290,59601,1,4
85,123,60137,5,2
107,88,60270,1,0
85,123,60404,1,2
163,150,60672,1,2
271,276,61208,5,2
292,240,61342,1,0
270,275,61476,1,2
222,206,61744,1,2
209,40,62279,5,4
209,40,62413,1,4
209,40,62547,1,4
127,55,62815,6,0,B|94:66|66:91|80:194,1,140
78,172,63619,1,0
159,190,63887,6,0,B|226:189,2,35
242,191,64422,2,0,B|173:191,2,35
196,121,64958,2,0,B|195:280,1,140,0|0
195,261,65628,1,0
195,261,65762,1,0
277,263,66029,1,4
418,176,66565,5,0
419,134,66699,1,0
378,123,66833,1,0
314,176,67101,2,0,B|274:163|240:137|237:85|253:50,1,140
247,70,67904,1,0
256,192,68172,12,2,69779
256,192,70047,12,2,70851
38,52,71387,5,4
148,136,71922,1,0
148,136,72190,1,0
208,78,72458,2,2,B|250:86|282:138|290:161|285:212,1,140
317,257,73261,1,0
239,223,73529,1,4
169,177,73797,5,0
101,228,74065,2,0,B|47:212|42:170|50:166,1,70,0|0
126,244,74601,2,0,B|184:275|204:248|239:256|256:247|267:232|276:229|270:216,2,140,0|0|4
63,89,76208,5,2
85,124,76342,1,0
123,139,76476,1,2
174,73,76744,1,2
339,85,77279,5,2
420,102,77547,1,2
392,180,77815,1,6
227,203,78351,5,0
227,203,78485,1,0
227,203,78619,1,0
227,203,78886,2,0,B|234:243|246:265|284:258|293:263|293:258,1,70
227,203,79422,2,0,B|218:239|220:251|210:261|170:269,1,70
264,309,79958,1,0
264,309,80226,1,0
194,354,80494,1,2
225,215,81029,6,2,B|179:221|143:205|119:189|103:165|86:134|69:81|69:81|114:116|167:97|192:129|210:148|236:170|256:182|256:182|268:171|288:149|304:129|317:97|373:115|416:80|416:80|400:132|385:173|364:193|340:211|313:223|270:215,1,840,2|6
209,320,89756,6,0,B|164:306|160:312|125:293|140:290|128:277,1,70
58,279,90291,1,0
58,279,90425,1,0
58,279,90559,1,0
84,200,90827,2,2,B|75:149|83:110|149:71|236:73|294:91|320:122|297:112,1,280
445,159,92434,5,0
445,159,92702,1,0
384,101,92970,2,2,B|348:171|273:149|272:183|292:191,1,140
202,180,93773,1,0
226,259,94041,2,2,B|227:322|221:349|175:365|152:359,1,140
159,359,94845,1,0
75,361,95113,1,2
12,206,95648,5,0
12,206,95782,1,0
12,206,95916,1,0
77,153,96184,2,2,B|91:105|129:81|161:73|201:73,1,140
182,74,96854,1,0
182,74,96988,1,0
252,29,97255,2,2,B|297:56|352:136|352:177|333:235|274:270,1,280,2|2
118,267,98863,6,2,B|66:265|3:262|3:329,1,140
169,334,99934,2,0,B|230:334,4,35,2|0|0|0|2
110,177,101005,5,0
110,177,101273,1,0
186,209,101541,1,0
186,209,101809,1,0
263,239,102077,1,0
313,304,102345,1,0
386,339,102613,6,0,B|429:306|433:306|420:298,1,35,2|0
448,293,102880,1,2
495,224,103148,1,2
435,166,103416,1,0
435,166,103684,1,2
340,302,104220,1,2
340,302,104488,1,2
263,270,104755,6,2,B|210:244|179:217|176:177|215:157,1,140,2|2
200,168,105559,1,0
281,152,105827,2,0,B|318:127|322:103|303:83|268:100|270:121|274:139|284:143|300:143|336:131|332:120,4,140,2|0|2|0|2
421,241,108505,5,0
421,241,108639,1,0
421,241,108773,1,0
354,290,109041,2,2,B|311:330|254:354|201:340|220:351|213:343|198:339,1,140,2|2
144,340,109845,1,0
189,270,110113,1,2
69,153,110648,5,0
69,153,110782,1,0
69,153,110916,1,0
145,120,111184,6,0,B|177:109|190:109|209:139|221:101,1,70,2|0
239,195,111720,2,0,B|275:209|285:185|321:197,1,70,2|0
336,115,112255,6,0,B|317:146|292:151|289:113|293:77|295:90|294:104,1,70,2|0
242,41,112791,2,0,B|270:8|308:15|320:32,1,70,2|0
376,62,113327,2,2,B|427:100|449:176|440:212,1,140
441,182,113997,1,0
441,182,114130,1,0
256,192,114398,12,6,117077
374,225,117613,6,2,B|368:150|336:115|287:96|188:97|144:98|104:138|92:172|81:205|95:250,1,420
105,313,119488,1,0
179,274,119755,1,2
179,274,119889,1,0
179,274,120023,1,0
179,274,120291,2,2,B|256:312|308:282|327:263,1,140
254,118,121363,5,0
254,118,121497,1,0
254,118,121630,1,0
316,63,121898,2,2,B|259:15|201:33|172:79|159:72,2,140,2|2|2
389,212,123505,5,2
389,212,123639,1,2
389,212,123773,1,2
472,212,124041,1,2
356,91,124577,5,2
301,27,124845,1,2
384,21,125113,1,2
239,102,125648,6,0,B|315:136|340:206|339:213,1,140,2|0
335,199,126452,1,0
367,277,126720,1,0
285,294,126988,1,0
212,254,127255,2,0,B|186:237|150:181|165:162|194:102,1,140,2|2
181,131,127925,1,2
181,131,128059,1,2
249,82,128327,5,2
319,126,128595,1,0
291,204,128863,2,2,B|253:229|229:264|143:212,5,140,2|2|0|2|0|2
163,224,131809,1,0
163,224,132077,5,2
43,339,132613,1,2
15,175,133148,1,2
167,107,133684,1,6
260,350,138505,6,0,B|260:293,2,35,2|0|0
260,266,139041,6,0,B|261:202,2,35,2|0|0
261,182,139577,6,0,B|261:113,2,35,2|0|0
265,56,140113,5,6
305,76,140247,1,2
338,105,140380,1,2
363,141,140514,1,2
372,184,140648,1,2
360,227,140782,1,2
330,261,140916,1,2
287,275,141050,1,2
242,276,141184,5,6
203,253,141318,1,2
184,212,141452,1,2
191,167,141586,1,2
218,131,141720,1,6
262,136,141854,1,2
275,175,141988,1,2
279,130,142122,5,2
313,101,142255,1,6
354,116,142389,1,2
376,154,142523,1,2
383,198,142657,1,2
370,241,142791,1,2
334,268,142925,1,2
291,282,143059,1,2
246,281,143193,5,2
207,257,143327,1,6
184,218,143461,1,2
171,174,143595,1,2
189,133,143729,1,2
220,100,143863,1,6
367,176,144398,6,2,B|338:222|313:206|285:200,6,70,0|0|0|0|0|0|0
256,192,146273,12,2,147077
256,192,147345,12,2,148148
256,192,148416,12,2,150827
76,62,151898,6,0,B|144:63,2,35,2|0|0
138,117,152434,2,0,B|201:117,2,35,2|0|0
218,95,152970,6,0,B|218:197,1,70
220,248,153505,2,0,B|220:335,1,70
283,264,154041,1,2
283,264,154309,1,0
287,180,154577,2,0,B|144:180,1,140,0|2
147,180,155247,1,2
147,181,155380,1,2
168,100,155648,5,0
167,100,155916,1,0
237,144,156184,2,2,B|236:289,1,140
236,283,156854,1,2
236,283,156988,1,2
273,208,157255,6,0,B|312:208|354:187|359:135|364:89|346:38|299:6|217:8|165:4|123:18|78:113|114:177|131:177|177:217|207:211,1,560,0|0
234,136,159666,5,2
234,136,159800,1,2
234,136,159934,1,2
234,219,160202,1,2
234,219,160470,1,6
360,134,163148,5,2
360,134,163282,1,2
360,134,163416,1,2
303,195,163684,2,0,B|256:242|218:237|242:234|244:215,4,70
303,194,165023,1,0
242,136,165291,5,2
242,136,165425,1,2
242,136,165559,1,2
243,52,165827,1,2
76,58,166363,5,2
34,58,166497,1,2
76,58,166631,1,2
57,138,166898,1,2
14,238,167434,6,0,B|14:276|50:332|111:337,1,140
100,335,168104,1,2
100,335,168238,1,2
183,336,168506,1,2
183,336,168773,1,2
266,333,169041,2,0,B|312:280|312:243|251:207|290:210,1,140
284,210,169845,1,2
231,162,170113,6,2,B|185:168|149:152|125:136|109:112|92:81|75:28|75:28|120:63|173:44|198:76|216:95|242:117|262:129|262:129|274:118|294:96|310:76|323:44|379:62|422:27|422:27|406:79|391:120|370:140|346:158|319:170|276:162,1,840,2|6
