osu file format v14

[General]
AudioFilename: Elephante - Hold ft. Jessica Jarrell (Candyland Remix) (1).mp3
AudioLeadIn: 0
PreviewTime: -1
Countdown: 0
SampleSet: Normal
StackLeniency: 0.7
Mode: 0
LetterboxInBreaks: 1
WidescreenStoryboard: 1

[Editor]
DistanceSpacing: 1.6
BeatDivisor: 4
GridSize: 8
TimelineZoom: 1.1

[Metadata]
Title:Hold ft. Jessica Jarrell (Candyland Remix)
TitleUnicode:Hold ft. Jessica Jarrell (Candyland Remix)
Artist:Elephante
ArtistUnicode:Elephante
Creator:ohad1881
Version:extrad1881 (ar 9)
Source:
Tags:
BeatmapID:1210645
BeatmapSetID:570075

[Difficulty]
HPDrainRate:4
CircleSize:4
OverallDifficulty:8.8
ApproachRate:9
SliderMultiplier:1.8
SliderTickRate:1

[Events]
//Background and Video events
0,0,"hold.jpg",0,0
//Break Periods
2,36587,38671
2,73940,75591
2,91967,94052
//Storyboard Layer 0 (Background)
//Storyboard Layer 1 (Fail)
//Storyboard Layer 2 (Pass)
//Storyboard Layer 3 (Foreground)
//Storyboard Sound Samples

[TimingPoints]
2351,288.440737446819,4,1,0,100,1,0
2351,-133.333333333333,4,1,0,20,0,0
11581,-100,4,1,0,50,0,0
29464,-100,4,1,0,20,0,0
30041,-80,4,1,0,63,0,0
39271,-66.6666666666667,4,1,0,75,0,0
48501,-57.1428571428571,4,1,0,100,0,1
66961,-100,4,1,0,50,0,0
85133,-100,4,1,0,5,0,0
85421,-80,4,1,0,63,0,0
94652,-66.6666666666667,4,1,0,75,0,0
103882,-57.1428571428571,4,1,0,100,0,1
122342,-57.1428571428571,4,1,0,100,0,0

[Colours]
Combo1 : 255,255,255
Combo2 : 255,255,255
Combo3 : 255,255,255

[HitObjects]
32,280,2351,6,0,B|96:296|152:288|152:288|188:241|256:216|256:216|352:168|408:104|256:-64|104:104|160:168|256:216|256:216|320:264|360:272|360:272|400:256|479:294,1,945.000036048891
312,344,4658,6,0,B|184:304|88:352|88:352|120:224|72:120|72:120|192:168|320:120|320:120|277:236|393:316,1,945.000036048891
453,95,6966,6,0,B|421:17|421:17|355:64|279:15|279:15|253:56|258:97|258:97|226:108|191:171,1,405.000015449525
409,213,8119,6,0,P|449:165|449:85,1,135.000005149842
302,186,8696,2,0,P|304:252|345:304,1,135.000005149842
372,130,9273,6,0,P|325:92|175:302,1,405.000015449525
366,262,10427,2,0,P|379:206|368:120,1,135.000005149842
249,256,11004,6,0,L|234:285,4,16.8750006437302
257,142,11292,2,0,L|264:127,4,16.8750006437302
134,269,11581,6,0,P|157:326|254:372,1,168.750006437302
249,256,12013,2,0,P|245:207|250:167,1,90,0|8,0:0|0:0,0:0:0:0:
326,76,12302,1,0,0:0:0:0:
210,92,12446,2,0,P|161:96|121:91,1,90
30,16,12734,5,0,0:0:0:0:
48,132,12879,1,0,0:0:0:0:
177,6,13023,1,0,0:0:0:0:
129,179,13167,1,0,0:0:0:0:
210,92,13311,2,0,P|252:82|308:97,1,90,8|0,0:0|0:0,0:0:0:0:
370,256,13600,2,0,P|328:266|272:251,1,90
129,179,13888,6,0,B|117:236|144:313|144:313|126:383,1,180
259,225,14321,1,0,0:0:0:0:
133,355,14465,2,0,P|74:362|30:347,1,90,8|0,0:0|0:0,0:0:0:0:
129,179,14753,1,0,0:0:0:0:
233,347,14898,1,0,0:0:0:0:
259,225,15042,6,0,P|195:276|84:267,1,180
34,147,15475,1,0,0:0:0:0:
202,84,15619,2,0,L|186:188,1,90,8|0,0:0|0:0,0:0:0:0:
309,40,15907,2,0,L|325:144,1,90
316,169,16124,1,0,0:0:0:0:
305,207,16196,6,0,L|349:388,1,180,8|0,0:0|0:0,0:0:0:0:
464,148,16628,2,0,P|402:198|267:192,1,180
111,27,17061,2,0,B|125:84|125:84|112:236,1,180
239,73,17494,1,0,0:0:0:0:
172,289,17638,2,0,P|113:305|71:294,1,90
229,192,17926,5,8,0:0:0:0:
245,335,18071,1,0,0:0:0:0:
341,129,18215,1,0,0:0:0:0:
276,258,18360,1,0,0:0:0:0:
239,73,18503,6,0,P|153:95|47:66,1,180,8|0,0:0|0:0,0:0:0:0:
239,73,18936,2,0,P|261:159|232:265,1,180
239,73,19369,2,0,P|325:51|431:80,1,180
415,243,19801,2,0,P|329:265|223:236,1,180
123,162,20234,5,8,0:0:0:0:
93,284,20378,1,0,0:0:0:0:
64,90,20522,1,0,0:0:0:0:
152,356,20666,1,0,0:0:0:0:
123,162,20811,1,0,0:0:0:0:
93,284,20955,1,0,0:0:0:0:
247,154,21099,6,0,B|303:148|303:148|349:159,1,90
478,267,21388,1,8,0:0:0:0:
478,267,21676,2,0,L|468:364,1,90
256,243,21964,2,0,L|246:153,1,90
351,275,22253,2,0,P|322:318|223:337,1,135
204,326,22541,5,8,0:0:0:0:
196,145,22686,1,0,0:0:0:0:
128,240,22830,1,0,0:0:0:0:
294,172,22974,1,0,0:0:0:0:
39,103,23118,6,0,L|28:232,1,90
188,55,23407,2,0,L|199:184,1,90
123,309,23695,1,8,0:0:0:0:
123,309,23984,2,0,P|180:317|221:306,1,90
297,219,24272,5,0,0:0:0:0:
327,341,24416,1,0,0:0:0:0:
327,341,24488,1,0,0:0:0:0:
327,341,24560,1,0,0:0:0:0:
409,179,24705,1,0,0:0:0:0:
211,307,24849,2,0,P|167:316|123:309,1,90,8|0,0:0|0:0,0:0:0:0:
157,132,25137,2,0,P|200:123|245:130,1,90
285,152,25354,1,0,0:0:0:0:
322,176,25426,6,0,P|384:193|504:172,1,180,8|0,0:0|0:0,0:0:0:0:
287,273,25858,2,0,B|241:230|241:230|195:94,1,180
126,211,26291,2,0,B|89:276|88:321|88:321|42:364,1,180
99,125,26724,2,0,L|130:224,1,90
214,54,27012,1,0,0:0:0:0:
212,233,27156,2,0,L|185:318,1,90,8|0,0:0|0:0,0:0:0:0:
367,171,27445,2,0,P|318:159|277:175,1,90
408,326,27733,6,0,L|465:123,1,180
295,70,28166,2,0,L|343:243,1,180
182,325,28599,2,0,L|239:122,1,180
69,69,29032,2,0,L|117:242,1,180
215,89,29464,6,0,L|232:56,4,22.5,8|0|0|0|0,0:0|0:0|0:0|0:0|0:0,0:0:0:0:
208,216,29752,2,0,L|191:249,4,22.5
329,121,30041,6,0,P|348:200|276:334,1,225,8|0,0:0|0:0,0:0:0:0:
138,276,30473,1,0,0:0:0:0:
48,145,30618,2,0,P|69:84|122:39,1,112.5
138,276,30906,2,0,P|121:329|84:370,1,112.5
133,134,31195,5,8,0:0:0:0:
251,276,31339,1,0,0:0:0:0:
200,31,31483,1,0,0:0:0:0:
138,276,31627,1,0,0:0:0:0:
311,95,31771,6,0,P|370:87|303:159,1,225
200,31,32204,1,0,0:0:0:0:
251,276,32348,6,0,P|335:301|484:253,1,225,8|0,0:0|0:0,0:0:0:0:
354,154,32781,1,0,0:0:0:0:
251,276,32925,2,0,P|165:290|114:266,1,112.5
55,150,33214,2,0,B|53:207|53:207|34:269,1,112.5
185,123,33502,5,8,0:0:0:0:
55,150,33646,1,0,0:0:0:0:
239,39,33791,1,0,0:0:0:0:
157,236,33935,1,0,0:0:0:0:
370,65,34079,2,0,P|303:156|171:156,1,225
38,23,34512,1,0,0:0:0:0:
157,236,34656,6,0,B|218:252|218:252|397:209,1,225,8|0,0:0|0:0,0:0:0:0:
194,98,35089,1,0,0:0:0:0:
155,307,35233,2,0,B|216:323|216:323|395:280,1,225
180,193,35665,1,0,0:0:0:0:
357,77,35810,2,0,B|296:61|296:61|117:104,1,225
28,281,36242,1,0,0:0:0:0:
305,236,36387,1,8,0:0:0:0:
97,89,39271,6,0,B|81:162|92:276|92:276|138:354,1,270.000010299683,12|0,0:0|0:0,0:0:0:0:
200,154,39704,1,0,0:0:0:0:
299,329,39848,2,0,P|402:341|443:322,1,135.000005149842,8|0,0:0|0:0,0:0:0:0:
329,155,40136,2,0,P|226:143|185:162,1,135.000005149842
130,345,40425,5,8,0:0:0:0:
200,154,40569,1,0,0:0:0:0:
299,329,40713,2,0,P|402:341|443:322,1,135.000005149842
264,209,41002,1,8,0:0:0:0:
155,379,41146,1,0,0:0:0:0:
132,110,41290,1,0,0:0:0:0:
299,329,41434,1,0,0:0:0:0:
299,329,41506,1,0,0:0:0:0:
299,329,41578,6,0,B|384:343|496:316|496:316|423:293,1,270.000010299683,8|0,0:0|0:0,0:0:0:0:
230,245,42011,1,0,0:0:0:0:
416,166,42155,2,0,P|437:93|417:31,1,135.000005149842,8|0,0:0|0:0,0:0:0:0:
224,116,42444,2,0,P|208:180|229:244,1,135.000005149842
307,57,42732,5,8,0:0:0:0:
107,90,42876,1,0,0:0:0:0:
343,222,43021,1,0,0:0:0:0:
196,0,43165,1,0,0:0:0:0:
219,187,43309,2,0,L|239:325,1,135.000005149842,8|0,0:0|0:0,0:0:0:0:
416,166,43598,2,0,L|435:32,1,135.000005149842
237,73,43886,5,8,0:0:0:0:
416,166,44030,1,0,0:0:0:0:
154,230,44174,1,0,0:0:0:0:
349,42,44319,1,0,0:0:0:0:
194,148,44463,1,8,0:0:0:0:
382,156,44607,1,0,0:0:0:0:
131,55,44751,1,0,0:0:0:0:
237,304,44896,1,0,0:0:0:0:
240,0,45040,5,8,0:0:0:0:
138,251,45185,1,0,0:0:0:0:
352,36,45328,1,0,0:0:0:0:
403,301,45473,1,0,0:0:0:0:
197,76,45617,1,8,0:0:0:0:
452,162,45761,1,0,0:0:0:0:
145,164,45905,1,0,0:0:0:0:
400,78,46049,1,0,0:0:0:0:
400,78,46121,1,0,0:0:0:0:
400,78,46193,5,8,0:0:0:0:
173,328,46338,1,0,0:0:0:0:
285,112,46482,1,0,0:0:0:0:
329,350,46626,1,0,0:0:0:0:
199,17,46770,1,8,0:0:0:0:
341,248,46915,1,0,0:0:0:0:
83,167,47059,1,0,0:0:0:0:
326,50,47203,1,0,0:0:0:0:
326,50,47275,1,0,0:0:0:0:
326,50,47347,5,8,0:0:0:0:
69,329,47491,1,0,0:0:0:0:
431,208,47636,1,0,0:0:0:0:
54,149,47780,1,0,0:0:0:0:
352,383,47924,2,0,P|453:359|295:284,1,405.000015449525,6|0,0:0|0:0,0:0:0:0:
188,378,48501,6,0,B|157:308|157:308|193:148|193:148|169:69,1,315.000003004074,12|0,0:0|0:0,0:0:0:0:
368,134,48934,1,0,0:0:0:0:
171,76,49078,2,0,P|86:60|6:85,1,157.500001502037,8|0,0:0|0:0,0:0:0:0:
299,243,49366,2,0,P|384:259|464:234,1,157.500001502037
266,91,49655,5,8,0:0:0:0:
232,324,49799,1,0,0:0:0:0:
437,85,49943,1,0,0:0:0:0:
135,173,50087,1,0,0:0:0:0:
328,35,50232,1,8,0:0:0:0:
374,217,50376,1,0,0:0:0:0:
212,119,50520,1,0,0:0:0:0:
166,301,50664,1,0,0:0:0:0:
437,85,50809,6,0,P|354:152|214:6,1,315.000003004074,8|0,0:0|0:0,0:0:0:0:
437,85,51241,1,0,0:0:0:0:
266,248,51385,2,0,B|203:260|203:260|84:249,1,157.500001502037,8|0,0:0|0:0,0:0:0:0:
425,228,51674,2,0,B|388:281|388:281|297:357,1,157.500001502037
146,156,51962,5,8,0:0:0:0:
391,92,52107,1,0,0:0:0:0:
78,55,52251,1,0,0:0:0:0:
344,221,52395,1,0,0:0:0:0:
172,59,52539,1,8,0:0:0:0:
128,290,52683,1,0,0:0:0:0:
321,151,52828,1,0,0:0:0:0:
90,107,52972,1,0,0:0:0:0:
311,330,53116,6,0,B|340:229|340:229|321:153|321:153|341:89|314:18,1,315.000003004074,8|0,0:0|0:0,0:0:0:0:
113,176,53549,1,0,0:0:0:0:
311,330,53693,2,0,P|394:344|470:326,1,157.500001502037,8|0,0:0|0:0,0:0:0:0:
400,85,53981,2,0,P|317:71|241:89,1,157.500001502037
170,260,54270,5,8,0:0:0:0:
148,72,54414,1,0,0:0:0:0:
82,331,54558,1,0,0:0:0:0:
305,183,54702,1,0,0:0:0:0:
6,290,54847,1,8,0:0:0:0:
320,294,54991,1,0,0:0:0:0:
100,68,55135,1,0,0:0:0:0:
96,382,55279,1,0,0:0:0:0:
257,109,55424,6,0,B|332:78|432:180|432:180|305:245,1,315.000003004074,8|0,0:0|0:0,0:0:0:0:
142,251,55856,1,0,0:0:0:0:
306,342,56000,2,0,B|412:354|412:354|478:343,1,157.500001502037,8|0,0:0|0:0,0:0:0:0:
285,154,56289,2,0,B|179:166|179:166|113:155,1,157.500001502037
404,6,56577,5,8,0:0:0:0:
322,299,56722,1,0,0:0:0:0:
197,10,56866,1,0,0:0:0:0:
322,299,57010,1,0,0:0:0:0:
290,65,57154,5,8,0:0:0:0:
190,281,57298,1,0,0:0:0:0:
440,182,57443,1,0,0:0:0:0:
118,166,57587,1,0,0:0:0:0:
118,166,57659,1,0,0:0:0:0:
118,166,57731,6,0,B|71:293|95:379|95:379|118:349|136:262,1,315.000003004074,12|0,0:0|0:0,0:0:0:0:
180,72,58164,1,0,0:0:0:0:
267,274,58308,2,0,P|353:296|424:269,1,157.500001502037,8|0,0:0|0:0,0:0:0:0:
352,48,58596,2,0,B|333:122|333:122|341:214,1,157.500001502037
478,29,58885,5,8,0:0:0:0:
258,39,59029,1,0,0:0:0:0:
477,191,59173,1,0,0:0:0:0:
217,118,59318,1,0,0:0:0:0:
510,5,59462,1,8,0:0:0:0:
389,295,59606,1,0,0:0:0:0:
281,1,59750,1,0,0:0:0:0:
389,295,59894,1,0,0:0:0:0:
108,147,60039,6,0,P|176:200|388:156,1,315.000003004074,8|0,0:0|0:0,0:0:0:0:
255,1,60471,1,0,0:0:0:0:
108,147,60616,2,0,L|83:324,1,157.500001502037,8|0,0:0|0:0,0:0:0:0:
385,158,60904,2,0,L|410:335,1,157.500001502037
258,110,61192,5,8,0:0:0:0:
199,356,61337,1,0,0:0:0:0:
133,48,61481,1,0,0:0:0:0:
356,269,61625,1,0,0:0:0:0:
11,170,61769,1,8,0:0:0:0:
370,107,61914,1,0,0:0:0:0:
159,245,62058,1,0,0:0:0:0:
266,17,62202,1,0,0:0:0:0:
72,280,62346,6,0,B|112:336|164:339|206:321|206:321|300:331|300:331|389:307,1,315.000003004074,8|0,0:0|0:0,0:0:0:0:
258,110,62779,1,0,0:0:0:0:
459,199,62923,2,0,B|466:253|460:284|460:284|476:306|476:306|492:367,1,157.500001502037,8|0,0:0|0:0,0:0:0:0:
370,107,63211,2,0,B|362:161|369:192|369:192|353:214|353:214|337:275,1,157.500001502037
512,3,63500,5,8,0:0:0:0:
281,51,63644,1,0,0:0:0:0:
504,125,63788,1,0,0:0:0:0:
376,6,63933,1,0,0:0:0:0:
424,316,64077,1,8,0:0:0:0:
418,80,64221,1,0,0:0:0:0:
273,359,64365,1,0,0:0:0:0:
435,188,64509,1,0,0:0:0:0:
347,319,64654,5,8,0:0:0:0:
344,161,64798,1,0,0:0:0:0:
216,252,64942,1,0,0:0:0:0:
372,241,65086,1,0,0:0:0:0:
189,88,65231,5,8,0:0:0:0:
186,323,65375,1,0,0:0:0:0:
322,130,65519,1,0,0:0:0:0:
96,198,65663,1,0,0:0:0:0:
390,309,65807,5,8,0:0:0:0:
288,9,65952,1,0,0:0:0:0:
192,308,66096,1,0,0:0:0:0:
433,106,66240,1,0,0:0:0:0:
51,273,66384,6,0,B|114:310|193:309|193:309|281:273|376:286,1,315.000003004074,8|0,0:0|0:0,0:0:0:0:
378,291,66745,1,0,0:0:0:0:
399,299,66817,1,0,0:0:0:0:
419,310,66889,1,0,0:0:0:0:
438,323,66961,1,4,0:0:0:0:
447,318,67250,6,0,L|446:219,1,90
336,94,67827,5,0,0:0:0:0:
336,94,67971,1,0,0:0:0:0:
336,94,68115,2,0,P|270:105|228:89,1,90,8|0,0:0|0:0,0:0:0:0:
102,55,68403,2,0,L|111:153,1,90
193,15,68692,1,0,0:0:0:0:
107,188,68836,2,0,P|59:194|111:146,1,180
168,258,69269,1,8,0:0:0:0:
174,260,70134,2,0,B|233:271|266:264|266:264|330:221,1,135
322,218,70423,6,0,L|336:317,1,90,8|0,0:0|0:0,0:0:0:0:
428,132,70711,2,0,L|414:231,1,90
291,96,70999,5,0,0:0:0:0:
334,39,71143,1,0,0:0:0:0:
397,4,71287,1,0,0:0:0:0:
468,1,71431,1,0,0:0:0:0:
428,132,71576,6,0,B|358:137|290:96|290:96|237:123,1,180,8|0,0:0|0:0,0:0:0:0:
204,160,72009,2,0,P|150:152|199:78,1,180
271,199,72442,2,0,B|253:242|269:349|269:349|309:372,1,180
406,233,72874,2,0,P|360:250|429:263,1,180
450,244,73235,1,0,0:0:0:0:
465,211,73307,2,0,P|465:154|453:110,1,90
359,43,73595,1,0,0:0:0:0:
326,221,73740,1,8,0:0:0:0:
254,171,76191,6,0,P|174:198|78:161,1,180,8|0,0:0|0:0,0:0:0:0:
171,62,76624,2,0,P|251:35|347:72,1,180
371,196,77057,2,0,P|326:224|354:157,1,180,8|0,0:0|0:0,0:0:0:0:
463,226,77489,1,0,0:0:0:0:
352,305,77634,2,0,P|298:313|259:304,1,90
152,229,77922,5,8,0:0:0:0:
141,363,78066,1,0,0:0:0:0:
67,198,78210,1,0,0:0:0:0:
127,318,78354,1,0,0:0:0:0:
174,101,78499,6,0,P|236:126|350:97,1,180,8|0,0:0|0:0,0:0:0:0:
174,101,78932,2,0,B|153:163|153:163|154:295,1,180
329,251,79364,2,0,B|267:274|267:274|135:277,1,180
153,277,79941,6,0,B|139:378,1,90
12,240,80229,2,0,B|0:150,1,90
154,57,80518,2,0,P|111:89|26:81,1,135
34,47,80806,6,0,B|31:146|31:146|64:247,1,180,8|0,0:0|0:0,0:0:0:0:
239,83,81239,2,0,B|281:54|281:54|230:38|142:58,1,180
12,240,81672,2,0,B|41:282|41:282|57:231|36:143,1,180
0,49,82104,1,0,0:0:0:0:
148,152,82249,2,0,P|198:168|239:167,1,90
330,263,82537,2,0,P|280:279|239:278,1,90
356,351,82825,1,0,0:0:0:0:
297,162,82970,2,0,L|269:204,1,45
242,278,83114,5,4,0:0:0:0:
256,192,83186,12,0,85277,0:0:0:0:
196,276,85421,6,0,B|133:293|32:282|32:282|99:257,1,225,8|0,0:0|0:0,0:0:0:0:
204,190,85854,1,0,0:0:0:0:
78,141,85998,2,0,P|66:75|80:18,1,112.5
200,80,86287,2,0,P|212:146|198:203,1,112.5
323,129,86575,5,8,0:0:0:0:
280,257,86719,1,0,0:0:0:0:
411,72,86864,1,0,0:0:0:0:
416,296,87008,1,0,0:0:0:0:
323,129,87152,2,0,B|264:114|264:114|165:132|165:132|88:111,1,225
0,12,87585,1,0,0:0:0:0:
117,203,87729,6,0,B|123:313|90:380|90:380|74:320,1,225,8|0,0:0|0:0,0:0:0:0:
28,163,88162,1,0,0:0:0:0:
196,224,88306,2,0,B|256:233|256:233|322:221,1,112.5
213,47,88594,2,0,P|223:112|252:155,1,112.5
403,58,88883,5,8,0:0:0:0:
356,231,89027,1,0,0:0:0:0:
511,141,89171,1,0,0:0:0:0:
286,126,89315,1,0,0:0:0:0:
492,291,89460,2,0,P|422:366|282:359,1,225
197,186,89892,1,0,0:0:0:0:
99,375,90036,6,0,B|85:291|85:291|104:235|112:140,1,225,8|0,0:0|0:0,0:0:0:0:
255,312,90469,1,0,0:0:0:0:
401,153,90613,2,0,B|408:235|427:291|427:291|413:375,1,225
298,193,91046,1,0,0:0:0:0:
198,382,91190,2,0,P|118:391|61:370,1,112.5
188,194,91479,2,0,P|268:185|325:206,1,112.5
38,267,91767,1,8,0:0:0:0:
207,172,94652,6,0,P|223:260|300:167,1,270.000010299683,12|0,0:0|0:0,0:0:0:0:
188,22,95084,1,0,0:0:0:0:
358,103,95228,2,0,P|429:119|498:102,1,135.000005149842,8|0,0:0|0:0,0:0:0:0:
363,249,95517,2,0,P|313:302|293:370,1,135.000005149842
258,175,95805,5,8,0:0:0:0:
446,202,95950,1,0,0:0:0:0:
191,289,96094,1,0,0:0:0:0:
329,57,96238,1,0,0:0:0:0:
258,175,96382,2,0,P|179:188|102:163,1,135.000005149842,8|0,0:0|0:0,0:0:0:0:
253,334,96671,2,0,P|332:321|409:346,1,135.000005149842
419,354,96887,1,0,0:0:0:0:
451,377,96959,6,0,B|474:309|455:179|455:179|432:252,1,270.000010299683,8|0,0:0|0:0,0:0:0:0:
343,364,97392,1,0,0:0:0:0:
345,148,97536,2,0,B|345:221|345:221|319:295,1,135.000005149842,8|0,0:0|0:0,0:0:0:0:
179,52,97824,2,0,B|179:125|179:125|205:199,1,135.000005149842
365,90,98113,5,8,0:0:0:0:
179,52,98257,1,0,0:0:0:0:
445,11,98401,1,0,0:0:0:0:
257,204,98545,1,0,0:0:0:0:
445,11,98690,2,0,P|372:-4|302:13,1,135.000005149842,8|0,0:0|0:0,0:0:0:0:
257,204,98978,2,0,P|330:219|400:202,1,135.000005149842
234,35,99267,5,8,0:0:0:0:
160,251,99411,1,0,0:0:0:0:
373,36,99555,1,0,0:0:0:0:
167,136,99699,1,0,0:0:0:0:
470,141,99843,1,8,0:0:0:0:
253,66,99987,1,0,0:0:0:0:
459,291,100132,1,0,0:0:0:0:
358,84,100276,1,0,0:0:0:0:
338,352,100420,5,8,0:0:0:0:
358,84,100565,1,0,0:0:0:0:
155,262,100709,1,0,0:0:0:0:
423,282,100854,1,0,0:0:0:0:
253,34,100997,1,8,0:0:0:0:
231,337,101142,1,0,0:0:0:0:
460,139,101286,1,0,0:0:0:0:
157,117,101431,1,0,0:0:0:0:
157,117,101502,1,0,0:0:0:0:
157,117,101574,5,8,0:0:0:0:
374,188,101718,5,0,0:0:0:0:
225,11,101863,1,0,0:0:0:0:
222,240,102007,1,0,0:0:0:0:
396,34,102151,1,8,0:0:0:0:
130,81,102295,1,0,0:0:0:0:
374,188,102439,1,0,0:0:0:0:
108,235,102583,1,0,0:0:0:0:
108,235,102656,1,0,0:0:0:0:
108,235,102728,5,8,0:0:0:0:
477,170,102872,1,0,0:0:0:0:
123,41,103016,1,0,0:0:0:0:
477,170,103160,1,0,0:0:0:0:
157,376,103305,2,0,B|101:312|106:233|106:233|128:185|117:123|117:123|176:91|200:12,1,405.000015449525,6|0,0:0|0:0,0:0:0:0:
374,188,103882,6,0,P|351:272|314:152,1,315.000003004074,12|0,0:0|0:0,0:0:0:0:
508,23,104314,1,0,0:0:0:0:
259,73,104459,2,0,P|166:89|91:72,1,157.500001502037,8|0,0:0|0:0,0:0:0:0:
369,33,104747,2,0,P|385:110|374:188,1,157.500001502037
173,150,105035,5,8,0:0:0:0:
252,339,105180,1,0,0:0:0:0:
259,73,105324,1,0,0:0:0:0:
111,296,105468,1,0,0:0:0:0:
403,180,105612,1,8,0:0:0:0:
88,144,105757,1,0,0:0:0:0:
468,50,105901,1,0,0:0:0:0:
165,303,106045,1,0,0:0:0:0:
293,86,106189,6,0,B|335:194|293:348|293:348|250:382,1,315.000003004074,8|0,0:0|0:0,0:0:0:0:
153,163,106622,1,0,0:0:0:0:
254,378,106766,2,0,P|331:394|423:373,1,157.500001502037,8|0,0:0|0:0,0:0:0:0:
293,86,107054,2,0,P|216:70|124:91,1,157.500001502037
370,29,107343,5,8,0:0:0:0:
325,260,107487,1,0,0:0:0:0:
142,29,107631,1,0,0:0:0:0:
187,260,107775,1,0,0:0:0:0:
465,109,107920,1,8,0:0:0:0:
159,36,108064,1,0,0:0:0:0:
465,275,108208,1,0,0:0:0:0:
159,348,108352,1,0,0:0:0:0:
367,143,108497,6,0,B|369:270|323:380|323:380|306:291,1,315.000003004074,8|0,0:0|0:0,0:0:0:0:
258,78,108929,1,0,0:0:0:0:
187,304,109074,2,0,P|164:214|178:133,1,157.500001502037,8|0,0:0|0:0,0:0:0:0:
411,65,109362,2,0,P|374:134|315:185,1,157.500001502037
157,54,109650,5,8,0:0:0:0:
240,241,109795,1,0,0:0:0:0:
339,9,109939,1,0,0:0:0:0:
147,172,110083,1,0,0:0:0:0:
459,202,110227,1,8,0:0:0:0:
194,28,110372,1,0,0:0:0:0:
340,378,110516,1,0,0:0:0:0:
367,3,110660,1,0,0:0:0:0:
240,241,110804,6,0,B|127:268|19:242|19:242|46:219|143:208,1,315.000003004074,8|0,0:0|0:0,0:0:0:0:
324,177,111237,1,0,0:0:0:0:
172,336,111381,2,0,B|112:328|67:338|67:338|10:327,1,157.500001502037,8|0,0:0|0:0,0:0:0:0:
324,177,111670,2,0,B|384:169|429:179|429:179|486:168,1,157.500001502037
193,38,111958,5,8,0:0:0:0:
261,344,112102,1,0,0:0:0:0:
257,108,112246,1,0,0:0:0:0:
121,303,112391,1,0,0:0:0:0:
405,168,112535,1,8,0:0:0:0:
91,138,112679,1,0,0:0:0:0:
471,38,112823,1,0,0:0:0:0:
165,290,112968,1,0,0:0:0:0:
343,69,113112,6,0,B|257:107|257:107|144:100|34:48,1,315.000003004074,12|0,0:0|0:0,0:0:0:0:
260,11,113544,1,0,0:0:0:0:
146,201,113689,2,0,B|129:257|129:257|132:308|153:372,1,157.500001502037,8|0,0:0|0:0,0:0:0:0:
405,168,113977,2,0,B|421:224|421:224|419:275|398:339,1,157.500001502037
272,142,114266,5,8,0:0:0:0:
316,357,114410,1,0,0:0:0:0:
370,47,114554,1,0,0:0:0:0:
186,302,114698,1,0,0:0:0:0:
370,154,114842,1,8,0:0:0:0:
132,152,114987,1,0,0:0:0:0:
415,288,115131,1,0,0:0:0:0:
232,31,115275,1,0,0:0:0:0:
297,241,115419,6,0,B|192:278|59:236|59:236|-9:272,1,315.000003004074,8|0,0:0|0:0,0:0:0:0:
195,364,115852,1,0,0:0:0:0:
132,152,115996,2,0,L|103:330,1,157.500001502037,8|0,0:0|0:0,0:0:0:0:
271,85,116285,2,0,L|300:263,1,157.500001502037
61,31,116573,5,8,0:0:0:0:
375,42,116717,1,0,0:0:0:0:
132,152,116861,1,0,0:0:0:0:
375,42,117006,1,0,0:0:0:0:
234,323,117150,1,8,0:0:0:0:
238,8,117294,1,0,0:0:0:0:
450,239,117438,1,0,0:0:0:0:
135,235,117582,1,0,0:0:0:0:
384,38,117727,6,0,B|352:123|352:123|372:270|372:270|329:385,1,315.000003004074,8|0,0:0|0:0,0:0:0:0:
232,116,118159,1,0,0:0:0:0:
126,346,118304,2,0,B|106:267|106:267|117:162,1,157.500001502037,8|0,0:0|0:0,0:0:0:0:
333,186,118592,2,0,B|353:265|353:265|342:370,1,157.500001502037
232,116,118881,5,8,0:0:0:0:
180,362,119025,1,0,0:0:0:0:
382,121,119169,1,0,0:0:0:0:
89,236,119313,1,0,0:0:0:0:
350,6,119457,1,8,0:0:0:0:
318,354,119602,1,0,0:0:0:0:
59,57,119746,1,0,0:0:0:0:
429,195,119890,1,0,0:0:0:0:
189,118,120034,5,8,0:0:0:0:
429,195,120179,1,0,0:0:0:0:
181,242,120323,1,0,0:0:0:0:
429,195,120467,1,0,0:0:0:0:
150,49,120611,5,8,0:0:0:0:
429,195,120755,1,0,0:0:0:0:
115,242,120900,1,0,0:0:0:0:
429,195,121044,1,0,0:0:0:0:
50,86,121188,5,8,0:0:0:0:
429,195,121332,1,0,0:0:0:0:
54,321,121477,1,0,0:0:0:0:
429,195,121621,1,0,0:0:0:0:
0,201,121765,6,0,B|70:253|171:253|171:253|221:233,1,236.250002253056,8|0,0:0|0:0,0:0:0:0:
262,179,122053,6,2,P|172:186|277:272,1,315.000003004074,10|0,0:0|0:0,0:0:0:0:
