osu file format v10

[General]
AudioFilename: Elena Gheorghe (Mandinga) - Vocea Ta.mp3
AudioLeadIn: 2000
PreviewTime: 63466
Countdown: 0
SampleSet: Soft
StackLeniency: 0.7
Mode: 0
LetterboxInBreaks: 0

[Editor]
Bookmarks: 145282,161461
DistanceSpacing: 1
BeatDivisor: 2
GridSize: 4

[Metadata]
Title:Vocea ta
TitleUnicode:
Artist:Elena
ArtistUnicode:
Creator:Tony
Version:Facil
Source:Best of Romanian Songs 2006
Tags:Gheorghe Your Voice Mandinga romana romanian Fight69
BeatmapID:178159
BeatmapSetID:54647

[Difficulty]
HPDrainRate:2
CircleSize:3
OverallDifficulty:2
ApproachRate:3
SliderMultiplier:1.1
SliderTickRate:2

[Events]
//Background and Video events
0,0,"bg2.jpg"
Video,-145,"Vocea Ta.flv"
//Break Periods
2,81779,89196
2,145175,161648
2,171779,172969
2,197251,200139
//Storyboard Layer 0 (Background)
//Storyboard Layer 1 (Fail)
//Storyboard Layer 2 (Pass)
//Storyboard Layer 3 (Foreground)
//Storyboard Sound Samples
//Background Colour Transformations
3,100,163,162,255

[TimingPoints]
70,566.037735849057,4,2,0,80,1,0
63466,-100,4,2,0,80,0,1
81579,-100,4,2,0,80,0,0
126862,-100,4,2,0,80,0,1
144975,-100,4,2,0,80,0,0
174409,-100,4,2,0,80,0,1
192381,-100,4,2,0,80,0,0
192522,-100,4,2,0,80,0,1
197051,-100,4,2,0,80,0,0
201579,-100,4,2,0,80,0,1
210636,-100,4,2,0,80,0,0

[Colours]
Combo1 : 61,173,105
Combo2 : 168,84,0
Combo3 : 208,44,26
Combo4 : 0,123,183

[HitObjects]
128,80,70,6,0,B|207:40|286:80,2,165,4|2|0,0:0|0:0|0:0,0:0:0
204,160,2334,2,0,B|124:199|45:160,2,165,4|2|0,0:0|0:0|0:0,0:0:0
312,184,4598,6,0,B|360:196|360:196|432:184|444:128,2,165,4|2|0,0:0|0:0|0:0,0:0:0
344,80,6862,2,0,B|296:68|296:68|224:80|212:136,2,165,4|2|0,0:0|0:0|0:0,0:0:0
348,188,9126,5,4,0:0:0
256,252,9692,1,2,0:0:0
164,188,10258,1,0,0:0:0
256,124,10824,1,2,0:0:0
348,188,11390,2,0,B|396:200|396:200|468:188|480:132,2,165,4|2|0,0:0|0:0|0:0,0:0:0
312,292,13654,6,0,B|392:304|480:292,2,165,4|2|0,0:0|0:0|0:0,0:0:0
200,292,15919,2,0,B|120:304|32:292,2,165,4|2|0,0:0|0:0|0:0,0:0:0
196,184,18183,5,4,0:0:0
256,92,18749,1,8,0:0:0
316,184,19315,2,0,B|372:184|420:220,1,110,0|8,0:0|0:0,0:0:0
444,324,20447,6,0,B|388:324|340:288,1,110,4|8,0:0|0:0,0:0:0
248,348,21579,2,0,B|213:301|213:245,1,110,0|8,0:0|0:0,0:0:0
108,216,22711,5,4,0:0:0
104,108,23277,1,8,0:0:0
212,136,23843,1,0,0:0:0
213,246,24409,1,8,0:0:0
308,188,24975,2,0,B|368:188|368:188|420:180|456:132,2,165,4|2|8,0:0|0:0|0:0,0:0:0
312,296,27239,6,0,B|360:296|360:296|388:296|420:280,2,110,4|8|0,0:0|0:0|0:0,0:0:0
204,296,28937,1,8,0:0:0
256,200,29503,1,4,0:0:0
256,88,30070,1,8,0:0:0
148,116,30636,2,0,B|44:148,1,110,0|8,0:0|0:0,0:0:0
112,236,31768,6,0,B|60:256|60:256|32:316|76:360,2,165,4|2|8,0:0|0:0|0:0,0:0:0
168,332,34032,2,0,B|220:312|220:312|248:252|204:208,2,165,4|2|8,0:0|0:0|0:0,0:0:0
112,236,36296,5,4,0:0:0
132,128,36862,1,8,0:0:0
206,211,37428,1,0,0:0:0
236,104,37994,1,8,0:0:0
312,184,38560,5,0,0:0:0
348,80,39126,2,0,B|328:28,2,55,8|0|0,0:0|0:0|0:0,0:0:0
428,156,40258,1,8,0:0:0
464,260,40824,6,0,B|360:292,1,110,4|8,0:0|0:0,0:0:0
252,324,41956,2,0,B|148:356,1,110,0|8,0:0|0:0,0:0:0
96,260,43088,5,0,0:0:0
52,160,43654,1,8,0:0:0
160,172,44220,2,0,B|224:148,2,55,0|0|8,0:0|0:0|0:0,0:0:0
116,72,45353,5,4,0:0:0
220,40,45919,1,8,0:0:0
324,72,46485,2,0,B|384:92|400:152,1,110,0|8,0:0|0:0,0:0:0
500,188,47617,6,0,B|480:248|420:264,1,110,0|8,0:0|0:0,0:0:0
320,224,48749,2,0,B|268:248,2,55,0|0|8,0:0|0:0|0:0,0:0:0
252,136,49881,6,0,B|144:180,1,110,4|8,0:0|0:0,0:0:0
48,216,51013,1,0,0:0:0
92,316,51579,1,8,0:0:0
192,272,52145,6,0,B|300:228,1,110,4|8,0:0|0:0,0:0:0
360,144,53277,2,0,B|412:124,2,55,0|0|8,0:0|0:0|0:0,0:0:0
256,112,54409,5,4,0:0:0
155,68,54975,1,8,0:0:0
82,151,55541,1,0,0:0:0
139,245,56107,1,8,0:0:0
246,220,56673,1,4,0:0:0
256,112,57239,6,0,B|300:80|360:80,1,110,8|0,0:0|0:0,0:0:0
468,76,58371,2,0,B|500:120|500:180,1,110,8|4,0:0|0:0,0:0:0
432,268,59503,5,8,0:0:0
324,296,60070,1,0,0:0:0
246,221,60636,1,8,0:0:0
136,228,61202,6,0,B|80:232|80:232|36:200,1,110,4|8,0:0|0:0,0:0:0
60,92,62334,2,0,B|116:88|116:88|160:120,1,110,2|0,0:0|0:0,0:0:0
244,52,63466,5,4,0:0:0
268,160,64032,2,0,B|324:164|324:164|384:148|400:92,2,165,8|2|4,0:0|0:0|0:0,0:0:0
300,264,66296,5,8,0:0:0
192,248,66862,1,0,0:0:0
144,148,67428,2,0,B|88:140,2,55,8|0|4,0:0|0:0|0:0,0:0:0
216,64,68560,5,8,0:0:0
324,68,69126,2,0,B|432:72,1,110,0|8,0:0|0:0,0:0:0
424,180,70258,5,4,0:0:0
404,288,70824,1,8,0:0:0
296,280,71390,1,0,0:0:0
188,268,71956,2,0,B|180:324,2,55,8|0|4,0:0|0:0|0:0,0:0:0
80,256,73088,6,0,B|100:132,1,110,8|0,0:0|0:0,0:0:0
116,40,74220,2,0,B|240:60,1,110,8|4,0:0|0:0,0:0:0
256,164,75353,1,8,0:0:0
308,68,75919,1,0,0:0:0
356,168,76485,1,8,0:0:0
312,268,77051,6,0,B|420:280,2,110,4|8|0,0:0|0:0|0:0,0:0:0
202,268,78749,2,0,B|94:280,2,110,8|4|8,0:0|0:0|0:0,0:0:0
188,160,80447,2,0,B|188:92|255:58|323:92|323:160,1,220,2|4,0:0|0:0,0:0:0
200,108,90636,6,0,B|316:108,1,110,4|8,0:0|0:0,0:0:0
352,212,91768,1,0,0:0:0
256,268,92334,1,8,0:0:0
160,212,92900,2,0,B|108:224|108:224|60:260|68:328,2,165,4|2|8,0:0|0:0|0:0,0:0:0
168,104,95164,5,4,0:0:0
256,172,95730,1,8,0:0:0
344,104,96296,1,0,0:0:0
256,40,96862,1,8,0:0:0
168,104,97428,6,0,B|112:120|100:184,1,110,4|8,0:0|0:0,0:0:0
88,292,98560,2,0,B|30:292|0:234,2,110,0|8|4,0:0|0:0|0:0,0:0:0
192,324,100258,5,8,0:0:0
256,232,100824,1,0,0:0:0
320,324,101390,1,8,0:0:0
380,232,101956,5,0,0:0:0
388,124,102522,2,0,B|444:124,2,55,8|0|0,0:0|0:0|0:0,0:0:0
316,40,103654,1,8,0:0:0
208,60,104220,6,0,B|168:100|176:164,1,110,4|8,0:0|0:0,0:0:0
100,240,105353,2,0,B|140:280|204:272,1,110,0|8,0:0|0:0,0:0:0
280,196,106485,2,0,B|332:208|332:208|380:244|372:312,2,165,4|2|0,0:0|0:0|0:0,0:0:0
177,161,108749,5,4,0:0:0
240,72,109315,1,8,0:0:0
348,68,109881,2,0,B|408:56|448:100,1,110,0|8,0:0|0:0,0:0:0
464,208,111013,6,0,B|404:220|364:176,1,110,0|8,0:0|0:0,0:0:0
256,196,112145,1,0,0:0:0
256,304,112711,1,8,0:0:0
160,252,113277,6,0,B|48:252,1,110,4|8,0:0|0:0,0:0:0
88,148,114409,2,0,B|32:148,2,55,0|0|8,0:0|0:0|0:0,0:0:0
164,68,115541,5,4,0:0:0
272,68,116107,1,8,0:0:0
348,148,116673,2,0,B|404:148,2,55,0|0|8,0:0|0:0|0:0,0:0:0
312,252,117805,6,0,B|428:252,2,110,4|8|0,0:0|0:0|0:0,0:0:0
200,252,119503,2,0,B|84:252,2,110,8|0|8,0:0|0:0|0:0,0:0:0
188,144,121202,2,0,B|188:76|255:42|323:76|323:144,1,220,2|4,0:0|0:0,0:0:0
420,92,122900,5,8,0:0:0
428,204,123466,1,0,0:0:0
340,268,124032,1,8,0:0:0
240,312,124598,6,0,B|184:324|184:324|132:320,1,110,4|8,0:0|0:0,0:0:0
80,224,125730,2,0,B|136:212|136:212|188:216,1,110,2|0,0:0|0:0,0:0:0
256,128,126862,6,0,B|308:124|308:124|368:96|376:40,2,165,4|2|8,0:0|0:0|0:0,0:0:0
172,60,129126,1,4,0:0:0
92,136,129692,1,8,0:0:0
176,208,130258,1,0,0:0:0
256,284,130824,1,8,0:0:0
336,208,131390,5,4,0:0:0
360,100,131956,2,0,B|412:120|468:100,2,110,8|0|8,0:0|0:0|0:0,0:0:0
252,80,133654,2,0,B|168:48|88:80,2,165,4|2|8,0:0|0:0|0:0,0:0:0
168,152,135919,5,4,0:0:0
116,248,136485,2,0,B|168:268|224:248,1,110,8|0,0:0|0:0,0:0:0
324,208,137617,1,8,0:0:0
424,160,138183,2,0,B|456:244|424:324,2,165,4|2|8,0:0|0:0|0:0,0:0:0
356,72,140447,5,4,0:0:0
256,116,141013,1,8,0:0:0
156,72,141579,1,0,0:0:0
56,116,142145,1,8,0:0:0
52,224,142711,6,0,B|56:280|100:320,1,110,4|8,0:0|0:0,0:0:0
209,319,143843,2,0,B|253:279|257:223,1,110,0|8,0:0|0:0,0:0:0
152,188,144975,1,4,0:0:0
256,104,163088,5,4,0:0:0
312,200,163654,2,0,B|424:200,2,110,8|0|8,0:0|0:0|0:0,0:0:0
200,200,165353,1,4,0:0:0
256,296,165919,2,0,B|216:332|216:332|160:352|108:328,2,165,8|2|4,0:0|0:0|0:0,0:0:0
312,200,168183,5,8,0:0:0
348,96,168749,1,0,0:0:0
256,36,169315,1,8,0:0:0
164,96,169881,6,0,B|120:132|60:120,1,110,4|8,0:0|0:0,0:0:0
80,224,171013,2,0,B|44:268|56:328,1,110,0|8,0:0|0:0,0:0:0
104,44,174409,6,0,B|76:96|104:148,1,110,4|8,0:0|0:0,0:0:0
200,96,175541,1,0,0:0:0
312,96,176107,1,8,0:0:0
256,192,176673,2,0,B|288:248|344:260|400:244,2,165,4|2|8,0:0|0:0|0:0,0:0:0
148,192,178937,1,4,0:0:0
148,300,179503,2,0,B|32:300,2,110,8|0|8,0:0|0:0|0:0,0:0:0
256,300,181202,5,4,0:0:0
256,192,181768,1,8,0:0:0
256,84,182334,1,0,0:0:0
352,136,182900,2,0,B|408:136,2,55,8|0|4,0:0|0:0|0:0,0:0:0
352,244,184032,6,0,B|464:244,2,110,8|0|8,0:0|0:0|0:0,0:0:0
312,348,185730,2,0,B|200:348,1,110,4|8,0:0|0:0,0:0:0
92,348,186862,1,0,0:0:0
148,252,187428,1,8,0:0:0
148,144,187994,6,0,B|88:140|88:140|40:112|36:52,2,165,4|2|8,0:0|0:0|0:0,0:0:0
148,36,190258,2,0,B|208:40|208:40|256:68|260:128,2,165,4|2|8,0:0|0:0|0:0,0:0:0
148,144,192522,5,4,0:0:0
172,252,193088,1,8,0:0:0
256,324,193654,1,0,0:0:0
340,252,194220,1,8,0:0:0
364,144,194786,6,0,B|452:160|512:84,2,165,4|2|8,0:0|0:0|0:0,0:0:0
256,120,197051,1,4,0:0:0
364,240,201579,5,4,0:0:0
340,132,202145,1,8,0:0:0
256,60,202711,1,0,0:0:0
172,132,203277,1,8,0:0:0
148,240,203843,2,0,B|60:224|0:300,2,165,4|2|8,0:0|0:0|0:0,0:0:0
256,264,206107,6,0,B|308:292|360:264,1,110,4|8,0:0|0:0,0:0:0
412,168,207239,2,0,B|360:140|308:168,1,110,0|8,0:0|0:0,0:0:0
200,188,208371,5,4,0:0:0
236,84,208937,1,8,0:0:0
128,104,209503,1,0,0:0:0
96,212,210070,2,0,B|40:232,2,55,8|0|4,0:0|0:0|0:0,0:0:0
