osu file format v9

[General]
AudioFilename: Love is Beautiful.mp3
AudioLeadIn: 0
PreviewTime: 52358
Countdown: 1
SampleSet: Normal
StackLeniency: 0.7
Mode: 0
LetterboxInBreaks: 1

[Editor]
DistanceSpacing: 0.8
BeatDivisor: 4
GridSize: 8

[Metadata]
Title:Love is Beautiful
Artist:Electronic Boutique
Creator:himydanny
Version:WS
Source:DJmax
Tags:DJmax3

[Difficulty]
HPDrainRate:6
CircleSize:5
OverallDifficulty:7
ApproachRate:8
SliderMultiplier:1.8
SliderTickRate:1

[Events]
//Background and Video events
0,0,"WS.png"
//Break Periods
//Storyboard Layer 0 (Background)
//Storyboard Layer 1 (Fail)
//Storyboard Layer 2 (Pass)
//Storyboard Layer 3 (Foreground)
//Storyboard Sound Samples
//Background Colour Transformations
3,100,163,162,255

[TimingPoints]
1840.34806104671,394.736842105263,4,2,0,59,1,0
25625,-100,4,1,0,30,0,0
27103,-100,4,1,0,30,0,1
27303,-100,4,2,0,60,0,0
52274,-100,4,1,0,51,0,0
52372,-100,4,1,0,51,0,1
52471,-100,4,1,0,51,0,0
62481,-100,4,2,0,51,0,0
62580,-100,4,1,0,51,0,0
62876,-100,4,2,0,51,0,0
62975,-100,4,1,0,51,0,0
69981,-100,4,2,0,51,0,0
70080,-100,4,1,0,51,0,0
70376,-100,4,2,0,51,0,0
70475,-100,4,1,0,51,0,0
77540,-100,4,1,0,51,0,1
80501,-100,4,1,0,41,0,1
80698,-100,4,1,0,49,0,1
83659,-100,4,1,0,41,0,1
83857,-100,4,1,0,51,0,1
86818,-100,4,1,0,41,0,1
87212,-100,4,1,0,30,0,1
87607,-100,4,1,0,41,0,1
88002,-100,4,1,0,52,0,1
102609,-100,4,1,0,52,0,0
102807,-100,4,2,0,71,0,0
115524,-100,4,2,0,71,0,1
115721,-100,4,2,0,71,0,0
125902,-100,4,1,0,60,0,0

[Colours]
Combo1 : 255,66,255
Combo2 : 249,36,89
Combo3 : 253,94,17
Combo4 : 133,233,58
Combo5 : 89,210,233

[HitObjects]
32,64,1441,1,2
16,128,1638,1,2
32,192,1836,2,2,B|256:464|384:176|384:176,1,450,2|2
416,112,3024,5,2
368,64,3221,2,2,B|-128:-80|192:336|192:336,1,540
224,352,4603,5,2
288,320,4800,2,2,B|688:-32|144:112|144:112,1,540
96,128,6182,5,2
80,192,6379,2,2,B|64:416|272:256|272:256,2,270
80,192,7761,1,8
80,80,8156,6,0,B|144:-16|272:64|272:64,1,180,0|8
208,112,8748,2,0,B|320:176|384:64|384:64,1,180,2|0
400,16,9340,1,8
448,64,9537,1,2
400,112,9735,6,0,B|288:176|384:272|384:272,1,180,0|8
448,240,10327,2,0,B|464:368|336:352|336:352,1,180,2|0
320,288,10919,1,8
272,336,11116,1,2
208,352,11314,6,0,B|64:368|96:240|96:240,1,180,0|8
94,255,11906,1,2
48,112,12300,1,0
112,144,12498,1,8
144,80,12695,1,2
208,112,12892,2,0,B|288:224|368:96|368:96,1,180,0|8
355,112,13485,1,2
464,16,13879,5,0
432,80,14077,1,8
480,128,14274,1,2
416,176,14471,2,0,B|448:336|304:240|304:240,1,180,0|8
256,240,15064,1,2
192,208,15261,1,0
80,160,15656,5,8
128,112,15853,1,2
192,128,16050,2,0,B|256:32|352:112|352:112,1,180,0|8
349,110,16638,1,2
384,176,16840,1,0
288,272,17235,5,8
224,304,17432,1,2
176,256,17629,2,0,B|80:176|192:96|192:96,1,180,0|8
256,96,18221,1,2
304,144,18419,1,0
256,256,18814,1,8
256,256,19011,5,2
32,80,19406,5,2
320,64,19800,5,2
96,256,20195,5,2
304,256,20787,6,0,B|400:304|400:304,1,90,0|2
448,320,21182,1,8
448,320,21379,1,8
448,176,21774,5,2
448,176,21971,1,8
448,176,22169,1,2
384,144,22366,2,0,B|304:96|304:96,1,90,0|2
240,64,22761,1,8
240,64,22958,1,8
96,112,23353,6,0,B|48:192|48:192,1,90,2|8
48,256,23748,1,2
48,256,23945,2,0,B|288:512|448:224|448:224,1,450
448,192,25129,1,2
464,128,25327,1,2
336,64,25721,5,0
263,66,25919,5,8
234,132,26116,5,0
289,177,26314,5,0
348,136,26511,5,0
336,65,26708,5,8
336,65,26807,5,0
336,65,26906,5,0
336,65,27004,5,0
336,64,27103,6,0,B|149:73|149:73,1,180,0|0
80,80,27695,1,2
80,224,28090,5,0
112,288,28287,1,8
176,320,28485,1,2
240,336,28682,2,0,B|368:384|384:272|384:272,1,180,0|8
400,208,29274,1,2
400,64,29669,5,0
352,112,29866,1,8
288,128,30064,1,2
224,112,30261,2,8,B|128:16|48:128|48:128,1,180,0|8
16,160,30853,1,2
256,304,31248,5,2
320,304,31445,1,8
416,32,31840,5,0
128,80,32235,5,8
64,80,32432,1,2
288,272,32827,1,2
352,272,33024,1,8
432,160,33419,6,0,B|432:48|272:48|272:48,1,180,0|8
208,160,34208,1,0
96,256,34603,5,8
128,320,34800,1,2
192,336,34998,1,0
224,192,35392,1,8
304,80,35787,5,0
368,96,35985,1,2
384,160,36182,1,8
352,224,36379,2,0,B|304:352|208:256|208:256,1,180,2|0
144,224,36971,5,8
96,176,37169,5,0
48,128,37366,5,0
112,112,37564,5,2
160,160,37761,5,10
176,96,37958,5,2
416,256,38353,5,2
128,288,38748,5,2
256,32,39142,5,2
400,192,39735,5,0
128,96,40129,1,8
64,96,40327,1,0
256,320,40721,5,2
304,272,40919,1,8
352,320,41116,1,0
400,272,41314,1,0
128,192,41708,5,8
64,192,41906,1,2
320,48,42300,1,2
384,48,42498,1,8
320,320,42892,5,0
64,176,43287,1,8
320,48,43682,1,0
384,48,43879,1,2
256,304,44274,5,2
32,112,44669,5,2
320,48,45064,5,2
368,336,45458,5,2
320,288,45656,1,8
272,336,45853,1,2
224,288,46050,1,0
96,32,46445,5,8
96,320,46840,5,0
48,272,47037,1,2
96,224,47235,1,8
160,240,47432,1,2
160,304,47629,1,0
256,192,48024,5,8
368,112,48419,5,0
336,48,48616,1,2
272,80,48814,1,8
304,144,49011,2,0,B|384:272|208:288|208:288,1,180,2|0
192,240,49603,5,8
144,192,49800,5,2
96,144,49998,5,0
160,128,50195,5,2
208,176,50392,5,8
224,112,50590,5,2
224,112,50787,5,0
224,112,50985,5,2
224,112,51182,5,8
224,112,51379,6,0,B|320:80|480:224|480:224|336:336|336:336,1,450,2|0
208,320,52761,5,2
64,320,53156,1,0
64,176,53550,1,2
64,176,53748,1,0
160,64,53945,5,4
304,64,54340,5,2
384,176,54735,1,0
304,304,55129,1,2
304,304,55327,1,0
160,304,55524,5,4
256,192,55919,5,2
400,192,56314,1,0
192,192,56906,5,2
416,192,57498,5,2
304,272,57892,1,0
256,224,58090,1,0
208,272,58287,1,2
256,224,58485,1,0
256,80,58682,5,4
112,112,59077,5,2
48,240,59471,1,0
112,352,59866,1,2
112,352,60064,1,0
256,352,60261,5,4
400,352,60656,5,2
448,224,61050,1,0
352,128,61445,1,2
352,128,61642,1,0
256,32,61840,5,0
112,64,62235,6,2,B|64:224|64:224,1,135,2|0
96,208,62629,2,2,B|176:352|176:352,1,135,2|0
192,320,63024,2,2,B|320:320|320:320,1,90,2|0
352,320,63419,5,4
352,320,63616,1,4
96,176,64011,1,0
352,32,64406,1,4
144,32,64998,5,0
288,32,65392,5,2
416,80,65787,1,0
448,224,66182,1,2
448,224,66379,1,0
448,224,66577,2,0,B|400:304|400:304,1,90,0|0
336,304,66971,5,2
272,304,67169,5,0
208,304,67366,5,2
240,240,67564,5,2
304,240,67761,5,0
272,176,67958,5,2
144,96,68353,5,0
80,112,68550,5,2
48,176,68748,5,0
80,240,68945,5,2
144,256,69142,5,0
208,240,69340,5,2
240,176,69537,6,0,B|240:16|432:48|432:48,1,225,2|0
416,64,70129,2,0,B|432:208|432:208,1,135,2|0
416,240,70524,2,0,B|320:288|320:288,1,90,2|0
272,304,70919,5,0
224,352,71116,1,0
160,352,71314,2,0,B|16:320|160:208|160:208,1,180
192,176,71906,2,0,B|320:96|304:240|304:240,1,180
320,304,72498,2,0,B|608:256|464:32|-32:384|224:64|224:64,1,540
272,16,73879,5,0
272,80,74077,1,2
272,144,74274,1,0
256,192,74471,12,0,76248
208,160,76445,5,0
232,224,76642,5,0
304,224,76840,5,0
328,160,77037,5,0
268,119,77235,5,0
400,48,77629,5,0
336,48,77827,1,0
272,48,78024,1,0
208,48,78221,1,2
48,288,78616,5,0
112,288,78814,1,0
176,288,79011,1,2
448,192,79406,5,0
416,128,79603,1,0
352,112,79800,1,2
288,128,79998,1,0
256,192,80195,1,2
288,256,80392,1,0
352,272,80590,1,2
64,304,80985,5,0
64,240,81182,1,0
64,176,81379,1,2
320,48,81774,5,0
320,112,81971,1,0
320,176,82169,1,2
48,112,82564,5,0
96,64,82761,1,0
160,64,82958,1,2
208,112,83156,1,0
272,112,83353,1,2
320,64,83550,1,0
384,64,83748,1,2
208,288,84142,5,0
160,240,84340,1,0
112,192,84537,1,2
368,48,84932,5,0
416,96,85129,1,0
464,144,85327,1,2
240,320,85721,5,0
192,272,85919,1,0
240,224,86116,1,2
288,176,86314,1,0
240,128,86511,1,2
192,80,86708,1,0
240,32,86906,1,2
336,304,87300,5,0
400,304,87498,5,0
448,256,87695,5,0
464,192,87892,5,0
448,128,88090,5,0
400,80,88287,5,0
336,80,88485,5,0
288,128,88682,5,2
288,128,88879,1,2
80,336,89274,1,2
16,64,89669,1,2
224,64,90261,5,0
288,64,90458,1,0
352,64,90656,2,0,B|416:64|464:64|464:64,1,90,0|2
448,128,91050,5,0
384,128,91248,1,0
320,128,91445,2,0,B|192:128|192:128,1,90,0|2
224,192,91840,5,0
288,192,92037,1,0
352,192,92235,2,0,B|480:192,3,90,0|2|0|2
400,256,93024,2,0,B|272:256|288:256,1,90,0|2
160,240,93616,5,0
96,224,93814,2,0,B|32:144|32:144,1,90,0|2
64,80,94208,5,0
128,48,94406,1,0
192,32,94603,2,0,B|304:32,1,90,0|2
336,80,94998,5,0
384,128,95195,1,0
432,176,95392,2,0,B|352:256,1,90,0|2
320,192,95787,6,2,B|240:272|240:272,3,90,0|2|0|2
256,192,96774,12,0,99735
80,192,100129,5,2
336,320,100524,5,2
464,64,100919,5,2
176,48,101314,5,2
112,80,101511,5,0
48,112,101708,5,0
48,176,101906,5,0
96,224,102103,5,0
128,208,102202,5,0
160,192,102300,5,0
192,176,102399,5,0
224,160,102498,5,2
304,48,102892,6,0,B|448:80|368:208|368:208,1,180,0|8
382,181,103485,1,0
288,288,103879,5,0
256,288,103978,1,0
224,288,104077,1,8
160,288,104274,1,2
112,240,104471,2,0,B|16:160|128:96|128:96,1,180,0|8
192,64,105064,1,0
336,48,105458,6,0,B|304:160|304:160,1,90,0|8
384,112,105852,1,2
448,112,106050,2,0,B|512:256|352:224|352:224,1,180,0|8
304,224,106642,1,0
224,336,107037,5,0
192,304,107136,1,0
160,272,107235,1,8
208,224,107432,1,2
256,176,107629,2,0,B|304:48|144:48|144:48,1,180,0|8
96,48,108221,1,0
16,176,108616,5,0
64,224,108814,1,8
128,192,109011,1,2
176,240,109208,2,0,B|240:352|320:240|320:240,1,180,0|8
384,256,109800,2,0,B|528:128|304:48|304:48,1,270,0|8
256,48,110590,5,0
192,48,110787,1,0
160,64,110886,1,0
144,96,110985,1,2
144,128,111083,1,0
160,160,111182,1,8
224,176,111379,1,0
368,192,111774,5,0
416,240,111971,1,8
368,288,112169,1,0
320,240,112366,1,0
288,240,112465,1,0
256,240,112564,1,2
224,240,112662,1,0
192,240,112761,1,8
128,240,112958,1,0
48,128,113354,5,0
80,64,113550,1,8
144,96,113748,1,2
208,96,113945,2,0,B|304:96|304:96,1,90
368,96,114340,1,8
432,96,114537,2,0,B|560:288|320:272|320:272,1,270,2|8
272,272,115327,1,0
208,272,115524,1,0
112,160,115919,5,8
400,160,116708,1,8
112,224,117498,5,8
400,224,118287,1,8
256,192,118682,5,0
256,192,119077,1,8
256,192,119274,1,8
144,272,119669,1,2
128,240,119767,1,0
112,208,119866,1,8
80,144,120064,1,8
144,112,120261,2,0,B|208:16,1,90,0|8
256,64,120656,1,0
320,96,120853,2,0,B|416:128|416:128,1,90,8|0
400,192,121248,1,8
400,192,121445,1,8
400,192,121840,6,0,B|288:352,1,180,0|8
240,288,122432,2,0,B|304:192|304:192,1,90,2|0
320,144,122827,1,0
272,80,123024,2,0,B|176:80|176:80,1,90,8|2
112,80,123419,2,0,B|-32:160|128:224|128:224,1,180,0|8
176,208,124011,1,2
256,208,124208,2,0,B|384:304|240:352|240:352,1,180,0|8
192,352,124800,1,2
128,352,124998,1,0
96,208,125392,1,8
96,144,125590,1,8
224,80,125985,5,0
224,144,126182,1,0
224,208,126379,1,0
