osu file format v9

[General]
AudioFilename: Love is Beautiful.mp3
AudioLeadIn: 0
PreviewTime: 52358
Countdown: 2
SampleSet: Soft
StackLeniency: 0.7
Mode: 0
LetterboxInBreaks: 1

[Editor]
DistanceSpacing: 1.2
BeatDivisor: 4
GridSize: 8

[Metadata]
Title:Love is Beautiful
Artist:Electronic Boutique
Creator:himydanny
Version:SS
Source:DJmax
Tags:DJmax3

[Difficulty]
HPDrainRate:4
CircleSize:4
OverallDifficulty:3
ApproachRate:5
SliderMultiplier:1.3
SliderTickRate:1

[Events]
//Background and Video events
0,0,"SS.png"
//Break Periods
//Storyboard Layer 0 (Background)
//Storyboard Layer 1 (Fail)
//Storyboard Layer 2 (Pass)
//Storyboard Layer 3 (Foreground)
//Storyboard Sound Samples
//Background Colour Transformations
3,100,163,162,255

[TimingPoints]
1840,394.736842105263,4,2,0,100,1,0

[Colours]
Combo1 : 255,66,255
Combo2 : 249,36,89
Combo3 : 253,94,17
Combo4 : 133,233,58
Combo5 : 89,210,223

[HitObjects]
240,304,1840,2,0,B|376:304|376:304,1,130
456,176,2629,1,0
336,80,3024,1,0
256,80,3221,1,0
296,144,3418,2,0,B|296:304|296:304,1,130
136,272,4208,1,0
80,128,4603,5,0
80,48,4800,1,0
144,88,4997,2,0,B|296:88|296:88,1,130
280,248,5787,1,0
416,168,6182,5,0
416,88,6379,1,0
336,88,6576,2,0,B|256:88|256:88,1,65
192,88,6971,1,0
112,88,7168,2,0,B|32:88|32:88,1,65
48,168,7563,2,0,B|136:168|136:168,1,65
192,304,8155,5,0
352,304,8550,1,0
352,224,8747,1,0
248,112,9142,5,0
192,56,9339,1,0
112,56,9537,1,0
56,112,9734,2,0,B|56:256|56:256,1,130
104,304,10326,2,0,B|168:256|168:256,1,65
232,256,10721,2,0,B|312:256|312:256,1,65
376,232,11116,1,0
336,160,11313,2,0,B|176:160|176:160,1,130
128,160,11905,1,0
168,312,12300,5,0
232,352,12497,1,0
296,312,12695,1,0
232,264,12892,2,0,B|232:112|232:112,1,130
232,56,13484,1,0
72,56,13879,5,0
40,128,14076,1,0
88,192,14274,1,0
32,248,14471,2,0,B|184:248|184:248,1,130
144,320,15063,2,0,B|232:320|232:320,1,65
368,304,15655,6,0,B|368:216|368:216,1,65
448,240,16050,2,0,B|448:88|448:88,1,130
368,112,16642,2,0,B|280:112|280:112,1,65
144,112,17234,6,0,B|56:112|56:112,1,65
40,176,17629,2,0,B|192:176|192:176,1,130
136,248,18221,2,0,B|56:248|56:248,1,65
200,184,18813,5,0
200,184,19011,1,0
320,80,19405,1,0
200,184,19800,1,0
320,280,20195,1,0
256,192,20787,12,0,22761
96,192,23155,5,0
256,192,23550,1,0
416,192,23945,2,0,B|416:104|416:104,1,65
344,88,24339,2,0,B|280:40|280:40,1,65
216,56,24734,2,0,B|136:80|136:80,1,65
104,136,25129,2,0,B|136:216|136:216|136:224,1,65
272,256,25721,6,0,B|272:168|272:168,7,65
272,344,27497,1,0
272,344,27695,1,0
416,280,28089,5,0
472,224,28287,1,0
416,168,28484,1,0
360,224,28682,2,0,B|200:224|200:224,1,130
152,224,29274,1,0
104,72,29668,5,0
32,104,29866,1,0
64,176,30063,1,0
136,144,30261,2,0,B|272:104|272:104,1,130
336,88,30853,1,0
424,216,31247,6,0,B|344:256|344:256,1,65
208,264,31839,5,0
152,120,32234,6,0,B|192:48|192:48,1,65
336,72,32826,6,0,B|392:128|392:128,1,65
384,272,33418,6,0,B|224:272|224:272,1,130
96,272,34208,1,0
32,128,34603,1,0
56,56,34800,1,0
120,96,34997,1,0
280,96,35392,1,0
400,200,35787,5,0
328,200,35984,1,0
328,272,36182,1,0
256,272,36379,1,0
256,192,36576,12,0,39339
80,192,39734,5,0
216,272,40129,1,0
144,272,40326,1,0
144,112,40721,2,0,B|224:112|224:112,3,65
368,112,41708,1,0
368,112,41905,1,0
368,272,42300,1,0
288,272,42497,1,0
232,128,42892,6,0,B|104:32|104:32,1,130
120,208,43682,1,0
120,208,43879,1,0
176,352,44274,2,0,B|336:352|336:352,1,130
456,320,45063,1,0
344,208,45458,2,0,B|280:152|280:152,3,65
176,64,46445,6,0,B|336:64|336:64,1,130
272,216,47234,1,0
216,272,47432,2,0,B|152:328|152:328,1,65
80,184,48024,1,0
192,72,48418,2,0,B|320:152|320:152,1,130
336,208,49011,1,0
264,240,49208,2,0,B|136:160|136:160,1,130
96,112,49800,5,0
176,112,49997,2,0,B|328:112|328:112|336:112,1,130
384,120,50589,1,0
384,120,50787,1,0
440,176,50984,1,0
440,176,51182,1,0
384,224,51379,1,0
272,312,51774,6,0,B|184:312|184:312,3,65
48,312,52761,1,0
48,160,53155,1,0
152,56,53550,1,0
152,56,53747,1,0
152,56,53945,6,0,B|312:56|312:56,1,130
400,152,54734,1,0
352,296,55129,1,0
352,296,55326,1,0
352,296,55524,6,0,B|216:296|216:296,1,130
64,296,56313,2,0,B|32:144|32:144,1,130
24,88,56905,1,0
104,88,57103,2,0,B|192:96|192:96,1,65
248,104,57497,2,0,B|320:64|320:64,1,65
360,128,57892,2,0,B|432:176|432:176,4,65
200,128,59076,5,0
40,128,59471,1,0
48,280,59866,1,0
48,280,60063,1,0
48,280,60261,2,0,B|192:280|192:280,1,130
336,280,61050,1,0
440,168,61445,1,0
440,168,61642,1,0
440,168,61839,1,0
304,96,62234,6,0,B|152:72|152:72,1,130
152,152,62826,2,0,B|96:192|96:192,1,65
200,312,63418,1,0
200,312,63616,1,0
344,264,64011,1,0
232,152,64405,1,0
24,56,64997,5,0
112,184,65392,1,0
200,56,65787,1,0
296,184,66182,1,0
336,120,66379,1,0
384,56,66576,2,0,B|448:96|448:96,1,65
496,144,66971,2,0,B|448:208|448:208,1,65
408,256,67366,2,0,B|328:256|328:256,3,65
184,256,68353,6,0,B|120:256,1,65
64,208,68747,2,0,B|48:144|48:144,1,65
32,72,69142,1,0
104,104,69339,1,0
176,128,69537,2,0,B|256:-32|320:152|320:152,2,195
136,200,70918,5,0
144,280,71116,1,0
224,272,71313,2,0,B|352:264|352:264,1,130
416,216,71905,2,0,B|472:96|472:96,1,130
392,80,72497,2,0,B|256:56|256:56|264:56,1,130
104,48,73287,6,0,B|48:80|48:80,1,65
104,136,73682,2,0,B|168:176|168:176,1,65
104,224,74076,2,0,B|32:264|32:264,1,65
104,312,74471,2,0,B|224:384|224:384,1,130
368,376,75261,1,0
440,216,75655,1,0
360,216,75853,1,0
280,216,76050,1,0
200,216,76247,6,0,B|112:216|112:216,5,65
280,216,77629,6,0,B|432:216|432:216,1,130
280,72,78418,2,0,B|120:72|120:72,1,130
112,144,79011,2,0,B|248:144|248:144,1,130
320,144,79603,1,0
288,216,79800,1,0
248,280,79997,2,0,B|176:280,1,65
112,248,80392,2,0,B|80:192,1,65
72,112,80787,6,0,B|224:112|224:112,1,130
280,112,81379,1,0
280,192,81576,2,0,B|120:192,1,130
72,192,82168,2,0,B|72:336|72:336,1,130
152,312,82761,1,0
232,312,82958,1,0
312,312,83155,2,0,B|376:256|376:256,3,65
392,200,83945,6,0,B|240:200,1,130
184,200,84537,1,0
104,200,84734,2,0,B|16:200,1,65
16,128,85129,1,0
96,128,85326,2,0,B|240:128|240:128,1,130
304,128,85918,2,0,B|376:128,1,65
448,128,86313,2,0,B|448:256,1,130
448,336,86905,1,0
368,336,87103,6,0,B|304:304,1,65
240,336,87497,6,0,B|192:256,1,65
128,296,87892,6,0,B|144:224,1,65
72,200,88287,6,0,B|120:128,1,65
64,80,88682,6,0,B|144:40,1,65
280,48,89274,5,0
280,48,89668,1,0
72,160,90261,6,0,B|136:296|136:296,1,130
272,336,91050,2,0,B|392:272|392:272,1,130
448,224,91642,1,0
416,152,91839,2,0,B|336:32|336:32,1,130
264,48,92432,1,0
184,48,92629,2,0,B|104:0|104:0,1,65
72,72,93023,2,0,B|48:152|48:152,1,65
80,208,93418,6,0,B|184:128|184:128,1,130
264,120,94011,1,0
312,184,94208,2,0,B|192:280|192:280,1,130
264,328,94800,1,0
336,312,94997,2,0,B|440:224|440:224,1,130
440,152,95589,1,0
384,96,95787,2,0,B|320:48|320:48,1,65
288,120,96182,2,0,B|208:128|208:128|216:128,1,65
256,192,96576,12,0,98550
96,176,98945,5,0
200,64,99339,5,0
304,176,99734,5,0
200,288,100129,6,0,B|200:160|200:160,1,130
200,80,100721,2,0,B|280:32|280:32,1,65
320,88,101116,2,0,B|384:112|384:112,1,65
392,184,101511,5,0
312,184,101708,5,0
232,184,101905,5,0
232,264,102103,5,0
312,264,102300,5,0
392,264,102497,5,0
