osu file format v5

[General]
AudioFilename: 09 Divine Service.mp3
AudioLeadIn: 1511
PreviewTime: -1
Countdown: 1
SampleSet: Soft
StackLeniency: 0.7
Mode: 0
LetterboxInBreaks: 1

[Metadata]
Title:Divine Service
Artist:Electronic Boutique
Creator:vvvf1000
Version:HARD Style
Source:DJMAX Portable2, BS, Technika
Tags:

[Difficulty]
HPDrainRate:4
CircleSize:5
OverallDifficulty:5
SliderMultiplier:2.3
SliderTickRate:4

[Events]
//Background and Video events
0,0,"00000dd.jpg"
1,0,"MagicOne(7).wmv"
//Break Periods
//Storyboard Layer 0 (Background)
//Storyboard Layer 1 (Failing)
//Storyboard Layer 2 (Passing)
//Storyboard Layer 3 (Foreground)
//Storyboard Sound Samples
//Background Colour Transformations
3,100,255,255,255

[TimingPoints]
3777,794.699999999999,4,2,0,60,1,0

[Colours]
Combo1 : 64,0,64
Combo2 : 244,0,6
Combo3 : 131,0,187
Combo4 : 255,255,255
Combo5 : 211,44,162

[HitObjects]
464,352,2187,1,0
416,304,2386,1,0
368,256,2584,1,0
320,208,2783,1,8
272,352,3777,5,0
224,304,3975,1,0
176,256,4174,1,0
128,208,4373,1,8
48,32,5366,5,0
96,80,5565,1,0
144,128,5763,1,0
192,176,5962,1,8
304,32,6955,5,0
352,80,7154,1,0
400,128,7353,1,0
448,176,7551,1,8
352,176,7949,6,2,B|464:272|448:288,1,115
433,255,8545,5,0
368,272,8743,1,0
304,288,8942,1,0
256,240,9141,1,8
208,288,9737,5,10
208,288,9935,1,10
208,288,10134,1,0
144,320,10333,1,0
80,288,10531,1,0
32,240,10730,1,8
48,48,11326,5,10
48,48,11525,1,10
48,48,11723,1,0
112,80,11922,1,0
176,112,12121,1,0
240,80,12320,1,8
284,156,12717,5,0
336,112,13114,1,8
361,87,13313,1,0
400,144,13710,1,2
462,211,14108,1,0
432,224,14306,1,8
371,279,14704,1,0
304,320,14902,5,0
288,256,15101,1,0
272,192,15300,1,0
208,208,15498,1,8
160,272,16094,5,10
160,272,16293,1,10
160,272,16492,1,0
96,240,16690,1,0
48,192,16889,1,0
32,128,17088,1,8
80,64,17684,5,10
80,64,17882,1,10
80,64,18081,1,0
160,64,18280,1,0
240,64,18478,1,0
352,64,18677,1,8
416,96,19074,5,0
368,160,19273,1,8
336,176,19472,1,0
304,192,19670,1,8
256,240,20068,1,10
304,288,20465,1,2
320,304,20664,1,8
384,336,21061,1,8
432,288,21260,5,0
464,224,21459,1,0
432,160,21657,1,0
352,144,21856,1,8
288,192,22452,5,10
288,192,22651,1,10
288,192,22849,1,0
224,224,23048,1,0
160,256,23247,1,0
80,240,23445,1,8
48,208,23644,5,0
80,176,23843,1,0
112,144,24041,1,8
80,112,24240,1,2
112,80,24439,1,10
240,32,25829,5,0
272,48,26028,1,8
352,96,26425,1,2
432,144,26823,1,0
464,160,27021,1,8
352,208,27419,1,10
256,192,29008,5,0
256,192,29803,1,2
256,192,29902,1,2
256,192,30002,1,2
208,128,30399,5,2
160,80,30796,1,8
96,144,31988,1,2
64,192,32187,1,2
32,240,32386,1,8
96,304,33180,1,0
176,304,33578,1,2
256,304,33975,1,8
320,256,34770,5,0
352,288,34968,1,2
384,320,35167,1,8
416,288,35366,1,2
448,256,35564,1,10
391,131,36359,1,0
367,162,36757,1,0
346,131,37154,1,8
448,96,38743,1,0
448,32,39538,1,8
352,48,40730,5,0
320,64,40929,1,0
288,80,41127,1,8
256,144,41525,1,0
224,128,41723,1,8
192,48,42121,1,10
160,128,42518,1,0
128,144,42717,1,8
80,80,43114,1,2
32,128,43511,5,10
64,192,43909,1,0
80,224,44108,1,0
96,256,44306,1,8
144,320,44704,1,0
160,352,44902,1,8
176,320,45896,5,2
208,272,46293,1,2
240,224,46690,1,8
352,256,47684,5,2
368,272,47882,1,8
384,256,48081,1,8
432,208,48478,1,2
448,192,48677,1,8
464,176,48876,1,2
448,160,49074,1,8
432,144,49273,1,2
416,128,49472,1,8
400,112,49670,1,8
384,96,49869,1,10
320,128,51061,1,2
304,144,51260,1,8
288,160,51458,1,8
256,192,51856,5,0
256,192,52253,1,0
256,192,52651,1,0
256,192,53048,1,4
256,128,53843,6,2,B|288:144|320:192|320:176,1,57.5
300,164,54240,2,2,B|304:208|368:208|352:208,1,57.5
432,288,55829,6,2,B|352:336|304:304|320:304,1,115
288,304,56823,1,0
256,288,57021,1,2
192,256,57319,1,2
128,288,57617,1,2
96,272,57816,1,0
80,176,58412,6,2,B|96:192|48:224|48:208,4,57.5
80,176,59405,1,0
144,144,59803,5,2
160,96,60200,1,2
192,32,60598,1,0
224,64,60796,1,2
240,128,61194,1,0
256,160,61392,1,2
240,192,61591,1,2
256,256,61988,1,2
272,288,62187,1,2
304,288,62386,1,0
352,240,62982,5,0
400,208,63379,1,2
432,224,63578,1,2
448,256,63776,1,2
432,288,63975,1,2
384,336,64372,1,0
384,336,64571,1,0
448,352,64968,1,2
448,352,65167,1,2
447,353,65366,6,0,B|439:322|416:279|371:263|376:263,1,115
380,266,66160,1,0
336,240,66558,1,0
304,288,66756,1,2
272,336,66955,1,0
240,288,67154,1,2
208,240,67352,1,0
176,192,67551,5,2
144,240,67750,1,0
112,288,67949,1,2
80,336,68147,1,0
48,288,68346,1,2
16,240,68545,1,0
48,192,68743,1,2
80,144,68942,1,0
112,96,70134,5,2
144,48,70531,1,0
192,64,71326,1,2
240,32,72121,1,0
272,80,72915,1,0
304,128,73114,1,2
336,80,73313,1,2
368,32,73511,2,8,B|400:48|432:80|448:112|464:144|480:192|464:240|464:272|432:304|432:288,1,287.5
416,320,74902,6,8,B|416:336|400:352|384:352|368:336|368:320|352:304|336:320|320:336|320:320,1,115
272,320,75697,6,8,B|272:304|256:288|240:288|224:304|224:320|208:336|176:336,1,115
128,304,76492,6,8,B|112:304|96:288|96:272|80:256|64:256|48:240|64:224|80:208|80:224,1,115
128,192,77286,6,14,B|144:176|160:192|176:208|192:224|256:192,2,115
80,144,78478,6,0,B|64:112|80:96|112:80|112:80|144:96,1,115
160,64,79174,1,8
208,32,79472,1,2
240,80,79670,1,2
272,128,79869,1,8
224,144,80068,6,0,B|208:176|224:192|256:208|256:208|288:224,1,115
304,240,80764,1,8
352,272,81062,1,2
384,224,81260,1,2
416,176,81459,1,8
480,176,81657,6,0,B|496:144|480:128|432:96|432:96|432:112,1,115
384,80,82353,1,8
336,48,82651,1,2
304,96,82849,1,2
272,144,83048,1,8
320,144,83246,6,0,B|336:176|320:192|288:208|288:208|256:224,1,115
240,256,83942,1,8
192,288,84240,1,2
160,240,84438,1,2
128,192,84637,1,8
176,208,84836,6,0,B|208:224|224:208|256:176|256:176|240:160,1,115
288,144,85532,1,8
320,96,85830,1,2
272,64,86028,1,2
224,32,86227,1,8
208,80,86425,6,0,B|176:64|160:80|144:112|144:112|112:128,1,115
112,160,87121,1,8
80,208,87419,1,2
128,240,87617,1,2
176,272,87816,1,8
208,320,88015,6,0,B|240:336|256:320|272:288|272:288|304:272,1,115
304,240,88711,1,8
336,192,89009,1,2
368,144,89207,1,2
384,96,89406,1,8
368,32,89604,6,0,B|400:16|416:32|432:64|432:64|464:80,1,115
464,112,90300,1,8
496,160,90598,1,2
480,208,90796,1,2
496,256,90995,1,8
464,304,91193,5,2
416,256,91392,2,14,B|400:256|400:272|384:272|352:288,1,57.5
352,336,91988,1,10
304,320,92286,1,10
272,272,92584,1,10
224,240,92982,6,10,B|208:240|224:256|224:272|192:288,1,57.5
160,320,93578,2,10,B|160:336|144:336|128:352|112:336|112:352,1,57.5
80,320,93975,2,14,B|80:304|64:304|48:272,1,57.5
48,208,94571,5,2
96,160,94770,2,10,B|112:160|112:176|128:176|128:208,1,57.5
160,240,95167,1,10
208,224,95366,1,10
240,176,95763,1,10
288,144,96160,6,10,B|304:144|288:160|288:176|320:208,1,57.5
352,224,96558,2,10,B|352:240|368:240|384:256|400:240|400:256,1,57.5
432,224,96955,2,14,B|432:208|448:208|464:176,1,57.5
448,112,97551,5,2
400,64,97750,2,10,B|384:64|384:80|368:80|368:112,1,57.5
336,144,98346,1,10
288,128,98644,1,10
256,80,98942,1,10
208,48,99340,6,10,B|192:48|208:64|208:80|176:96,1,57.5
144,128,99936,2,10,B|144:144|128:144|112:160|96:144|96:160,1,57.5
64,192,100333,2,14,B|64:208|48:208|80:256,1,57.5
32,240,100929,5,2
80,288,101127,2,10,B|96:288|96:272|112:272|128:240,1,57.5
144,208,101525,1,10
192,224,101724,1,10
224,272,102121,1,10
272,304,102518,6,10,B|288:304|272:288|272:272|288:240,1,57.5
336,224,102916,2,10,B|336:208|352:208|368:192|384:208|384:192,1,57.5
416,224,103313,2,14,B|416:240|432:240|464:256,1,57.5
448,304,103909,6,0,B|448:320|432:336|416:336|400:352|384:352|368:368|352:368|336:352|352:320|352:320|336:304|320:304|288:288|304:256|288:224|256:240|224:256|208:272|208:304|208:336|176:352|128:352|112:320,1,402.5
112,320,105498,6,0,B|80:320|64:304|48:288|32:240|48:224|80:208|112:208|144:208|160:208|208:192|208:176|192:144|176:128|160:112|144:112|112:112|80:112|64:96|64:80|64:64|80:48|112:32|128:32,1,402.5
112,48,107087,6,0,B|128:32|144:16|160:16|176:32|192:64|208:80|208:112|224:128|256:144|288:144|320:112|320:80|304:96|288:80|272:80|272:64|288:48|320:48|320:32|336:48|384:96|400:96|432:96|432:112,1,402.5
432,128,108677,5,0
464,176,108876,1,0
432,240,109074,1,0
416,304,109273,1,0
368,352,109472,1,0
304,320,109670,1,0
240,320,109869,1,0
208,272,110068,1,0
192,240,110167,1,0
160,208,110465,6,0,B|144:224|128:224|112:208|96:208,1,57.5
64,192,111061,2,0,B|48:176|64:176|48:160|48:144|80:128|64:144,1,57.5
64,139,111657,1,0
64,139,111856,2,0,B|64:96|96:96|96:80|112:80|112:64|128:48|160:64|160:96|176:112|192:128|208:128|224:128|240:160|256:176|272:160|288:128|304:96|304:80|480:160,1,460
432,208,113644,6,0,B|416:208|416:192|400:208|384:192,1,57.5
352,240,114240,2,0,B|336:256|352:272|368:288,1,57.5
360,292,114836,1,0
304,320,115034,5,0
256,288,115432,1,0
224,272,115631,1,0
160,240,116028,1,0
144,176,116425,1,0
256,192,116624,12,0,119207
256,192,119604,5,4
