osu file format v5

[General]
AudioFilename: 09 Divine Service.mp3
AudioLeadIn: 1511
PreviewTime: -1
Countdown: 1
SampleSet: Soft
StackLeniency: 0.7
Mode: 0
LetterboxInBreaks: 1

[Metadata]
Title:Divine Service
Artist:Electronic Boutique
Creator:vvvf1000
Version:EASY Style
Source:DJMAX Portable2, BS, Technika
Tags:

[Difficulty]
HPDrainRate:2
CircleSize:5
OverallDifficulty:3
SliderMultiplier:2.3
SliderTickRate:4

[Events]
//Background and Video events
0,0,"00000dd.jpg"
1,0,"MagicOne(7).wmv"
//Break Periods
//Storyboard Layer 0 (Background)
//Storyboard Layer 1 (Failing)
//Storyboard Layer 2 (Passing)
//Storyboard Layer 3 (Foreground)
//Storyboard Sound Samples
//Background Colour Transformations
3,100,255,255,255

[TimingPoints]
3777,794.699999999999,4,2,0,60,1,0

[Colours]
Combo1 : 64,0,64
Combo2 : 244,0,6
Combo3 : 131,0,187
Combo4 : 255,255,255
Combo5 : 211,44,162

[HitObjects]
464,352,2187,1,0
368,256,2584,1,0
320,208,2783,1,8
272,352,3777,5,0
176,256,4174,1,0
128,208,4373,1,8
48,32,5366,5,0
144,128,5763,1,0
192,176,5962,1,8
304,32,6955,5,0
400,128,7353,1,0
448,176,7551,1,8
208,288,10134,5,0
80,288,10531,1,0
32,240,10730,1,8
48,48,11723,5,0
176,112,12121,1,0
240,80,12320,1,8
284,156,12717,5,0
400,144,13710,1,2
304,320,14902,5,0
272,192,15300,1,0
208,208,15498,1,8
160,272,16492,5,0
48,192,16889,1,0
32,128,17088,1,8
80,64,18081,5,0
240,64,18478,1,0
320,64,18677,1,8
368,160,19273,5,8
304,192,19670,1,8
256,240,20068,1,10
432,288,21260,5,0
432,160,21657,1,0
352,144,21856,1,8
288,192,22849,5,0
160,256,23247,1,0
80,240,23445,1,8
80,176,23843,1,0
80,112,24240,1,2
240,32,25829,5,0
352,96,26425,1,2
432,144,26823,1,0
352,208,27419,1,10
256,192,29008,5,0
256,192,30002,1,2
208,128,30399,5,2
160,80,30796,1,8
96,144,31988,1,2
32,240,32386,1,8
96,304,33180,1,0
176,304,33578,1,2
256,304,33975,1,8
320,256,34770,5,0
352,288,34968,1,2
416,288,35366,1,2
448,256,35564,1,10
391,131,36359,1,0
448,96,37154,1,8
448,96,38743,1,0
448,32,39538,1,8
352,48,40730,5,0
288,80,41127,1,8
256,144,41525,1,0
192,48,42121,1,10
160,128,42518,1,0
128,144,42717,1,8
64,192,43909,5,0
96,256,44306,1,8
144,320,44704,1,0
160,352,44902,1,8
176,320,45896,5,2
208,272,46293,1,2
240,224,46690,1,8
352,256,47684,5,2
368,272,47882,1,8
384,256,48081,1,8
432,208,48478,1,2
464,176,48876,1,2
432,144,49273,1,2
400,112,49670,1,8
384,96,49869,1,10
320,128,51061,1,2
288,160,51458,1,8
256,192,51856,5,0
256,192,53048,1,4
256,128,53843,6,2,B|288:144|320:192|320:176,1,57.5
300,164,54240,2,2,B|304:208|368:208|352:208,1,57.5
400,288,55829,5,0
352,320,56227,1,0
288,304,56823,1,0
240,288,57021,1,2
192,256,57319,1,2
144,288,57617,1,2
112,272,57816,1,0
80,208,59405,5,0
144,144,59803,5,2
160,96,60200,1,2
208,64,60598,1,0
352,240,62982,5,0
400,208,63379,1,2
432,224,63578,1,2
448,256,63776,1,2
432,288,63975,1,2
384,336,64372,1,0
416,288,64968,1,2
336,240,66558,1,0
304,288,66756,1,2
272,336,66955,1,0
240,288,67154,1,2
208,240,67352,1,0
128,192,68942,5,0
112,96,70134,5,2
144,48,70531,1,0
192,64,71326,1,2
240,32,72121,1,0
272,80,72915,1,0
336,80,73313,1,2
368,32,73511,2,8,B|400:48|432:80|448:112|464:144|480:192|464:240|464:272|432:304|432:288,1,287.5
272,320,75697,6,8,B|272:304|256:288|240:288|224:304|224:320|208:336|176:336,1,115
128,304,76492,6,8,B|112:304|96:288|96:272|80:256|64:256|48:240|64:224|80:208|80:224,1,115
80,144,78478,6,0,B|64:112|80:96|112:80|112:80|144:96,1,115
240,80,79670,1,2
224,144,80068,6,0,B|208:176|224:192|256:208|256:208|288:224,1,115
384,224,81260,1,2
480,176,81657,6,0,B|496:144|480:128|432:96|432:96|432:112,1,115
304,96,82849,1,2
320,144,83246,6,0,B|336:176|320:192|288:208|288:208|256:224,1,115
160,240,84438,1,2
176,208,84836,6,0,B|208:224|224:208|256:176|256:176|240:160,1,115
272,64,86028,1,2
208,80,86425,6,0,B|176:64|160:80|144:112|144:112|112:128,1,115
128,240,87617,1,2
208,320,88015,6,0,B|240:336|256:320|272:288|272:288|304:272,1,115
368,144,89207,1,2
368,32,89604,6,0,B|400:16|416:32|432:64|432:64|464:80,1,115
480,208,90796,1,2
464,304,91193,5,2
416,256,91392,2,14,B|400:256|400:272|384:272|352:288,1,57.5
352,336,91988,1,10
304,320,92286,1,10
224,240,92982,6,10,B|208:240|224:256|224:272|192:288,1,57.5
176,320,93578,1,8
96,288,93975,1,4
48,208,94571,5,2
96,160,94770,2,10,B|112:160|112:176|128:176|128:208,1,57.5
160,240,95167,1,10
208,224,95465,1,8
288,144,96160,6,10,B|304:144|288:160|288:176|320:208,1,57.5
464,208,97154,1,4
448,112,97551,5,2
400,64,97750,2,10,B|384:64|384:80|368:80|368:112,1,57.5
336,144,98346,1,10
288,128,98644,1,10
208,48,99340,6,10,B|192:48|208:64|208:80|176:96,1,57.5
144,128,99935,1,8
64,192,100333,1,4
32,240,100929,5,2
80,288,101127,2,10,B|96:288|96:272|112:272|128:240,1,57.5
144,208,101525,1,10
192,224,101823,1,8
272,304,102518,6,10,B|288:304|272:288|272:272|288:240,1,57.5
416,224,103511,1,4
448,304,103909,6,0,B|448:320|432:336|416:336|400:352|384:352|368:368|352:368|336:352|352:320|352:320|336:304|320:304|288:288|304:256|288:224|256:240|224:256|208:272|208:304|208:336|176:352|128:352|112:320,1,402.5
112,48,107087,6,0,B|128:32|144:16|160:16|176:32|192:64|208:80|208:112|224:128|256:144|288:144|320:112|320:80|304:96|288:80|272:80|272:64|288:48|320:48|320:32|336:48|384:96|400:96|432:96|432:112,1,402.5
368,192,108876,1,0
272,224,109273,1,0
160,208,110465,6,0,B|144:224|128:224|112:208|96:208,1,57.5
64,139,111856,2,0,B|64:96|96:96|96:80|112:80|112:64|128:48|160:64|160:96|176:112|192:128|208:128|224:128|240:160|256:176|272:160|288:128|304:96|304:80|480:160,1,460
432,208,113644,6,0,B|416:208|416:192|400:208|384:192,1,57.5
368,256,116028,1,0
288,240,116425,1,0
256,192,116624,12,0,119207
256,192,119604,5,4
