osu file format v5

[General]
AudioFilename: 07. Electronic Boutique - DIVINE SERVICE.mp3
AudioLeadIn: 0
PreviewTime: 58409
Countdown: 0
SampleSet: Soft
StackLeniency: 0.7
Mode: 0
LetterboxInBreaks: 1

[Editor]
Bookmarks: 39,139,30031,65403,78516,91231,103946
DistanceSpacing: 0.5
BeatDivisor: 2
GridSize: 32

[Metadata]
Title:Divine Service
Artist:Electronic Boutique
Creator:Sargon
Version:NM Style
Source:DJMax Portable 2
Tags:DJMax Divine Service Electronic Boutique

[Difficulty]
HPDrainRate:3
CircleSize:4
OverallDifficulty:4
SliderMultiplier:1.2
SliderTickRate:2

[Events]
//Background and Video events
0,0,"bg.png"
Video,0,"DIVINE SERVICE DJMAX PORTABLE BLACK SQUARE BGA HQ.flv"
//Break Periods
2,27847,29229
2,53259,64455
//Storyboard Layer 0 (Background)
//Storyboard Layer 1 (Fail)
//Storyboard Layer 2 (Pass)
//Storyboard Layer 3 (Foreground)
//Storyboard Sound Samples
//Background Colour Transformations
3,100,135,63,50

[TimingPoints]
-185,397.350993377483,4,2,0,100,1,0
78516,-100,4,1,0,100,0,1
91007,-100,4,1,0,100,0,1
91205,-100,4,1,0,100,0,1
103920,-100,4,1,0,100,0,0

[Colours]
Combo1 : 240,164,49
Combo2 : 96,40,6

[HitObjects]
64,128,14914,2,0,B|320:128,1,240,0|8
416,192,16503,2,0,B|128:192,1,240,0|8
64,256,18093,2,0,B|320:256,1,240,0|8
416,320,19682,2,0,B|160:320,1,240,0|8
64,320,21271,6,0,B|64:64,1,240,0|8
160,0,22861,2,0,B|160:256,1,240,0|8
256,320,24450,2,0,B|256:64,1,240,0|8
352,128,26040,2,0,B|352:384,1,240,0|8
430,276,27629,1,4
64,96,30411,5,2
128,96,30808,2,0,B|416:96,1,240,2|8
384,160,32000,1,2
352,160,32199,1,2
320,160,32397,2,0,B|64:160,1,240,2|10
32,224,33589,1,2
96,224,33987,6,0,B|352:224,1,240,2|10
352,192,34980,1,2
384,224,35179,1,2
416,256,35377,1,2
384,288,35576,2,0,B|128:288,1,240,2|10
96,288,36768,6,0,B|32:128|0:32|-32:0|160:32,1,360,2|8
224,32,38755,2,0,B|480:32,2,240,2|8|2
160,32,40742,6,0,B|96:96|160:160,1,120,2|10
192,192,41536,2,0,B|256:256,1,60,2|2
288,288,42132,1,2
352,288,42530,1,2
384,288,42728,2,0,B|480:288|480:224,2,120,2|2|2
320,288,43920,5,2
288,288,44119,1,2
256,288,44318,1,10
192,288,44715,1,2
160,288,44914,2,0,B|0:320|32:32,1,300,2|10
96,64,46305,1,2
160,64,46702,6,0,B|416:64,1,240,2|8
416,96,47695,1,2
416,128,47894,1,2
416,160,48093,2,0,B|512:352|224:352,1,300,2|10
256,352,49285,1,2
224,352,49483,1,2
192,352,49682,1,2
160,352,49881,6,0,B|0:352|32:160,1,240,2|8
32,128,51073,1,2
64,128,51271,1,2
96,128,51470,2,2,B|352:128,2,240,2|10|2
256,192,65775,12,4,76901
96,96,78490,5,4
160,96,78887,1,0
224,96,79285,1,0
288,96,79682,1,0
288,160,80079,1,0
224,160,80477,1,0
160,160,80874,1,0
96,160,81271,2,0,B|64:160,4,30
96,224,82066,5,0
160,224,82464,1,0
224,224,82861,1,0
288,224,83258,1,0
288,160,83656,1,0
288,96,84053,1,0
288,32,84450,2,0,B|256:32,4,30
352,32,85245,5,0
352,96,85642,1,0
352,160,86040,1,0
416,192,86437,1,0
416,256,86834,1,0
416,320,87232,1,0
416,384,87629,2,0,B|448:384,4,30
352,384,88424,5,0
288,352,88821,1,0
224,320,89218,1,0
256,256,89616,1,0
256,192,90013,2,0,B|224:192,12,30
288,160,91404,5,0
320,192,91603,2,0,B|224:288,1,120
192,288,92298,2,0,B|96:288,1,90
64,224,92993,1,0
64,192,93192,2,0,B|64:64,2,120
160,160,94583,5,0
192,128,94781,2,0,B|320:128,1,120
352,160,95477,2,0,B|448:224,1,90
448,256,96172,1,0
416,256,96371,2,0,B|288:256,2,120
352,192,97762,5,0
320,192,97960,2,0,B|192:192,1,120
160,224,98656,2,0,B|64:288,1,90
32,224,99351,1,0
32,192,99550,2,0,B|32:64,2,120
128,160,100940,5,0
160,160,101139,2,0,B|288:96,1,120
320,128,101834,2,0,B|416:192,1,90
352,224,102530,1,0
320,256,102728,2,0,B|224:352,2,120
256,224,103920,6,0,B|237:196|220:185|203:172|183:172|174:180|167:197|162:213|147:242|137:262|113:283|95:263|76:239|60:216|61:177|61:137|61:111|52:78|16:64|-3:112|-2:157|1:231,1,480
15,284,105907,1,0
15,348,106305,1,0
79,348,106702,2,0,B|79:380,4,30
143,348,107497,5,0
207,348,107894,1,0
271,348,108291,1,0
316,309,108689,2,0,B|343:324|348:348|349:360|364:350|362:338|362:319|375:294|386:292|399:293|401:321|406:335|408:357|417:365|421:356|425:345|425:329|429:304|432:291|438:282|449:278|458:274|467:274|474:287|484:284|484:311|490:330|492:359|506:341|507:214|484:153|417:122|361:106,1,480
320,96,110675,5,0
256,96,111073,1,0
192,96,111470,1,0
128,96,111867,2,0,B|130:65|130:36|125:17|115:1|95:1|89:23|90:64|89:98|95:138|63:134|59:102|59:67|60:43|56:10|36:16|24:23|24:49|24:85|23:129|55:178|88:193|131:198|166:190|179:173|229:163,1,480
288,160,113854,5,0
352,160,114252,2,0,B|416:192|448:224|448:256|448:288|416:320|352:320,1,240
320,320,115444,2,0,B|288:320,12,30
