osu file format v5

[General]
AudioFilename: 07. Electronic Boutique - DIVINE SERVICE.mp3
AudioLeadIn: 0
PreviewTime: 58458
Countdown: 0
SampleSet: Soft
StackLeniency: 0.7
Mode: 0
LetterboxInBreaks: 1

[Editor]
Bookmarks: 39,139,30031,59417,65403,78516,91231,103946
DistanceSpacing: 1.10000002384186
BeatDivisor: 6
GridSize: 8

[Metadata]
Title:Divine Service
Artist:Electronic Boutique
Creator:Sargon
Version:MX Style
Source:DJMax Portable 2
Tags:DJMax Divine Service Electronic Boutique

[Difficulty]
HPDrainRate:4
CircleSize:5
OverallDifficulty:4
SliderMultiplier:1.2
SliderTickRate:2

[Events]
//Background and Video events
0,0,"bg.png"
Video,0,"DIVINE SERVICE DJMAX PORTABLE BLACK SQUARE BGA HQ.flv"
//Break Periods
2,27847,29229
2,53285,64998
//Storyboard Layer 0 (Background)
//Storyboard Layer 1 (Fail)
//Storyboard Layer 2 (Pass)
//Storyboard Layer 3 (Foreground)
//Storyboard Sound Samples
//Background Colour Transformations
3,100,135,63,50

[TimingPoints]
-185,397.350993377483,4,2,0,100,1,0
52265,-50,4,2,0,100,0,0
53060,-100,4,2,0,100,0,1
53258,-100,4,2,0,100,0,0
78516,-100,4,1,0,100,0,1
91007,-50,4,1,0,100,0,1
91205,-100,4,1,0,100,0,1
103920,-100,4,1,0,100,0,0

[Colours]
Combo1 : 240,164,49
Combo2 : 96,40,6

[HitObjects]
32,352,2199,2,0,B|32:192|192:192,1,240,0|8
288,192,3391,1,2
288,128,3589,1,2
288,64,3788,2,0,B|448:64|448:224,1,240,0|8
320,192,4980,1,2
320,256,5179,1,2
320,320,5377,2,0,B|160:320|160:160,1,240,0|8
96,192,6371,1,2
96,128,6569,1,2
96,64,6768,1,2
96,0,6967,2,0,B|256:0|256:160,1,240,0|8
320,160,7960,1,2
320,224,8159,1,2
320,288,8358,1,2
320,352,8556,6,0,B|480:352|480:192,1,240,0|8
352,224,9748,1,2
352,160,9947,1,2
352,96,10146,2,0,B|192:96|192:256,1,240,0|8
128,256,11139,1,2
64,224,11338,1,2
0,256,11536,1,2
0,192,11735,2,0,B|0:32|160:32,1,240,0|8
322,111,13126,1,2
274,159,13324,1,2
173,73,13722,1,2
269,1,14119,1,10
322,39,14318,1,2
320,224,14914,6,0,B|320:384|160:384,1,240,0|8
64,320,16106,1,2
64,256,16305,1,2
64,192,16503,2,0,B|64:32|224:32,1,240,0|8
320,32,17695,1,2
320,96,17894,1,2
320,160,18093,2,0,B|320:320|160:320,1,240,0|8
128,256,19086,1,2
128,192,19285,1,2
128,128,19483,1,2
128,64,19682,1,2
256,96,20079,1,2
384,128,20477,1,10
448,160,20675,1,2
512,256,21073,1,2
512,320,21271,6,0,B|352:320|352:160,1,240,0|8
224,224,22464,1,2
224,160,22662,1,2
224,96,22861,2,0,B|64:96|64:256,1,240,0|8
64,288,23854,1,2
128,256,24053,1,2
192,288,24252,1,2
256,320,24450,2,0,B|416:320|416:160,1,240,0|8
256,64,25841,1,2
192,32,26040,1,2
64,96,26437,1,2
192,160,26834,1,10
256,128,27033,1,2
448,96,27629,5,4
224,352,30411,5,2
128,256,30808,2,0,B|32:160|160:96|217:87|224:96,1,240,2|8
352,96,32000,1,2
416,128,32199,1,2
480,160,32397,2,0,B|512:256|416:320|320:288,1,240,2|10
224,256,33589,1,2
96,288,33987,6,0,B|0:416|32:128,1,240,2|10
96,192,34980,1,2
160,160,35179,1,2
192,96,35377,1,2
256,128,35576,2,0,B|448:128|448:32|352:32,1,240,2|8
256,32,36768,2,0,B|0:0|32:256,1,360,2|8
32,352,38358,1,0
64,288,38556,1,0
129,298,38755,2,0,B|256:352|352:256,2,240,2|10|2
76,177,40742,5,2
93,119,40940,1,2
119,65,41139,2,0,B|157:31|198:17|229:11|251:9,1,120,10|2
288,14,41735,2,0,B|349:32|366:45|381:56|413:91,1,120,2|2
440,180,42530,1,2
431,245,42728,1,10
348,348,43126,2,0,B|256:392|210:362,1,120,2|0
127,317,43920,6,0,B|108:308|98:290|93:268,2,60,2|2|2
233,372,44715,1,2
293,368,44914,2,0,B|364:353|384:325|405:304|420:281|427:262|429:246|433:221|440:206|426:192|439:169|438:163|436:147|431:131|430:129,1,300,2|10
362,41,46305,1,2
434,136,46702,2,0,B|438:223|429:259|412:295|396:318|364:341|334:356,1,240,2|8
395,306,47695,1,2
351,347,47894,1,2
295,368,48093,2,0,B|222:374|193:362|169:351|149:339|131:322|115:305|103:287|89:261|80:229|77:202,1,300,2|10
128,192,49285,5,2
192,224,49483,1,2
128,256,49682,1,2
77,208,49881,2,0,B|74:147|95:94|94:76|139:54|164:36|188:25|213:14,1,240,2|8
104,92,51073,1,2
150,48,51271,1,2
203,19,51470,2,0,B|280:11|305:15|338:25|366:42|381:54,1,180,2|0
435,154,52265,2,0,B|439:228|428:265|404:307|375:334|323:366|291:371|256:376|217:369|190:363|160:346|131:325|115:305|104:286,1,480,2|4
0,320,65775,5,0
0,320,65874,1,0
0,320,65973,1,0
0,320,66073,1,0
0,320,66172,1,2
64,320,66371,1,0
64,320,66470,1,2
96,320,66569,5,0
96,320,66669,1,0
96,320,66768,1,0
96,320,66867,1,0
96,320,66967,1,2
160,320,67165,1,0
160,320,67265,1,2
192,320,67364,5,0
192,320,67464,1,0
192,320,67563,1,0
192,320,67662,1,0
192,320,67762,1,2
256,320,67960,1,0
320,320,68159,1,0
384,288,68358,1,2
448,288,68556,1,2
512,320,68755,1,0
512,288,68854,1,2
512,256,68954,5,0
512,256,69053,1,0
512,256,69152,1,0
512,256,69252,1,0
512,256,69351,1,2
448,256,69550,1,0
448,256,69649,1,2
416,256,69748,5,0
416,256,69848,1,0
416,256,69947,1,0
416,256,70046,1,0
416,256,70146,1,2
352,256,70344,1,0
352,256,70444,1,2
320,256,70543,5,0
320,256,70642,1,0
320,256,70742,1,0
320,256,70841,1,0
320,256,70940,1,2
256,256,71139,1,0
192,256,71338,1,0
128,224,71536,1,2
64,224,71735,1,2
0,256,71934,1,0
0,224,72033,1,2
0,192,72132,5,0
0,192,72232,1,0
0,192,72331,1,0
0,192,72430,1,0
0,192,72530,1,2
64,192,72728,1,0
64,192,72828,1,2
96,192,72927,5,0
96,192,73026,1,0
96,192,73126,1,0
96,192,73225,1,0
96,192,73324,1,2
160,192,73523,1,0
160,192,73622,1,2
192,192,73722,5,0
192,192,73821,1,0
192,192,73920,1,0
192,192,74020,1,0
192,192,74119,1,2
256,192,74318,1,0
320,192,74516,1,0
384,160,74715,1,2
448,160,74914,1,2
512,192,75113,1,0
512,160,75212,1,2
512,128,75311,6,0,B|128:128,1,360,0|2
32,128,76901,2,0,B|32:288|192:288,2,240
96,96,78689,5,0
128,128,78788,1,0
160,96,78887,1,0
224,96,79086,1,0
256,64,79185,1,0
329,49,79483,1,0
386,81,79682,1,0
444,111,79881,2,0,B|448:192,1,60
384,192,80278,5,0
352,224,80377,1,0
320,192,80477,1,0
256,192,80675,1,0
224,160,80775,1,0
128,160,81073,1,0
64,192,81271,1,0
0,224,81470,2,0,B|0:288,1,60
64,320,81867,5,0
96,352,81967,1,0
128,320,82066,1,0
192,352,82265,1,0
224,320,82364,1,0
297,272,82662,1,0
358,248,82861,1,0
416,218,83060,2,0,B|384:160,1,60
352,128,83457,5,0
320,160,83556,1,0
288,128,83656,1,0
224,128,83854,1,0
192,96,83954,1,0
96,96,84252,1,0
32,64,84450,1,0
96,32,84649,2,0,B|160:32,1,60
224,32,85046,5,0
256,64,85146,1,0
288,32,85245,1,0
352,32,85444,1,0
384,0,85543,2,0,B|416:0|448:32,1,60
451,53,85841,1,0
476,113,86040,1,0
498,174,86238,2,0,B|448:224,1,60
384,224,86636,5,0
352,256,86735,1,0
320,224,86834,1,0
256,224,87033,1,0
224,192,87132,2,0,B|192:192|160:224,1,60
128,192,87430,1,0
64,224,87629,1,0
0,256,87828,2,0,B|0:320,1,60
64,352,88225,5,0
96,384,88324,1,0
128,352,88424,1,0
192,384,88622,1,0
224,352,88722,2,0,B|256:320|288:320,1,60
320,320,89020,1,0
384,288,89218,1,0
448,256,89417,2,0,B|448:192,1,60
384,192,89814,6,0,B|384:160,11,30
384,162,91007,2,0,B|384:64|288:96,1,120
256,96,91404,5,0
192,96,91603,2,0,B|128:96,1,60
64,96,92000,2,0,B|0:96,1,60
0,128,92298,1,0
0,224,92596,1,0
0,352,92993,1,0
64,352,93192,2,0,B|128:352,1,60
192,352,93589,2,0,B|256:352,1,60
320,352,93987,2,0,B|448:320,1,120
512,288,94583,5,0
512,224,94781,2,0,B|512:160,1,60
512,96,95179,2,0,B|512:32,1,60
480,32,95477,2,0,B|384:32,1,90
256,32,96172,1,0
256,96,96371,2,0,B|256:160,1,60
256,224,96768,2,0,B|256:288,1,60
256,352,97165,2,0,B|128:384,1,120
96,320,97762,5,0
160,320,97960,2,0,B|224:320,1,60
288,320,98358,2,0,B|352:320,1,60
384,288,98656,1,0
480,224,98954,1,0
384,160,99351,1,0
320,160,99550,2,0,B|256:160,1,60
192,160,99947,2,0,B|128:160,1,60
64,160,100344,2,0,B|0:32,1,120
64,32,100940,5,0
128,32,101139,2,0,B|192:32,1,60
256,32,101536,2,0,B|320:32,1,60
352,64,101834,2,0,B|448:32,1,90
448,160,102530,1,0
448,224,102728,2,0,B|448:288,1,60
448,352,103126,2,0,B|384:323|320:352,1,120
192,352,103920,5,0
160,320,104020,1,0
128,352,104119,1,0
96,384,104218,1,0
64,352,104318,1,0
32,320,104417,1,0
64,288,104516,1,0
96,320,104616,1,0
128,288,104715,1,0
160,256,104814,1,0
192,224,104914,1,0
224,192,105013,1,0
256,160,105113,1,0
288,192,105212,1,0
320,224,105311,1,0
384,128,105709,5,0
416,64,105907,1,0
288,64,106305,1,0
224,64,106503,1,0
224,64,106603,1,0
128,64,106901,1,0
64,192,107298,1,0
128,160,107497,1,0
256,224,107894,1,0
352,288,108192,1,0
448,352,108490,5,0
416,384,108589,1,0
384,352,108689,1,0
352,320,108788,1,0
320,352,108887,1,0
288,384,108987,1,0
256,352,109086,1,0
224,320,109185,1,0
192,352,109285,1,0
160,384,109384,1,0
138,358,109483,1,0
105,364,109583,1,0
73,373,109682,1,0
32,384,109781,1,0
0,352,109881,1,0
32,320,109980,1,0
0,288,110079,1,0
64,160,110477,5,0
96,96,110675,1,0
224,96,111073,1,0
320,96,111371,1,0
416,160,111669,5,0
448,128,111768,1,0
480,96,111867,1,0
448,64,111967,1,0
416,96,112066,1,0
384,128,112165,1,0
352,96,112265,1,0
320,128,112364,1,0
288,160,112464,1,0
256,192,112563,1,0
224,160,112662,1,0
192,192,112762,1,0
160,224,112861,1,0
128,256,112960,1,0
96,224,113060,1,0
64,256,113159,1,0
32,288,113258,1,0
0,320,113358,1,0
32,352,113457,6,0,B|288:352,1,240
352,352,114450,1,0
416,320,114649,1,0
480,352,114848,1,0
512,288,115046,2,0,B|395:215,1,120
352,192,115642,1,0
224,128,116040,1,0
32,32,116636,1,4
