osu file format v5

[General]
AudioFilename: 07. Electronic Boutique - DIVINE SERVICE.mp3
AudioLeadIn: 0
PreviewTime: 58458
Countdown: 0
SampleSet: Soft
StackLeniency: 0.7
Mode: 0
LetterboxInBreaks: 1

[Editor]
Bookmarks: 39,139,30031,65403,78516,91231,103946
DistanceSpacing: 1
BeatDivisor: 2
GridSize: 32

[Metadata]
Title:Divine Service
Artist:Electronic Boutique
Creator:Sargon
Version:HD Style
Source:DJMax Portable 2
Tags:DJMax Divine Service Electronic Boutique

[Difficulty]
HPDrainRate:4
CircleSize:5
OverallDifficulty:4
SliderMultiplier:1.2
SliderTickRate:2

[Events]
//Background and Video events
0,0,"bg.png"
Video,0,"DIVINE SERVICE DJMAX PORTABLE BLACK SQUARE BGA HQ.flv"
//Break Periods
2,27847,29229
2,53285,64998
//Storyboard Layer 0 (Background)
//Storyboard Layer 1 (Fail)
//Storyboard Layer 2 (Pass)
//Storyboard Layer 3 (Foreground)
//Storyboard Sound Samples
//Background Colour Transformations
3,100,135,63,50

[TimingPoints]
-185,397.350993377483,4,2,0,100,1,0
78516,-100,4,1,0,100,0,1
91007,-100,4,1,0,100,0,1
91205,-100,4,1,0,100,0,1
103920,-100,4,1,0,100,0,0

[Colours]
Combo1 : 240,164,49
Combo2 : 96,40,6

[HitObjects]
64,288,2199,2,0,B|320:288,1,240,0|8
416,224,3391,1,2
448,160,3589,1,2
384,128,3788,2,0,B|128:128,1,240,0|8
32,160,4980,1,2
64,224,5179,1,2
128,256,5377,2,0,B|384:256,1,240,0|8
448,256,6371,1,2
480,192,6569,1,2
512,128,6768,1,2
448,96,6967,2,8,B|192:96,1,240,0|8
128,96,7960,1,2
96,160,8159,1,2
64,224,8358,1,2
32,288,8556,6,0,B|288:288,1,240,0|8
384,352,9748,1,2
416,288,9947,1,2
352,256,10146,2,0,B|96:256,1,240,0|8
64,288,11139,1,2
32,224,11338,1,2
0,288,11536,1,2
32,352,11735,2,0,B|288:352,1,240,0|8
480,352,13126,1,2
448,288,13324,1,2
384,160,13722,1,2
288,224,14119,1,10
224,256,14318,1,2
32,352,14914,6,0,B|32:96,1,240,0|8
160,128,16106,1,2
192,64,16305,1,2
256,96,16503,2,0,B|256:352,1,240,0|8
352,256,17695,1,2
384,320,17894,1,2
448,352,18093,2,0,B|448:96,1,240,0|8
384,160,19086,1,2
320,128,19285,1,2
256,96,19483,1,2
224,32,19682,1,2
128,96,20079,1,2
64,192,20477,1,10
32,256,20675,1,2
128,320,21073,1,2
192,352,21271,6,0,B|192:96,1,240,0|8
288,160,22464,1,2
320,96,22662,1,2
384,64,22861,2,0,B|384:320,1,240,0|8
320,352,23854,1,2
288,288,24053,1,2
224,320,24252,1,0
160,352,24450,2,0,B|160:96,1,240,0|8
64,160,25841,1,2
32,96,26040,1,2
128,32,26437,1,2
224,96,26834,1,10
192,160,27033,1,2
128,320,27629,5,4
128,320,30411,5,2
192,224,30808,2,0,B|320:0,1,240,2|8
416,32,32000,1,2
384,96,32199,1,2
320,128,32397,2,0,B|194:360,1,240,2|10
192,224,33589,1,2
96,288,33987,6,0,B|233:40,1,240,2|10
256,128,34980,1,2
320,96,35179,1,2
352,32,35377,1,2
416,64,35576,2,0,B|295:322,1,240,2|10
192,352,36768,2,0,B|345:20,1,360,2|8
224,32,38358,1,0
160,32,38556,1,0
128,96,38755,2,0,B|0:334,2,240,2|10|2
160,224,40742,5,2
192,160,40940,1,2
256,160,41139,1,10
384,160,41536,1,2
448,128,41735,1,2
512,224,42132,1,2
482,340,42530,1,2
416,320,42728,2,8,B|320:224|320:224|224:320,1,240,8|0
192,192,43920,5,2
160,128,44119,1,2
96,128,44318,1,10
0,192,44715,1,2
0,256,44914,2,0,B|288:352,1,300,2|10
416,384,46305,1,2
512,320,46702,6,0,B|271:236,1,240,2|8
224,288,47695,1,2
160,256,47894,1,2
224,224,48093,2,0,B|512:96,1,300,2|10
512,160,49285,1,2
480,224,49483,1,2
416,192,49682,1,2
352,160,49881,2,0,B|128:64,1,240,2|8
96,192,51073,1,2
160,160,51271,1,2
224,128,51470,2,0,B|480:32,2,240,2|10|2
64,96,65775,6,2,B|192:0|320:64,1,240
352,96,66768,1,2
416,64,66967,1,2
480,32,67165,1,2
480,96,67364,2,2,B|512:352|416:352|288:352,1,360,2|0
192,352,68954,6,2,B|32:384|32:160,1,240,2|0
96,96,70146,1,2
160,192,70543,2,2,B|206:248|288:256,1,120,2|0
384,256,71338,2,2,B|467:268|512:192,1,120,2|0
512,96,72132,6,2,B|477:38|352:32,1,120,2|0
384,160,72927,1,2
320,128,73126,1,2
256,96,73324,1,2
192,64,73523,2,2,B|65:49|32:288,1,300,2|0
96,384,74914,5,2
160,352,75113,1,2
224,320,75311,2,2,B|384:288|480:192|475:41,1,360,2|0
384,32,76901,2,0,B|128:32,2,240,0|2|0
416,96,78689,5,0
416,96,78788,1,0
416,96,78887,1,0
352,128,79086,1,0
352,128,79185,1,0
256,160,79483,2,0,B|192:160,3,60
128,192,80278,1,0
128,192,80377,1,0
128,192,80477,1,0
192,224,80675,1,0
192,224,80775,1,0
288,256,81073,2,0,B|352:256,3,60
416,288,81867,5,0
416,288,81967,1,0
416,288,82066,1,0
448,224,82265,1,0
448,224,82364,1,0
384,160,82662,2,0,B|384:96,3,60
320,64,83457,1,0
320,64,83556,1,0
320,64,83656,1,0
256,96,83854,1,0
256,96,83954,1,0
192,160,84252,2,0,B|192:224,3,60
256,256,85046,5,0
288,256,85146,1,0
320,256,85245,1,0
384,256,85444,1,0
416,256,85543,1,0
512,256,85841,2,0,B|512:320,2,60
512,192,86437,5,0
512,128,86636,1,0
512,96,86735,1,0
512,64,86834,1,0
448,32,87033,1,0
416,32,87132,1,0
320,32,87430,2,0,B|320:-32,2,60
320,96,88026,5,0
320,160,88225,1,0
320,192,88324,1,0
320,224,88424,1,0
320,288,88622,1,0
320,320,88722,1,0
224,320,89020,2,0,B|288:352,2,60
160,288,89616,5,0
102,272,89814,2,0,B|102:308,14,30
64,224,91404,5,0
64,160,91603,1,0
160,64,92000,1,0
256,64,92298,1,0
352,64,92596,1,0
352,192,92993,1,0
352,256,93192,2,0,B|334:338|256:320,3,120
192,320,94583,5,0
128,320,94781,1,0
32,256,95179,2,0,B|32:160,1,90,0|0
32,64,95775,1,0
160,64,96172,1,0
224,64,96371,2,0,B|223:139|320:160,3,120
352,160,97762,5,0
416,160,97960,1,0
480,256,98358,1,0
384,256,98656,1,0
288,256,98954,1,0
192,352,99351,1,0
128,352,99550,2,0,B|64:352|32:256,3,120
32,224,100940,5,0
32,160,101139,1,0
32,32,101536,2,0,B|128:32,1,90
224,32,102132,1,0
320,96,102530,1,0
366,133,102728,2,0,B|438:151|448:224,2,120
256,128,103920,6,0,B|192:128,1,60
196,128,104318,2,0,B|128:192,1,60
152,169,104715,2,0,B|192:224,1,60
187,217,105113,2,0,B|160:288,1,60
320,192,105907,1,0
352,320,106305,1,0
416,320,106503,1,0
416,320,106603,1,0
480,256,106901,1,0
480,64,107497,5,0
384,128,107894,1,0
320,192,108192,1,0
224,224,108490,2,0,B|160:224,1,60
164,224,108887,2,0,B|96:160,1,60
120,182,109285,2,0,B|64:128,1,60
76,140,109682,2,0,B|128:96,1,60
160,96,109980,1,0
192,96,110079,1,0
224,96,110179,1,0
384,96,110675,5,0
384,224,111073,1,0
384,320,111371,1,0
288,320,111669,2,0,B|224:256,1,60
245,277,112066,2,0,B|151:276,1,60
185,276,112464,2,0,B|140:328,1,60
145,321,112861,2,0,B|98:272,1,60
103,277,113258,2,0,B|160:224,1,60
256,192,113854,5,0
384,192,114252,1,0
384,128,114450,2,0,B|384:64,2,60
448,128,115046,2,0,B|448:320,1,180
320,320,116040,2,0,B|128:320,1,180,0|4
