osu file format v6

[General]
AudioFilename: Divine Service.mp3
AudioLeadIn: 0
PreviewTime: 78278
Countdown: 2
SampleSet: Soft
StackLeniency: 0.2
Mode: 0
LetterboxInBreaks: 1

[Editor]
DistanceSpacing: 0.800000011920929
BeatDivisor: 4
GridSize: 8

[Metadata]
Title:Divine Service
Artist:Electronic Boutique
Creator:MoonFragrance
Version:Normal
Source:DJMAX
Tags:DJMAX

[Difficulty]
HPDrainRate:5
CircleSize:4
OverallDifficulty:5
SliderMultiplier:1.4
SliderTickRate:1

[Events]
//Background and Video events
Video,299,"Umile_divine.avi"
0,0,"nmtittle.jpg"
//Break Periods
2,53214,58569
2,78645,83603
2,90962,96516
2,103678,109232
//Storyboard Layer 0 (Background)
//Storyboard Layer 1 (Fail)
//Storyboard Layer 2 (Pass)
//Storyboard Layer 3 (Foreground)
//Storyboard Sound Samples
//Background Colour Transformations
3,100,163,162,255

[TimingPoints]
2154,397.350993377483,3,2,0,100,1,0
78445,-100,3,1,0,100,0,0
84803,-100,3,1,0,100,0,1
116591,-100,3,2,0,100,0,0

[Colours]
Combo1 : 136,0,0
Combo2 : 164,115,2
Combo3 : 255,255,191
Combo4 : 94,94,94

[HitObjects]
56,136,3346,1,0
96,96,3544,1,2
456,248,4935,5,2
416,288,5134,1,0
80,304,6326,5,0
112,256,6524,1,0
160,224,6723,1,2
464,88,7915,5,2
432,136,8114,1,0
384,160,8312,1,0
40,344,9703,5,2
80,304,9902,1,2
448,184,11094,5,0
400,160,11293,1,0
352,184,11491,1,2
48,88,13081,5,0
88,48,13279,1,2
168,120,13677,1,2
264,176,14074,1,2
296,216,14273,1,0
440,304,14869,6,0,B|440:240|408:216,3,70,2|0|0|2
152,296,16458,6,0,B|152:240|184:208,3,70
384,56,18048,6,0,B|384:112|344:128,3,70,0|0|0|0
88,40,19637,6,0,B|40:88|96:120,1,70,0|0
120,136,20034,1,0
168,160,20233,2,0,B|224:128|272:160|272:224,1,140,0|2
384,312,21226,6,0,B|440:312|448:248,1,70,0|0
424,224,21624,1,0
384,184,21822,2,0,B|376:120|336:72|248:32,1,210,0|2
168,104,22816,6,0,B|120:120|112:176,1,70,0|0
96,200,23213,1,0
136,240,23412,2,0,B|224:280|280:168|264:104,1,210,0|2
368,176,24405,6,0,B|320:176|296:240,1,70,0|0
352,248,24803,2,0,B|416:248|424:192,1,70,0|0
344,136,25399,2,2,B|232:136|176:264,1,210
136,280,26193,5,0
88,256,26392,1,2
152,168,26789,1,2
152,168,26988,1,2
312,208,27584,6,4,B|384:248|432:128|344:80,1,210,4|0
232,80,28577,1,0
192,120,28776,1,0
152,80,28975,1,0
88,80,30763,5,2
424,56,31955,1,0
400,104,32153,1,0
352,136,32352,1,0
152,232,33147,5,2
224,144,33544,1,2
296,232,33942,1,2
424,48,34736,6,0,B|424:104|368:128,2,70,2|0|2
368,56,35332,2,0,B|328:64|328:120,1,70,2|0
144,240,36326,6,0,B|224:240|232:144,2,140,2|0|2
400,64,38710,6,2,B|256:176|416:328,1,280
56,312,40697,5,0
80,264,40895,1,0
120,232,41094,1,2
232,224,41491,1,0
272,184,41690,1,2
376,208,42087,1,2
376,320,42485,1,0
320,296,42683,1,2
232,224,43081,1,2
56,80,43875,6,0,B|96:120|144:64,2,70,2|0|2
136,160,44670,1,2
184,192,44869,1,0
432,72,45862,6,0,B|392:136|296:160,2,140,2|0|2
248,264,47650,6,0,B|312:264|328:216,1,70
344,192,48048,1,2
80,88,49041,6,0,B|64:200|232:216,1,210,0|2
264,184,49836,1,2
208,264,51028,5,0
256,296,51226,1,0
304,264,51425,1,2
360,48,52220,6,2,B|312:120|256:144|200:120|128:40,1,280,2|4
56,192,59769,5,0
128,104,60167,1,2
200,192,60564,1,0
240,152,60763,1,2
344,112,61160,6,0,B|408:56,2,70,2|0|2
344,224,61955,2,0,B|416:288,2,70,2|0|2
176,240,62948,5,2
176,128,63346,1,2
216,168,63544,1,0
256,128,63743,1,0
288,168,63942,1,2
368,248,64339,5,2
408,280,64538,1,0
432,176,64935,1,0
392,136,65134,1,2
224,136,65730,6,0,B|272:176,4,35,0|0|0|0|0
112,136,66524,2,0,B|72:176,4,35,0|0|0|0|0
112,248,67319,2,0,B|152:288,4,35,0|0|0|0|0
216,296,68114,1,0
264,264,68312,1,2
288,216,68511,1,2
352,120,68908,6,0,B|384:152,4,35,0|0|0|0|0
240,120,69703,2,0,B|208:152,4,35,0|0|0|0|0
312,208,70498,2,0,B|312:152,4,35,0|0|0|0|0
416,168,71293,1,0
376,128,71491,1,2
320,104,71690,1,2
208,104,72087,6,0,B|144:72|80:120|80:160,1,140,0|0
160,216,72882,2,0,B|264:224,1,140,0|0
400,160,73677,2,0,B|352:120|328:160,2,70,0|0|0
344,256,74471,1,0
296,224,74670,1,2
264,176,74869,1,2
176,104,75266,6,0,B|144:144|104:96,2,70,0|0|0
112,200,76061,2,0,B|144:168|184:208,2,70,0|0|0
112,312,76855,2,0,B|160:328|192:304,2,70
256,192,77650,12,4,78445
72,152,84803,5,0
112,112,85001,1,0
160,88,85200,1,8
240,56,85498,1,0
320,88,85796,1,0
368,112,85995,1,8
408,152,86193,1,0
408,208,86392,5,0
368,248,86591,1,0
320,280,86789,1,8
248,328,87087,1,0
176,280,87385,1,0
128,256,87584,1,8
88,216,87783,1,0
88,160,87981,6,0,B|88:96|152:96,2,70,0|0|8
168,192,88677,1,0
200,272,88975,2,0,B|256:272|280:240,2,70,0|8|0
312,256,89769,6,0,B|352:288,1,70,0|8
416,232,90266,1,0
368,160,90564,2,8,B|328:112|288:144,1,70
80,88,97716,5,2
128,56,97915,1,2
224,104,98312,2,2,B|288:160|312:160,2,105
328,64,99306,5,2
368,96,99504,1,2
304,192,99902,2,2,B|224:192|168:248,1,140
48,136,100895,6,2,B|120:72,1,70
208,56,101491,2,2,B|272:120|312:40,2,105
216,168,102485,6,2,B|216:272,1,70
304,168,103081,2,2,B|304:312,1,140
104,80,110432,5,12
104,80,110630,1,2
104,176,111028,1,6
176,176,111326,1,6
248,224,111624,5,0
288,184,111822,1,0
344,168,112021,1,0
400,184,112220,1,8
416,240,112418,1,0
400,296,112617,1,0
288,296,113014,1,8
240,328,113213,1,0
192,296,113412,5,4
432,128,114405,2,0,B|384:72,2,70
392,160,115001,1,4
224,160,115597,1,4
264,56,115995,1,4
256,192,116591,12,2,117683
256,192,118180,12,2,118975
256,216,119372,5,0
256,168,119571,1,2
