osu file format v6

[General]
AudioFilename: Divine Service.mp3
AudioLeadIn: 0
PreviewTime: 78278
Countdown: 2
SampleSet: Soft
StackLeniency: 0.2
Mode: 0
LetterboxInBreaks: 1

[Editor]
DistanceSpacing: 0.800000011920929
BeatDivisor: 4
GridSize: 8

[Metadata]
Title:Divine Service
Artist:Electronic Boutique
Creator:MoonFragrance
Version:Hard
Source:DJMAX
Tags:DJMAX

[Difficulty]
HPDrainRate:6
CircleSize:5
OverallDifficulty:7
SliderMultiplier:1.8
SliderTickRate:1

[Events]
//Background and Video events
Video,299,"Umile_divine.avi"
0,0,"hdtittle.jpg"
//Break Periods
2,53214,58869
2,78645,83903
2,90962,96816
//Storyboard Layer 0 (Background)
//Storyboard Layer 1 (Fail)
//Storyboard Layer 2 (Pass)
//Storyboard Layer 3 (Foreground)
//Storyboard Sound Samples
//Background Colour Transformations
3,100,163,162,255

[TimingPoints]
2154,397.350993377483,3,2,0,100,1,0
21159,-100,3,1,0,50,0,0
27502,-100,3,2,0,100,0,0
78445,-100,3,1,0,100,0,0
84803,-100,3,1,0,100,0,1
116193,-100,3,2,0,70,0,0

[Colours]
Combo1 : 136,0,0
Combo2 : 164,115,2
Combo3 : 255,255,191
Combo4 : 94,94,94

[HitObjects]
56,336,2153,1,0
96,280,2352,1,0
144,232,2551,1,0
200,192,2750,1,0
384,80,3346,5,2
440,32,3544,1,2
496,80,3743,5,0
464,144,3942,1,0
416,200,4140,1,0
352,232,4339,1,0
144,176,4935,5,2
96,232,5134,1,2
48,176,5332,5,0
96,128,5531,1,0
152,88,5730,1,0
216,64,5928,1,0
288,184,6326,5,2
352,152,6524,1,2
392,96,6723,1,2
344,40,6922,5,0
272,64,7120,1,0
224,120,7319,1,0
200,192,7518,1,0
344,192,7915,5,2
304,256,8114,1,2
240,288,8312,1,2
176,256,8511,5,0
120,208,8710,1,0
88,144,8908,1,0
120,80,9107,1,0
304,192,9703,5,2
352,144,9902,1,2
400,192,10101,5,0
432,256,10299,1,0
400,320,10498,1,0
368,256,10697,1,0
240,320,11094,5,2
192,264,11293,1,2
144,320,11491,1,2
80,352,11690,5,0
16,320,11889,1,0
80,288,12087,1,0
16,256,12286,1,0
80,128,12683,1,0
224,128,13081,5,2
272,80,13279,1,2
408,48,13677,1,2
408,192,14074,1,2
344,232,14273,1,2
128,224,14869,5,0
240,304,15266,1,0
312,304,15465,1,0
368,256,15663,1,8
496,304,16061,5,2
440,256,16259,1,2
384,208,16458,1,0
240,208,16855,5,0
168,208,17054,1,0
120,152,17253,1,8
32,32,17650,1,2
104,32,17849,1,2
176,32,18048,1,0
296,104,18445,5,0
296,176,18644,1,0
296,248,18842,1,8
224,248,19041,6,2,B|152:248|152:328,2,90
184,184,19637,1,2
40,184,20034,1,2
40,328,20432,1,10
96,368,20630,1,2
224,304,21028,1,2
296,304,21226,6,0,B|416:304|416:152,1,180
344,184,21822,1,0
336,112,22021,1,8
208,176,22418,2,0,B|208:296,1,90
208,336,22816,6,0,B|336:336|336:192,1,180
336,160,23412,1,0
272,120,23610,1,8
128,152,24008,2,0,B|128:264,1,90
128,312,24405,6,0,B|200:312|200:248,1,90
272,264,24803,2,0,B|336:264|336:336,1,90
384,264,25200,1,8
448,224,25399,1,0
448,152,25597,1,0
448,80,25796,1,0
384,112,25995,5,0
336,168,26193,2,0,B|336:232|256:232,2,90
264,184,26789,1,0
208,232,26988,1,8
64,232,27385,1,8
112,176,27584,5,2
176,144,27783,1,0
224,88,27981,1,2
200,16,28180,1,2
320,88,28577,1,0
368,144,28776,1,0
416,96,28975,1,2
128,88,29769,5,0
128,88,29869,1,2
128,88,29968,1,10
200,88,30167,1,2
256,136,30365,1,0
392,88,30763,6,2,B|392:160|312:160,3,90,2|0|2|0
288,192,31557,1,10
192,88,31955,1,0
144,144,32153,1,0
96,200,32352,1,0
56,256,32551,2,2,B|112:256|112:320,2,90,2|0|2
56,184,33147,2,2,B|56:128|120:128,1,90,8|0
152,184,33544,1,2
296,184,33942,5,2
344,232,34140,1,0
392,184,34339,1,2
440,232,34538,2,2,B|464:176|440:128,1,90,2|8
392,96,34935,1,2
344,40,35134,1,0
304,96,35332,1,2
264,40,35531,1,0
216,96,35730,2,2,B|168:96|168:32,3,90,0|2|0|10
24,32,36723,5,2
72,80,36922,1,10
120,128,37120,1,2
160,192,37319,1,0
200,128,37518,1,2
240,192,37716,1,0
272,128,37915,2,2,B|328:128|328:224,3,90,10|0|2|0
328,264,38710,5,2
280,320,38908,1,0
232,264,39107,1,0
184,320,39306,1,2
136,264,39504,2,2,B|80:264|80:184,3,90,10|0|0|2
96,136,40299,6,0,B|160:72|184:184|264:96,1,180
320,64,40895,1,0
400,64,41094,1,10
440,200,41491,1,0
368,192,41690,1,0
312,240,41889,2,2,B|312:296|240:296,4,90,0|2|2|0|8
168,232,43081,1,10
88,48,43875,5,2
152,80,44074,1,2
96,120,44273,2,0,B|128:216|192:80|256:216,1,180,8|2
312,168,44869,1,0
328,96,45067,2,0,B|464:136|376:248,1,180
328,256,45663,1,0
256,240,45862,1,8
112,232,46259,1,10
112,96,46657,5,2
160,144,46855,1,0
216,104,47054,1,0
264,160,47253,1,2
312,112,47452,1,10
312,112,47551,1,2
312,112,47650,1,0
360,168,47849,1,2
312,216,48048,6,2,B|240:216|240:288,4,90,2|0|0|2|0
384,216,49041,1,8
344,272,49240,1,0
296,320,49438,1,0
248,272,49637,1,8
200,320,49836,5,2
104,208,50233,1,2
192,96,50630,1,8
248,56,50829,1,2
384,104,51226,1,2
456,224,51624,1,0
408,280,51822,1,2
408,136,52220,6,2,B|352:208|248:248|144:200|80:112,1,360,10|4
72,184,59769,6,0,B|72:56|200:56,2,180,2|2|2
120,240,60763,1,0
248,192,61160,1,2
304,240,61359,1,0
360,192,61557,1,2
360,48,61955,1,2
304,96,62153,1,0
256,40,62352,1,2
176,240,62948,5,2
256,120,63346,1,2
304,176,63544,1,0
352,120,63743,1,2
400,176,63942,1,2
336,304,64339,5,2
392,352,64538,1,0
496,248,64935,1,0
448,192,65134,1,2
256,96,65730,5,0
200,144,65928,1,0
176,72,66127,1,0
80,184,66524,1,0
80,184,66624,1,0
80,184,66723,1,0
128,240,66922,1,0
56,248,67120,1,0
96,304,67319,5,0
152,344,67518,1,0
184,280,67716,1,0
312,336,68114,1,0
360,280,68312,1,2
288,272,68511,1,2
224,64,69107,5,2
224,64,69306,1,0
224,64,69504,1,0
224,64,69703,1,2
296,64,69902,1,2
296,64,70001,1,0
296,64,70101,1,0
344,112,70299,1,2
360,328,70895,5,0
232,256,71293,1,2
272,200,71491,1,0
128,200,71889,1,2
208,80,72286,5,0
208,80,72385,1,0
208,80,72485,1,2
344,112,72882,1,0
304,168,73081,1,0
304,168,73180,1,0
304,168,73279,1,2
232,296,73677,5,0
176,248,73875,1,0
176,248,73975,1,0
176,248,74074,1,2
320,248,74471,1,0
368,192,74670,1,2
416,248,74869,1,2
424,104,75266,5,0
352,104,75465,1,0
280,104,75663,1,2
184,208,76061,1,2
184,208,76160,1,0
184,208,76259,1,0
232,256,76458,1,2
368,208,76855,5,0
256,192,77650,12,4,78445
64,176,84803,5,0
112,120,85001,1,0
112,120,85101,1,0
112,120,85200,1,8
168,72,85399,1,0
200,56,85498,1,0
304,80,85796,1,0
360,128,85995,1,8
408,184,86193,1,0
360,240,86392,5,0
304,288,86591,1,0
304,288,86690,1,0
304,288,86789,1,8
240,320,86988,1,0
208,336,87087,1,0
112,288,87385,1,0
48,248,87584,1,8
8,184,87783,1,0
48,120,87981,5,0
104,72,88180,1,0
136,48,88279,1,0
168,32,88379,1,8
232,56,88577,1,0
232,56,88677,1,0
328,112,88975,1,0
384,160,89173,1,8
440,112,89372,1,0
488,160,89571,5,0
440,216,89769,1,0
416,240,89869,1,0
384,264,89968,1,8
320,296,90167,1,0
320,296,90266,1,0
320,296,90365,2,0,B|248:328|208:328,2,90,4|8|12
48,88,97716,5,2
112,48,97915,1,2
248,96,98312,2,2,B|208:152|272:168,1,90,2|0
264,166,98610,1,2
368,176,98908,1,2
392,320,99306,5,2
392,320,99504,1,2
272,232,99902,2,2,B|192:200|152:296,1,135,2|0
161,278,100299,1,2
64,80,100895,6,2,B|176:16,1,90
280,80,101491,2,2,B|352:144|424:64,2,135
384,176,102485,6,2,B|384:304,1,90
312,144,103081,2,6,B|312:344,1,180
256,192,103875,6,0,B|256:128,2,45,4|0|0
216,256,104273,1,8
152,296,104471,1,0
88,256,104670,2,0,B|88:304,2,45
104,184,105067,1,8
168,152,105266,1,0
288,72,105663,5,4
288,176,105862,1,8
104,288,106259,1,0
208,312,106458,1,0
232,288,106557,1,8
392,288,106855,1,8
368,144,107253,5,0
320,96,107452,1,8
184,136,107849,1,0
120,224,108147,1,8
216,280,108445,1,8
264,224,108644,2,0,B|376:224|376:104,3,180,0|8|0|8
160,80,110432,5,4
232,80,110630,1,14
448,80,111028,1,2
448,240,111326,1,14
288,224,111624,1,0
256,208,111723,1,0
224,192,111822,1,0
264,136,112021,1,0
216,80,112220,1,8
168,136,112418,1,0
120,192,112617,5,0
144,216,112716,1,0
168,240,112816,1,0
192,264,112915,1,0
216,288,113014,1,8
272,328,113213,1,0
328,288,113412,1,4
408,168,114405,5,0
352,120,114604,1,0
304,168,114803,1,0
248,120,115001,1,4
40,168,115597,1,4
40,312,115995,1,4
184,152,116591,5,2
208,176,116690,1,0
224,208,116789,1,0
288,176,116988,1,2
344,224,117187,1,0
400,176,117385,1,2
400,280,117683,1,0
216,280,118180,5,2
216,280,118279,1,0
216,280,118379,1,0
216,280,118478,1,2
216,280,118577,1,2
216,280,118677,1,0
216,280,118776,1,2
216,280,118875,1,0
216,280,118975,1,2
216,280,119074,1,2
216,280,119173,1,2
288,280,119372,5,0
288,208,119571,1,2
