osu file format v6

[General]
AudioFilename: Divine Service.mp3
AudioLeadIn: 0
PreviewTime: 78278
Countdown: 2
SampleSet: Normal
StackLeniency: 0.2
Mode: 0
LetterboxInBreaks: 1

[Editor]
DistanceSpacing: 0.800000011920929
BeatDivisor: 4
GridSize: 8

[Metadata]
Title:Divine Service
Artist:Electronic Boutique
Creator:MoonFragrance
Version:Easy
Source:DJMAX
Tags:DJMAX

[Difficulty]
HPDrainRate:3
CircleSize:3
OverallDifficulty:3
SliderMultiplier:1.2
SliderTickRate:1

[Events]
//Background and Video events
0,0,"eztittle.jpg"
Video,199,"Umile_divine.avi"
//Break Periods
2,27784,29323
2,53214,58329
2,78644,83363
2,90962,96276
2,103678,108992
2,116791,117932
//Storyboard Layer 0 (Background)
//Storyboard Layer 1 (Fail)
//Storyboard Layer 2 (Pass)
//Storyboard Layer 3 (Foreground)
//Storyboard Sound Samples
//Background Colour Transformations
3,100,163,162,255

[TimingPoints]
2154,397.350993377483,3,2,0,100,1,0
78445,-100,3,1,0,100,0,0
84803,-100,3,1,0,100,0,1
117790,-100,3,2,0,100,0,0

[Colours]
Combo1 : 136,0,0
Combo2 : 164,115,2
Combo3 : 255,255,191
Combo4 : 94,94,94

[HitObjects]
88,120,3346,1,0
120,88,3544,1,2
416,248,4935,5,2
384,280,5134,1,0
48,272,6524,5,2
80,240,6723,1,2
376,80,8114,5,2
336,112,8312,1,0
64,312,9703,5,0
104,280,9902,1,2
440,256,11293,5,2
408,288,11491,1,0
56,40,13279,5,2
128,104,13677,1,2
200,168,14074,1,2
200,168,14273,1,2
304,264,14869,6,0,B|384:248|424:192|424:120|392:56,1,240,0|8
208,80,16458,2,0,B|112:104|64:192|64:280,1,240,0|8
256,280,18048,6,0,B|384:280,2,120,0|0|8
256,88,19637,2,0,B|128:88,2,120,0|8|8
336,264,21226,6,0,B|416:248|472:160|424:88|328:184,1,240,0|8
160,168,22816,2,8,B|88:88|32:192|200:272,1,240,0|8
304,112,24405,6,0,B|304:256,2,120,0|0|8
216,280,25995,2,0,B|216:136,2,120,0|8|8
256,88,27584,5,4
88,56,30763,5,0
376,56,31955,2,0,B|376:200,1,120
184,176,33147,2,2,B|48:176,2,120,0|2|0
376,176,34736,5,0
304,240,35134,2,0,B|248:184|192:240,1,120
96,72,36326,5,2
96,168,36723,1,2
96,264,37120,1,2
432,88,38710,6,0,B|304:152|176:80,1,240
80,176,40697,5,2
152,112,41094,1,10
280,176,41690,2,2,B|352:136|416:192,1,120,2|0
392,320,42683,2,2,B|336:352|272:312,1,120,2|8
96,248,43875,6,2,B|56:192|104:128,1,120
176,192,44670,2,2,B|248:192,1,60
472,192,45862,6,2,B|472:56,2,120
232,192,47650,6,2,B|144:192|144:104,1,120
376,192,49041,5,0
296,248,49438,1,0
216,192,49836,1,0
256,280,51425,6,2,B|328:256|376:192|304:80|248:176|248:176|184:88|120:192|152:248|256:288,1,480,0|4
48,144,59769,5,2
120,88,60167,1,0
200,144,60564,1,2
200,144,60763,1,0
296,144,61160,6,0,B|360:88,2,60,0|2|0
296,240,61955,2,0,B|360:304,2,60,2|0|2
152,240,62948,5,2
152,144,63346,1,2
248,144,63743,2,0,B|248:216,1,60,2|0
248,296,64339,2,0,B|328:296,1,60,0|2
312,200,64935,2,0,B|312:112,1,60,0|2
80,192,66127,5,0
256,256,66922,1,0
440,192,67716,1,0
336,88,68312,2,0,B|288:88|272:120,1,60
224,152,68809,1,0
112,200,69306,5,0
296,264,70101,1,0
320,72,70895,1,0
184,120,71491,2,0,B|136:120|136:176,1,60
136,224,71988,1,0
232,296,72485,5,0
400,200,73279,1,0
264,56,74074,1,0
152,144,74670,2,0,B|112:168|136:208,1,60
168,256,75167,1,0
288,256,75663,5,0
384,256,76061,1,0
384,160,76458,1,0
288,160,76855,1,0
96,160,77650,6,0,B|56:216|104:272,2,120,2|2|4
112,128,84803,5,0
208,128,85200,1,8
304,128,85597,1,0
400,128,85995,1,8
400,224,86392,5,0
304,224,86789,1,8
208,224,87187,1,0
112,224,87584,1,8
112,320,87981,5,0
208,320,88379,1,8
304,320,88776,1,0
400,320,89173,1,8
400,224,89571,5,0
400,128,89968,1,8
304,128,90365,1,0
256,128,90564,2,0,B|256:48,1,60,8|0
80,88,97716,5,2
80,88,97915,1,2
152,152,98312,2,2,B|240:232,1,90,2|2
272,256,98908,1,2
360,296,99306,5,2
360,296,99504,1,2
360,200,99902,2,2,B|440:200|440:128,1,120
304,72,100895,5,2
304,72,101094,1,2
208,72,101491,2,2,B|208:144|136:144,2,90
312,152,102485,5,2
312,152,102683,1,2
216,152,103081,2,2,B|216:288,1,120
104,80,110432,5,12
104,80,110630,1,2
104,176,111028,1,6
176,176,111326,1,6
248,80,111822,6,0,B|384:80,4,120,4|8|4|8|4
376,192,115001,5,4
256,112,115597,1,4
168,64,115995,1,0
256,176,116591,5,4
256,216,119372,5,0
256,168,119571,1,2
