osu file format v5

[General]
AudioFilename: DIVINE SERVICE.mp3
AudioLeadIn: 0
PreviewTime: -1
Countdown: 1
SampleSet: Soft
StackLeniency: 0.7
Mode: 0
LetterboxInBreaks: 1
EditorDistanceSpacing: 0.800000011920929

[Metadata]
Title:Divine Service
Artist:Electronic Boutique
Creator:DEVIL426
Version:Normal
Source:djmax
Tags:djmax

[Difficulty]
HPDrainRate:5
CircleSize:5
OverallDifficulty:5
SliderMultiplier:1
SliderTickRate:1

[Events]
//Background and Video events
1,0,"divine service.flv"
0,0,"normal.JPG"
//Break Periods
2,27258,29235
//Storyboard Layer 0 (Background)
//Storyboard Layer 1 (Failing)
//Storyboard Layer 2 (Passing)
//Storyboard Layer 3 (Foreground)
//Storyboard Sound Samples
//Background Colour Transformations
3,100,163,162,255

[TimingPoints]
-94,397.350993377483,4,2,0,100,1,0

[Colours]
Combo1 : 255,255,128
Combo2 : 128,0,0
Combo3 : 255,255,255
Combo4 : 0,0,0

[HitObjects]
96,96,3415,1,0
128,128,3614,1,0
416,128,5005,1,0
384,96,5204,1,0
256,352,6594,1,0
224,320,6793,1,0
96,96,8117,1,0
160,96,8382,1,0
384,256,9773,5,0
384,256,9972,1,0
96,256,11362,1,0
96,256,11561,1,0
96,96,13151,1,0
160,96,13415,1,0
192,160,13813,1,0
256,192,14210,1,0
288,160,14409,1,0
416,96,16197,5,0
416,128,16396,1,0
160,128,17720,1,0
160,96,17919,1,0
160,128,19773,1,0
96,160,20104,1,0
64,256,20568,1,0
96,288,20766,1,0
160,320,21098,1,0
160,96,22422,5,0
192,64,22687,1,0
256,288,23945,1,0
256,256,24144,1,0
256,224,24343,1,0
160,192,25932,1,0
192,160,26131,1,0
256,96,26528,1,0
320,160,26925,1,0
352,192,27124,1,0
128,224,30435,5,0
96,160,30833,1,0
128,96,32025,1,0
192,96,32290,1,0
160,128,32488,1,0
288,192,33283,1,0
320,256,33680,1,0
384,288,34078,1,0
448,128,34872,1,0
416,96,35071,1,0
384,128,35270,1,0
352,96,35468,1,0
160,96,36462,1,0
96,64,36859,1,0
96,128,37256,1,0
128,192,38846,2,0,C|160:224|192:192|224:160|288:192,1,200
256,128,40766,5,0
288,128,40965,1,0
320,128,41164,1,0
352,224,41561,1,0
352,256,41826,1,0
352,192,42157,1,0
288,128,42555,1,0
256,128,42753,1,0
256,192,43151,1,0
96,192,43945,5,0
64,224,44144,1,0
32,256,44343,1,0
96,320,44740,1,0
128,288,44939,1,0
224,96,45998,5,0
288,160,46396,1,0
352,224,46793,1,0
160,288,47720,1,0
192,256,47919,1,0
224,224,48117,1,0
352,96,49111,1,0
320,64,49309,1,0
224,64,49773,1,0
192,96,49972,1,0
192,320,51098,1,0
224,288,51362,1,0
256,320,51561,1,0
256,160,52356,6,4,C|160:160|96:256,1,200
96,96,53945,1,0
128,64,54144,1,0
160,32,54343,1,0
192,64,54541,1,0
128,320,55866,1,0
160,288,56064,1,0
224,256,56329,1,0
352,288,56925,1,0
384,224,57124,1,0
352,160,57455,1,0
288,128,57720,1,0
288,128,57919,1,0
192,224,58515,2,0,C|224:256|256:224,1,83.3333333333333
64,96,59905,5,0
128,32,60303,1,0
192,96,60700,1,0
160,64,60899,1,0
128,128,61296,1,0
96,96,61495,1,0
64,64,61694,1,0
128,64,62091,1,0
160,96,62290,1,0
192,128,62488,1,0
416,128,63084,5,0
352,96,63482,1,0
352,128,63680,1,0
352,160,63879,1,0
352,192,64078,1,0
160,160,65071,1,0
160,224,65468,1,0
160,288,65866,5,0
288,320,66594,1,0
320,288,66793,1,0
352,256,66992,1,0
384,224,67190,2,0,C|320:96|224:224|128:96,1,466.666666666667
384,64,70237,1,0
448,128,70634,1,0
448,288,71429,1,0
96,96,72223,5,0
96,256,73018,1,0
96,224,73217,1,0
96,192,73415,1,0
96,160,73614,2,0,C|160:160|160:256|256:256,1,250
320,256,74939,5,0
288,288,75137,1,0
256,288,75336,2,0,C|128:192|256:96,1,316.666666666667
256,192,76992,1,0
416,192,77786,1,0
416,32,78515,5,4
320,32,78912,1,4
224,32,79309,1,0
128,32,79707,1,4
64,96,80104,1,0
64,160,80502,1,4
64,224,80899,1,0
64,288,81296,1,4
64,352,81694,5,0
64,352,82091,1,4
160,352,82488,1,0
160,352,82886,1,4
160,256,83283,1,0
160,256,83680,1,4
256,256,84078,1,0
256,256,84475,1,4
320,320,84872,6,4,C|352:224,1,100,0|0
416,192,85667,2,4,C|320:128,1,100
256,160,86462,2,4,C|288:64,1,100
192,64,87256,2,4,C|96:0,1,100
96,96,88051,6,4,C|64:96|32:160,1,100
96,224,88846,2,4,C|128:224|160:160,1,100
224,224,89641,2,4,C|224:192|288:160,1,100
352,224,90435,2,4,C|352:256|288:288,1,100
384,256,91429,5,0
384,256,91627,1,0
320,288,92025,1,0
256,256,92356,1,0
256,192,92621,1,0
256,96,93084,1,0
256,96,93283,1,0
192,64,93680,1,0
128,96,94078,1,0
128,224,94674,5,0
128,224,94872,1,0
192,256,95204,1,0
256,224,95468,1,0
256,160,95800,1,0
256,64,96263,1,0
256,64,96462,1,0
320,32,96793,1,0
384,64,97190,1,4
320,160,97786,6,0,C|384:192,1,66.6666666666667
416,256,98382,1,0
352,288,98713,1,0
288,256,99045,1,0
256,192,99442,2,0,C|192:160,1,66.6666666666667
256,128,99972,1,0
256,192,100369,1,0
192,160,100965,6,0,C|128:192,1,66.6666666666667
96,256,101561,1,0
160,288,101892,1,0
224,256,102157,1,0
256,192,102555,2,0,C|320:160,1,66.6666666666667
256,128,103151,1,0
256,192,103548,1,4
128,160,104210,5,0
160,160,104409,1,0
192,96,104740,1,0
256,128,105071,1,0
288,128,105270,1,0
320,160,105468,1,0
384,192,105800,5,0
352,192,105998,1,0
288,128,106329,1,0
224,160,106594,1,0
192,160,106793,1,0
160,192,106992,1,0
96,256,107389,5,0
128,224,107588,1,0
192,192,107919,1,0
224,224,108184,1,0
256,224,108382,1,0
288,256,108581,1,0
352,320,108978,5,0
320,320,109177,1,0
256,256,109508,1,0
224,288,109773,1,0
192,288,109972,1,0
160,320,110170,1,0
96,256,110568,5,0
96,256,110766,1,0
96,192,111098,1,0
96,128,111362,1,0
64,160,111561,1,0
32,128,111760,1,0
192,192,112091,5,0
192,192,112290,1,0
192,128,112621,1,0
192,64,112886,1,0
224,96,113084,1,0
256,128,113283,1,0
288,96,113747,5,0
320,128,113945,1,0
352,160,114210,1,0
352,224,114541,1,0
320,256,114740,1,0
288,288,114939,1,0
224,288,115336,5,0
192,256,115535,1,0
160,224,115800,1,0
160,160,116131,1,0
192,128,116329,1,0
224,96,116528,1,0
256,192,116660,5,4
