osu file format v12

[General]
AudioFilename: YEAH.mp3
AudioLeadIn: 1787
PreviewTime: -1
Countdown: 0
SampleSet: Normal
StackLeniency: 0.7
Mode: 0
LetterboxInBreaks: 1

[Editor]
DistanceSpacing: 1.1
BeatDivisor: 4
GridSize: 8

[Metadata]
Title:Terminate
TitleUnicode:Terminate
Artist:Electric Soulside, MikeWave
ArtistUnicode:Electric Soulside, MikeWave
Creator:[Zapper]
Version:Insane
Source:
Tags:
BeatmapID:262504
BeatmapSetID:98425

[Difficulty]
HPDrainRate:7
CircleSize:4
OverallDifficulty:7
ApproachRate:8
SliderMultiplier:1.8
SliderTickRate:1

[Events]
//Background and Video events
//Break Periods
//Storyboard Layer 0 (Background)
//Storyboard Layer 1 (Fail)
//Storyboard Layer 2 (Pass)
//Storyboard Layer 3 (Foreground)
//Storyboard Sound Samples
//Background Colour Transformations
3,100,163,162,255

[TimingPoints]
0.456337291699526,468.75,4,1,0,20,1,0
937,-100,4,1,0,30,0,0
1875,-100,4,1,0,40,0,0
2812,-100,4,1,0,50,0,0
3281,-100,4,1,0,65,0,0
3750,-200,4,1,0,45,0,0
11250,-133.333333333333,4,1,0,75,0,0
18750,-117.647058823529,4,1,0,75,0,0
26250,-100,4,1,0,75,0,0
33750,-200,4,1,0,75,0,0
34687,-142.857142857143,4,1,0,75,0,0
35625,-111.111111111111,4,1,0,75,0,0
36562,-90.9090909090909,4,1,0,75,0,0
37500,-74.0740740740741,4,1,0,75,0,0
37969,-66.6666666666667,4,1,0,75,0,0
38437,-62.5,4,1,0,75,0,0
39375,-58.8235294117647,4,1,0,75,0,0
39609,-57.1428571428571,4,1,0,75,0,0
39844,-54.054054054054,4,1,0,75,0,0
40078,-52.6315789473684,4,1,0,75,0,0
40312,-200,4,1,0,40,0,0
41250,-50,4,1,0,90,0,1
46875,-62.5,4,1,0,80,0,0
48750,-50,4,1,0,90,0,1
54398,333.333333333333,3,1,0,20,1,0
56231,468.75,4,1,0,20,1,0

[Colours]
Combo1 : 255,0,0
Combo2 : 255,128,0
Combo3 : 0,255,0
Combo4 : 0,128,255

[HitObjects]
184,192,469,2,0,P|256:176|288:144,1,90,2|0,0:0|0:0,0:0:0:0:
288,176,820,2,0,P|336:176|368:184,1,45
384,288,1172,2,0,P|344:312|296:320,2,90,0|2|0,0:0|0:0|0:0,0:0:0:0:
424,184,1875,6,0,P|424:128|360:80,1,135
360,96,2344,2,0,P|312:72|296:40,1,90,2|0,0:0|0:0,0:0:0:0:
216,80,2812,1,0,0:0:0:0:
224,168,3047,1,0,0:0:0:0:
216,80,3281,1,2,0:0:0:0:
144,136,3516,1,2,0:0:0:0:
152,224,3750,6,0,P|208:264|336:272,1,180,4|0,0:0|0:0,0:0:0:0:
352,240,4922,1,0,0:0:0:0:
312,192,5156,2,0,P|288:160|288:112,1,90,8|0,0:0|0:0,0:0:0:0:
416,168,6094,22,0,B|384:128|384:128|376:72,1,90
320,72,6797,1,0,0:0:0:0:
256,88,7031,2,0,L|232:128,1,45,8|8,0:0|0:0,0:0:0:0:
184,160,7500,6,0,P|200:224|224:232,1,90
304,272,8320,1,0,0:0:0:0:
312,264,8437,2,0,P|328:224|344:208,1,45
336,160,8906,2,0,P|296:144|280:144,1,45,8|0,0:0|0:0,0:0:0:0:
240,112,9375,5,0,0:0:0:0:
152,168,9844,1,0,0:0:0:0:
248,208,10312,2,0,P|256:248|248:272,1,67.5
232,280,10781,2,0,L|200:272,2,22.5
296,272,11250,22,0,P|344:248|352:200,2,101.250003862381,4|0|0,0:0|0:0|0:0,0:0:0:0:
248,208,12187,2,0,P|248:136|208:80,1,135.000005149842,8|0,0:0|0:0,0:0:0:0:
144,120,12891,1,2,0:0:0:0:
112,200,13125,6,0,P|136:232|136:272,1,67.5000025749208
152,264,13477,1,0,0:0:0:0:
168,264,13594,1,0,0:0:0:0:
240,296,13828,1,0,0:0:0:0:
312,256,14062,2,0,P|304:208|352:176,2,101.250003862381,8|0|8,0:0|0:0|0:0,0:0:0:0:
392,272,15000,6,0,P|408:224|400:160,1,101.250003862381
416,160,15469,2,0,P|408:112|392:88,1,67.5000025749208
320,88,15937,1,8,0:0:0:0:
272,152,16172,2,0,P|256:160|248:176,1,33.7500012874604
240,184,16406,2,0,P|208:168|152:184,1,67.5000025749208,8|0,0:0|0:0,0:0:0:0:
112,216,16875,22,0,P|128:256|184:280,2,101.250003862381,2|0|0,0:0|0:0|0:0,0:0:0:0:
72,144,17812,2,0,P|88:88|128:56,1,101.250003862381,2|0,0:0|0:0,0:0:0:0:
136,64,18281,1,2,0:0:0:0:
216,88,18516,1,2,0:0:0:0:
272,152,18750,6,0,P|280:200|208:288,1,153.000002918243,4|8,0:0|0:0,0:0:0:0:
144,264,19453,1,2,0:0:0:0:
200,200,19687,2,0,P|144:176|112:128,1,114.750002188683,2|0,0:0|0:0,0:0:0:0:
104,120,20156,2,0,P|136:80|176:72,1,76.5000014591217,8|0,0:0|0:0,0:0:0:0:
240,88,20625,5,2,0:0:0:0:
328,152,20977,1,0,0:0:0:0:
328,152,21094,1,8,0:0:0:0:
288,232,21328,2,0,P|288:272|312:328,1,76.5000014591217,2|8,0:0|0:0,0:0:0:0:
192,288,21914,1,8,0:0:0:0:
128,200,22266,1,8,0:0:0:0:
192,136,22500,22,0,P|232:112|240:72,1,76.5000014591217,2|0,0:0|0:0,0:0:0:0:
256,80,22852,1,0,0:0:0:0:
272,72,22969,1,8,0:0:0:0:
344,120,23203,1,2,0:0:0:0:
296,192,23437,2,0,P|296:240|360:256,2,114.750002188683,2|0|0,0:0|0:0|0:0,0:0:0:0:
216,224,24375,6,0,L|168:288,1,76.5000014591217,2|0,0:0|0:0,0:0:0:0:
128,216,24844,2,0,L|56:160,1,76.5000014591217,8|0,0:0|0:0,0:0:0:0:
136,120,25312,2,0,P|168:72|232:56,1,114.750002188683,2|0,0:0|0:0,0:0:0:0:
240,64,25781,1,2,0:0:0:0:
248,80,25898,1,0,0:0:0:0:
240,96,26016,1,2,0:0:0:0:
320,144,26250,5,4,0:0:0:0:
288,240,26602,1,0,0:0:0:0:
272,248,26719,2,0,P|192:248|168:224,1,90,8|0,0:0|0:0,0:0:0:0:
152,168,27187,2,0,P|176:120|160:72,1,90
72,88,27656,2,0,L|88:144,1,45,8|0,0:0|0:0,0:0:0:0:
64,152,27891,2,0,L|80:208,1,45,0|8,0:0|0:0,0:0:0:0:
64,232,28125,22,0,P|72:288|144:288,1,135
139,291,28594,1,8,0:0:0:0:
224,248,28828,1,0,0:0:0:0:
288,312,29062,2,0,P|352:288|384:232,2,135,0|2|0,0:0|0:0|0:0,0:0:0:0:
304,224,30000,6,0,P|304:168|256:144,1,90
280,148,30352,1,0,0:0:0:0:
280,148,30469,2,0,P|248:80|256:64,1,90,8|2,0:0|0:0,0:0:0:0:
336,80,30937,2,0,P|376:104|384:144,1,90,0|0,0:0|0:0,0:0:0:0:
408,224,31406,1,8,0:0:0:0:
400,240,31523,1,0,0:0:0:0:
408,256,31641,1,0,0:0:0:0:
400,272,31758,1,8,0:0:0:0:
408,288,31875,6,0,L|288:288,1,90
304,248,32227,1,0,0:0:0:0:
288,288,32344,2,0,L|176:288,1,90,2|0,0:0|0:0,0:0:0:0:
136,224,32812,1,8,0:0:0:0:
80,56,33164,1,8,0:0:0:0:
272,104,33516,1,8,0:0:0:0:
360,144,33750,22,0,P|376:184|368:232,1,90,2|8,0:0|0:0,0:0:0:0:
280,240,34453,1,0,0:0:0:0:
232,320,34687,2,0,P|192:296|176:208,1,125.999996154785,2|8,0:0|0:0,0:0:0:0:
112,160,35391,1,0,0:0:0:0:
144,72,35625,2,0,P|216:88|264:176,1,161.999995056153,2|8,0:0|0:0,0:0:0:0:
344,208,36328,1,0,0:0:0:0:
272,272,36562,2,0,P|216:240|96:304,1,198.000006042481,2|8,0:0|0:0,0:0:0:0:
64,216,37266,1,0,0:0:0:0:
96,120,37500,6,0,P|176:104|224:120,1,121.500000463486,2|8,0:0|0:0,0:0:0:0:
264,208,37969,2,0,P|336:176|360:128,1,135.000005149842,2|8,0:0|0:0,0:0:0:0:
440,192,38437,2,0,P|432:264|384:304,2,96,2|8|8,0:0|0:0|0:0,0:0:0:0:
424,80,38906,2,0,P|368:56|312:64,2,96,2|8|8,0:0|0:0|0:0,0:0:0:0:
352,160,39375,6,0,L|336:240,1,76.5000014591217,2|8,0:0|0:0,0:0:0:0:
288,256,39609,2,0,L|256:144,1,78.7500007510185,2|8,0:0|0:0,0:0:0:0:
200,144,39844,2,0,L|168:232,1,83.2499996824265,2|8,0:0|0:0,0:0:0:0:
72,232,40078,2,0,L|32:120,1,85.4999977169037,2|8,0:0|0:0,0:0:0:0:
96,72,40312,6,0,P|168:56|288:72,1,180,14|4,0:0|0:0,0:0:0:0:
424,224,41719,6,0,P|368:296|272:288,1,180,8|0,0:0|0:0,0:0:0:0:
264,256,42070,1,0,0:0:0:0:
216,240,42187,2,0,P|128:280|64:240,1,180
104,144,42656,1,8,0:0:0:0:
136,120,42773,1,0,0:0:0:0:
184,120,42891,1,8,0:0:0:0:
312,144,43125,38,0,P|360:192|304:304,1,180
240,328,43594,1,8,0:0:0:0:
200,304,43711,1,0,0:0:0:0:
160,328,43828,1,0,0:0:0:0:
128,304,43945,1,8,0:0:0:0:
88,328,44062,2,0,P|56:240|64:224,2,90,0|8|0,0:0|0:0|0:0,0:0:0:0:
53,251,44531,2,0,P|144:176|224:176,1,180,8|0,0:0|0:0,0:0:0:0:
320,224,45000,6,0,P|416:200|328:88,1,270
312,96,45469,1,8,0:0:0:0:
184,168,45703,1,0,0:0:0:0:
152,136,45820,1,8,0:0:0:0:
136,96,45937,1,0,0:0:0:0:
56,208,46172,2,0,P|112:288|200:304,2,180,0|8|0,0:0|0:0|0:0,0:0:0:0:
184,168,46875,22,0,P|248:232|328:152,1,216
312,144,47344,2,0,P|383:132|447:180,1,144,8|2,0:0|0:0,0:0:0:0:
384,264,47812,1,0,0:0:0:0:
352,272,47930,1,8,0:0:0:0:
320,272,48047,1,0,0:0:0:0:
200,304,48281,2,0,P|120:328|96:312,1,72,2|0,0:0|0:0,0:0:0:0:
112,312,48516,2,0,P|96:248|112:224,1,72,2|0,0:0|0:0,0:0:0:0:
120,208,48750,6,0,P|176:136|368:112,1,270,4|0,0:0|0:0,0:0:0:0:
368,144,49219,1,0,0:0:0:0:
