osu file format v12

[General]
AudioFilename: Gay Bar.mp3
AudioLeadIn: 0
PreviewTime: 11675
Countdown: 0
SampleSet: Normal
StackLeniency: 0.7
Mode: 2
LetterboxInBreaks: 0
WidescreenStoryboard: 0

[Editor]
DistanceSpacing: 1
BeatDivisor: 6
GridSize: 16
TimelineZoom: 2.899999

[Metadata]
Title:Gay Bar
TitleUnicode:Gay Bar
Artist:Electric Six
ArtistUnicode:Electric Six
Creator:Deif
Version:Rainbow
Source:
Tags:Fire Tyler Spencer Dick Valentine OnosakiHito
BeatmapID:327013
BeatmapSetID:129402

[Difficulty]
HPDrainRate:7
CircleSize:4
OverallDifficulty:9
ApproachRate:9
SliderMultiplier:2.5
SliderTickRate:2

[Events]
//Background and Video events
0,0,"BG.jpg",0,0
//Break Periods
//Storyboard Layer 0 (Background)
//Storyboard Layer 1 (Fail)
//Storyboard Layer 2 (Pass)
//Storyboard Layer 3 (Foreground)
//Storyboard Sound Samples
//Background Colour Transformations
3,100,163,162,255

[TimingPoints]
522,348.918353105373,4,1,2,60,1,0
20061,-100,4,3,1,70,0,0
22852,-100,4,1,2,60,0,0
31226,-100,4,3,1,70,0,0
34018,-100,4,1,2,60,0,0
45183,-100,4,1,0,75,0,1
55127,-100,4,3,0,75,0,1
55476,-100,4,3,0,70,0,1
55825,-100,4,3,0,65,0,1
56174,-100,4,3,0,60,0,1
56348,-100,4,1,2,60,0,0
64722,-100,4,3,1,70,0,0
67514,-100,4,1,0,70,0,0
67601,-100,4,1,0,35,0,0
68037,-100,4,1,0,70,0,0
68124,-100,4,1,0,35,0,0
68561,-100,4,1,0,70,0,0
68648,-100,4,1,0,35,0,0
69084,-100,4,1,0,70,0,0
69171,-100,4,1,0,35,0,0
69607,-100,4,1,0,70,0,0
69695,-100,4,1,0,35,0,0
69956,-100,4,1,0,70,0,0
70043,-100,4,1,0,35,0,0
70218,-100,4,2,0,50,0,0
71614,-100,4,2,0,40,0,0
73009,-100,4,2,0,30,0,0
74405,-100,4,2,0,20,0,0
75452,-100,4,2,0,10,0,0
75888,-100,4,1,0,30,0,0
81471,-100,4,3,1,40,0,0
84262,-100,4,1,0,50,0,0
85658,-100,4,1,2,60,0,0
86355,-100,4,3,1,60,0,0
87053,-100,4,1,2,60,0,0
95427,-100,4,3,1,70,0,0
98219,-100,4,1,0,70,0,0
98306,-100,4,1,0,35,0,0
98742,-100,4,1,0,70,0,0
98829,-100,4,1,0,35,0,0
99265,-100,4,1,0,70,0,0
99353,-100,4,1,0,35,0,0
99789,-100,4,1,0,70,0,0
99876,-100,4,1,0,35,0,0
100312,-100,4,1,0,70,0,0
100399,-100,4,1,0,35,0,0
100661,-100,4,1,0,70,0,0
100748,-100,4,1,0,35,0,0
101010,-100,4,1,0,50,0,0
112175,-100,4,1,0,75,0,1
123166,-100,4,1,0,75,0,0
123341,-100,4,1,0,75,0,1
134506,-100,4,1,0,60,0,0
137297,-100,4,1,0,40,0,0

[Colours]
Combo1 : 117,7,135
Combo2 : 228,3,3
Combo3 : 255,140,0
Combo4 : 255,237,0
Combo5 : 0,128,38
Combo6 : 0,77,255

[HitObjects]
64,192,11687,6,0,L|176:128,1,125,12|0,0:0|0:0,0:0:0:0:
288,96,12036,2,0,L|352:208,1,125,8|0,0:0|0:0,0:0:0:0:
224,208,12385,1,8,0:0:0:0:
336,208,12559,1,0,0:0:0:0:
240,208,12734,1,8,0:0:0:0:
320,208,12908,1,0,0:0:0:0:
256,208,13083,5,8,0:0:0:0:
128,192,13257,2,0,L|64:80,1,125,0|8,0:0|0:0,0:0:0:0:
256,32,13606,2,0,L|256:160,1,125,0|8,0:0|0:0,0:0:0:0:
447,84,13955,2,0,L|384:192,2,125,0|8|0,0:0|0:0|0:0,0:0:0:0:
96,192,14478,5,10,0:0:0:0:
256,192,14653,1,0,0:0:0:0:
416,192,14827,2,0,L|448:320,1,125,10|0,0:0|0:0,0:0:0:0:
288,320,15176,1,8,0:0:0:0:
144,320,15351,1,0,0:0:0:0:
272,320,15525,1,8,0:0:0:0:
160,320,15699,1,0,0:0:0:0:
256,320,15874,5,8,0:0:0:0:
400,192,16048,2,0,L|464:80,1,125,0|8,0:0|0:0,0:0:0:0:
256,32,16397,2,0,L|256:160,1,125,0|8,0:0|0:0,0:0:0:0:
49,84,16746,2,0,L|112:192,2,125,0|8|0,0:0|0:0|0:0,0:0:0:0:
432,192,17270,5,10,0:0:0:0:
256,192,17444,1,0,0:0:0:0:
80,192,17618,2,0,L|48:320,1,125,10|0,0:0|0:0,0:0:0:0:
224,320,17967,1,8,0:0:0:0:
384,320,18142,1,0,0:0:0:0:
240,320,18316,1,8,0:0:0:0:
368,320,18491,1,0,0:0:0:0:
256,320,18665,5,8,0:0:0:0:
96,192,18840,2,0,L|32:80,1,125,0|8,0:0|0:0,0:0:0:0:
256,32,19189,2,0,L|256:160,1,125,0|8,0:0|0:0,0:0:0:0:
479,84,19538,2,0,L|416:192,2,125,0|8|8,0:0|0:0|0:0,0:0:0:0:
128,128,20061,6,0,L|160:256,2,125,8|0|8,0:0|3:0|0:0,0:0:0:0:
384,128,20584,2,0,L|352:256,2,125,8|0|8,0:0|0:0|0:0,0:0:0:0:
112,128,21108,6,0,L|144:256,2,125,8|0|8,0:0|0:0|0:0,0:0:0:0:
400,128,21631,2,0,L|368:256,2,125,8|0|8,0:0|0:0|0:0,0:0:0:0:
160,208,22154,6,0,L|64:128,1,125,8|0,0:0|0:0,0:0:0:0:
352,208,22503,2,0,L|448:128,1,125,8|0,0:0|0:0,0:0:0:0:
160,208,22852,6,0,L|96:320,2,125,12|0|8,0:0|0:0|0:0,0:0:0:0:
288,208,23376,1,0,0:0:0:0:
464,208,23550,2,0,L|336:176,1,125,8|0,0:0|0:0,0:0:0:0:
240,96,23899,2,0,L|336:176,1,125,8|0,0:0|0:0,0:0:0:0:
288,64,24248,5,8,0:0:0:0:
256,64,24422,1,0,0:0:0:0:
48,192,24597,1,10,0:0:0:0:
80,192,24771,1,0,0:0:0:0:
256,192,24946,1,10,0:0:0:0:
432,192,25120,1,0,0:0:0:0:
256,320,25295,1,10,0:0:0:0:
224,320,25469,1,0,0:0:0:0:
352,176,25644,6,0,L|416:64,2,125,8|0|8,0:0|0:0|0:0,0:0:0:0:
224,176,26167,1,0,0:0:0:0:
48,176,26341,2,0,L|176:208,1,125,8|0,0:0|0:0,0:0:0:0:
272,288,26690,2,0,L|176:208,1,125,8|0,0:0|0:0,0:0:0:0:
224,320,27039,5,8,0:0:0:0:
256,320,27214,1,0,0:0:0:0:
432,192,27388,1,10,0:0:0:0:
368,192,27563,1,0,0:0:0:0:
80,192,27737,1,10,0:0:0:0:
144,192,27912,1,0,0:0:0:0:
208,192,28086,1,10,0:0:0:0:
416,192,28261,1,0,0:0:0:0:
336,192,28348,1,0,0:0:0:0:
256,192,28435,6,0,B|160:112,2,125,8|0|8,0:0|0:0|0:0,0:0:0:0:
352,272,28958,1,0,0:0:0:0:
176,272,29133,2,0,L|160:144,1,125,8|0,0:0|0:0,0:0:0:0:
336,112,29482,2,0,L|352:240,1,125,8|0,0:0|0:0,0:0:0:0:
176,192,29831,6,0,L|240:80,2,125,8|0|8,0:0|0:0|0:0,0:0:0:0:
336,192,30354,2,0,L|272:304,2,125,0|8|0,0:0|0:0|0:0,0:0:0:0:
400,80,30877,1,8,0:0:0:0:
256,80,31052,1,8,0:0:0:0:
112,80,31226,6,0,L|64:208,2,125,8|0|8,0:0|0:0|0:0,0:0:0:0:
400,304,31750,2,0,L|448:176,2,125,8|0|8,0:0|0:0|0:0,0:0:0:0:
96,80,32273,6,0,L|48:208,2,125,8|0|8,0:0|0:0|0:0,0:0:0:0:
416,304,32796,2,0,L|464:176,2,125,8|0|8,0:0|0:0|0:0,0:0:0:0:
80,80,33320,6,0,L|128:208,1,125,8|0,0:0|0:0,0:0:0:0:
388,186,33669,2,0,L|432:304,1,125,8|8,0:0|0:0,0:0:0:0:
32,192,34018,6,0,P|64:320|176:352,1,250,14|8,0:0|0:0,0:0:0:0:
320,352,34541,1,0,0:0:0:0:
480,192,34715,2,0,P|448:320|336:352,1,250,10|8,0:0|0:0,0:0:0:0:
256,352,35239,2,0,L|256:224,2,125,2|8|0,0:0|0:0|0:0,0:0:0:0:
80,192,35762,6,0,L|80:64,1,125,8|2,0:0|0:0,0:0:0:0:
256,192,36111,2,0,L|256:67,1,125,8|2,0:0|0:0,0:0:0:0:
432,192,36460,2,0,L|432:64,1,125,8|2,0:0|0:0,0:0:0:0:
256,192,36809,6,0,P|144:192|96:320,1,250,10|8,0:0|0:0,0:0:0:0:
256,304,37332,1,0,0:0:0:0:
416,304,37507,2,0,L|496:208,2,125,10|0|8,0:0|0:0|0:0,0:0:0:0:
256,32,38030,2,0,L|256:160,2,125,2|8|0,0:0|0:0|0:0,0:0:0:0:
432,192,38554,6,0,L|448:320,1,125,8|2,0:0|0:0,0:0:0:0:
256,192,38903,2,0,L|272:320,1,125,8|2,0:0|0:0,0:0:0:0:
80,192,39251,2,0,L|96:320,1,125,8|2,0:0|0:0,0:0:0:0:
256,192,39600,6,0,P|368:192|416:64,1,250,10|8,0:0|0:0,0:0:0:0:
256,80,40124,1,0,0:0:0:0:
96,80,40298,2,0,L|16:176,2,125,10|0|8,0:0|0:0|0:0,0:0:0:0:
256,352,40822,2,0,L|256:224,2,125,2|8|0,0:0|0:0|0:0,0:0:0:0:
80,192,41345,6,0,L|48:64,1,125,8|2,0:0|0:0,0:0:0:0:
256,192,41694,2,0,L|224:64,1,125,8|2,0:0|0:0,0:0:0:0:
432,192,42043,2,0,L|336:112,1,125,8|2,0:0|0:0,0:0:0:0:
80,192,42392,6,0,B|208:240|208:240|320:192,1,250,10|8,0:0|0:0,0:0:0:0:
192,192,42915,1,0,0:0:0:0:
336,192,43090,1,10,0:0:0:0:
176,192,43264,1,0,0:0:0:0:
352,192,43438,1,8,0:0:0:0:
160,192,43613,2,0,L|96:304,2,125,2|8|0,0:0|0:0|0:0,0:0:0:0:
448,192,44136,6,0,L|400:320,1,125,8|8,0:0|0:0,0:0:0:0:
107,309,44485,1,0,0:0:0:0:
92,282,44572,1,0,0:0:0:0:
85,251,44660,1,0,0:0:0:0:
88,220,44747,1,0,0:0:0:0:
192,192,44834,1,0,0:0:0:0:
168,172,44921,1,0,0:0:0:0:
152,146,45009,1,0,0:0:0:0:
143,116,45096,1,0,0:0:0:0:
304,144,45183,6,0,P|416:192|480:304,1,250,6|8,0:0|0:0,0:0:0:0:
288,304,45706,1,8,0:0:0:0:
478,298,45881,2,0,P|416:192|304:144,1,250,10|8,0:0|0:0,0:0:0:0:
128,144,46404,2,0,L|64:256,2,125,2|0|0,0:0|0:0|0:0,0:0:0:0:
320,144,46928,6,0,L|208:80,1,125,8|10,0:0|0:0,0:0:0:0:
400,144,47277,2,0,L|288:80,1,125,8|2,0:0|0:0,0:0:0:0:
480,144,47625,2,0,L|368:80,1,125,8|2,0:0|0:0,0:0:0:0:
208,144,47974,6,0,P|96:192|32:304,1,250,2|8,0:0|0:0,0:0:0:0:
224,304,48498,1,8,0:0:0:0:
34,298,48672,2,0,P|96:192|208:144,1,250,10|8,0:0|0:0,0:0:0:0:
384,144,49196,2,0,L|448:256,2,125,2|0|0,0:0|0:0|0:0,0:0:0:0:
192,144,49719,6,0,L|304:80,1,125,8|10,0:0|0:0,0:0:0:0:
112,144,50068,2,0,L|224:80,1,125,8|2,0:0|0:0,0:0:0:0:
32,144,50417,2,0,L|144:80,1,125,8|2,0:0|0:0,0:0:0:0:
320,80,50766,6,0,B|368:144|320:208|320:208|304:320,1,250,2|8,0:0|0:0,0:0:0:0:
496,320,51289,1,8,0:0:0:0:
304,317,51464,2,0,B|320:208|320:208|368:144|320:80,1,250,10|8,0:0|0:0,0:0:0:0:
144,80,51987,2,0,L|48:160,2,125,2|0|0,0:0|0:0|0:0,0:0:0:0:
337,143,52510,6,0,L|445:80,1,125,8|10,0:0|0:0,0:0:0:0:
67,80,52859,2,0,L|176:144,1,125,8|2,0:0|0:0,0:0:0:0:
445,80,53208,2,0,L|337:143,1,125,8|2,0:0|0:0,0:0:0:0:
192,80,53557,6,0,B|144:144|192:208|192:208|208:320,1,250,2|8,0:0|0:0,0:0:0:0:
16,320,54080,1,8,0:0:0:0:
208,317,54255,2,0,B|192:208|192:208|144:144|192:80,1,250,10|8,0:0|0:0,0:0:0:0:
368,80,54778,2,0,L|464:160,1,125,2|0,0:0|0:0,0:0:0:0:
256,192,55127,5,8,0:0:0:0:
80,192,55302,1,8,0:0:0:0:
288,192,55476,1,8,0:0:0:0:
112,192,55651,1,8,0:0:0:0:
400,192,55825,1,8,0:0:0:0:
256,192,56000,1,8,0:0:0:0:
432,192,56174,1,8,0:0:0:0:
80,192,56348,5,14,0:0:0:0:
400,192,56523,1,2,0:0:0:0:
256,192,56697,2,0,L|224:64,1,125,8|0,0:0|0:0,0:0:0:0:
96,64,57046,1,8,0:0:0:0:
208,64,57221,1,0,0:0:0:0:
112,64,57395,1,8,0:0:0:0:
192,64,57570,1,0,0:0:0:0:
272,64,57744,5,8,0:0:0:0:
416,64,57919,2,0,L|432:192,1,125,2|10,0:0|0:0,0:0:0:0:
272,128,58267,2,0,L|288:256,1,125,0|10,0:0|0:0,0:0:0:0:
128,192,58616,2,0,L|144:320,1,125,0|10,0:0|0:0,0:0:0:0:
384,192,58965,1,2,0:0:0:0:
128,192,59140,6,0,L|32:112,1,125,10|0,0:0|0:0,0:0:0:0:
160,48,59489,2,0,L|256:128,1,125,8|0,0:0|0:0,0:0:0:0:
416,128,59838,1,8,0:0:0:0:
272,128,60012,1,0,0:0:0:0:
400,128,60187,1,8,0:0:0:0:
304,128,60361,1,0,0:0:0:0:
208,128,60535,5,8,0:0:0:0:
48,128,60710,2,0,L|112:240,1,125,2|10,0:0|0:0,0:0:0:0:
256,240,61059,1,0,0:0:0:0:
401,236,61233,2,0,B|416:176|400:112|400:112|368:80,1,166.666666666667,10|0,0:0|0:0,0:0:0:0:
277,202,61524,2,0,B|261:138|277:74|277:74|304:48,1,166.666666666667,10|2,0:0|0:0,0:0:0:0:
304,176,61931,5,8,0:0:0:0:
64,176,62106,1,2,0:0:0:0:
304,176,62280,2,0,L|176:128,1,125,10|0,0:0|0:0,0:0:0:0:
32,128,62629,1,8,0:0:0:0:
176,128,62803,1,0,0:0:0:0:
48,128,62978,1,8,0:0:0:0:
144,128,63152,1,0,0:0:0:0:
240,128,63327,6,0,L|320:224,2,125,8|0|8,0:0|0:0|0:0,0:0:0:0:
112,128,63850,1,0,0:0:0:0:
256,112,64025,2,0,L|384:112,1,125,8|0,0:0|0:0,0:0:0:0:
256,192,64374,2,0,L|128:192,1,125,8|8,0:0|0:0,0:0:0:0:
384,128,64722,6,0,L|352:256,2,125,8|0|8,0:0|0:0|0:0,0:0:0:0:
128,128,65246,2,0,L|160:256,2,125,8|0|8,0:0|0:0|0:0,0:0:0:0:
400,128,65769,6,0,L|368:256,2,125,8|0|8,0:0|0:0|0:0,0:0:0:0:
112,128,66293,2,0,L|144:256,2,125,8|0|8,0:0|0:0|0:0,0:0:0:0:
352,208,66816,6,0,L|448:128,1,125,8|0,0:0|0:0,0:0:0:0:
160,208,67165,2,0,L|64:128,1,125,8|0,0:0|0:0,0:0:0:0:
432,192,67514,5,0,0:0:0:0:
448,192,67688,1,0,0:0:0:0:
416,192,67863,1,0,0:0:0:0:
80,192,68037,5,0,0:0:0:0:
64,192,68212,1,0,0:0:0:0:
96,192,68386,1,0,0:0:0:0:
448,144,68561,5,0,0:0:0:0:
464,144,68735,1,0,0:0:0:0:
432,144,68909,1,0,0:0:0:0:
64,144,69084,5,0,0:0:0:0:
48,144,69258,1,0,0:0:0:0:
80,144,69433,1,0,0:0:0:0:
464,80,69607,5,0,0:0:0:0:
416,80,69782,1,0,0:0:0:0:
48,80,69956,5,0,0:0:0:0:
96,80,70131,1,2,0:0:0:0:
256,80,70218,1,0,0:0:0:0:
416,80,70305,1,4,0:0:0:0:
256,192,70480,12,0,75539,0:0:0:0:
128,304,75888,6,0,B|112:176|192:64,1,250,2|0,0:0|0:0,0:0:0:0:
64,64,76411,1,0,0:0:0:0:
176,64,76586,1,2,0:0:0:0:
80,64,76760,1,0,0:0:0:0:
160,64,76935,1,2,0:0:0:0:
96,64,77109,1,0,0:0:0:0:
144,64,77284,6,0,B|256:112|256:112|384:64,1,250,2|0,0:0|0:0,0:0:0:0:
352,64,77807,1,0,0:0:0:0:
336,64,77981,1,2,0:0:0:0:
320,64,78156,1,0,0:0:0:0:
304,64,78330,1,2,0:0:0:0:
288,64,78505,1,0,0:0:0:0:
384,80,78679,6,0,B|400:208|320:320,1,250,2|0,0:0|0:0,0:0:0:0:
448,320,79203,1,0,0:0:0:0:
336,320,79377,1,2,0:0:0:0:
432,320,79552,1,0,0:0:0:0:
352,320,79726,1,2,0:0:0:0:
416,320,79900,1,0,0:0:0:0:
368,320,80075,6,0,B|256:272|256:272|128:320,1,250,2|0,0:0|0:0,0:0:0:0:
160,320,80598,1,0,0:0:0:0:
176,320,80773,1,2,0:0:0:0:
192,320,80947,1,0,0:0:0:0:
208,320,81122,1,2,0:0:0:0:
224,320,81296,1,0,0:0:0:0:
384,304,81471,5,8,0:0:0:0:
128,304,81819,1,8,0:0:0:0:
384,304,82168,1,8,0:0:0:0:
128,304,82517,1,8,0:0:0:0:
416,256,82866,5,8,0:0:0:0:
96,256,83215,1,8,0:0:0:0:
416,256,83564,1,8,0:0:0:0:
96,256,83913,1,8,0:0:0:0:
448,208,84262,6,0,L|480:80,1,125,2|0,0:0|0:0,0:0:0:0:
320,192,84611,2,0,L|336:64,1,125,2|0,0:0|0:0,0:0:0:0:
192,192,84960,2,0,L|176:64,1,125,2|0,0:0|0:0,0:0:0:0:
64,208,85309,2,0,L|32:80,1,125,2|0,0:0|0:0,0:0:0:0:
240,320,85658,5,8,0:0:0:0:
320,320,85745,1,0,0:0:0:0:
384,320,85832,1,0,0:0:0:0:
432,320,85919,1,0,0:0:0:0:
272,64,86006,1,8,0:0:0:0:
192,64,86094,1,0,0:0:0:0:
128,64,86181,1,0,0:0:0:0:
80,64,86268,1,0,0:0:0:0:
320,192,86355,6,0,L|256:160,1,62.5,8|0,0:0|0:0,0:0:0:0:
192,192,86530,2,0,L|256:160,1,62.5,8|0,0:0|0:0,0:0:0:0:
320,192,86704,2,0,L|272:144,1,62.5,8|0,0:0|0:0,0:0:0:0:
192,192,86879,2,0,L|240:144,1,62.5,8|0,0:0|0:0,0:0:0:0:
320,192,87053,6,0,B|384:192|384:192|432:144,1,125,14|0,0:0|0:0,0:0:0:0:
288,80,87402,2,0,B|224:80|224:80|176:128,1,125,10|0,0:0|0:0,0:0:0:0:
462,268,87751,2,0,L|427:148,1,125,8|0,0:0|0:0,0:0:0:0:
252,199,88100,2,0,L|288:80,1,125,8|0,0:0|0:0,0:0:0:0:
128,64,88449,5,8,0:0:0:0:
64,192,88623,1,2,0:0:0:0:
352,192,88798,2,0,L|288:304,1,125,10|0,0:0|0:0,0:0:0:0:
160,192,89147,2,0,L|224:80,1,125,10|0,0:0|0:0,0:0:0:0:
448,192,89496,2,0,L|384:304,1,125,10|0,0:0|0:0,0:0:0:0:
64,192,89845,6,0,L|128:80,1,125,10|0,0:0|0:0,0:0:0:0:
256,80,90194,2,0,L|256:208,1,125,10|0,0:0|0:0,0:0:0:0:
448,192,90542,2,0,L|384:80,1,125,8|0,0:0|0:0,0:0:0:0:
193,188,90891,2,0,L|256:80,1,125,8|0,0:0|0:0,0:0:0:0:
384,64,91240,5,8,0:0:0:0:
448,192,91415,1,2,0:0:0:0:
160,192,91589,2,0,L|224:304,1,125,10|0,0:0|0:0,0:0:0:0:
352,192,91938,2,0,L|288:80,1,125,10|0,0:0|0:0,0:0:0:0:
64,192,92287,2,0,L|128:304,1,125,10|0,0:0|0:0,0:0:0:0:
448,192,92636,6,0,L|384:80,1,125,10|0,0:0|0:0,0:0:0:0:
256,80,92985,2,0,L|256:208,1,125,10|0,0:0|0:0,0:0:0:0:
64,192,93334,2,0,L|128:80,1,125,8|0,0:0|0:0,0:0:0:0:
318,188,93683,2,0,L|256:80,1,125,8|0,0:0|0:0,0:0:0:0:
448,192,94032,6,0,L|384:80,2,125,8|0|8,0:0|0:0|0:0,0:0:0:0:
320,192,94555,2,0,L|256:80,2,125,0|8|0,0:0|0:0|0:0,0:0:0:0:
192,192,95078,1,8,0:0:0:0:
320,192,95253,1,8,0:0:0:0:
128,128,95427,6,0,L|160:256,2,125,8|0|8,0:0|0:0|0:0,0:0:0:0:
384,128,95951,2,0,L|352:256,2,125,8|0|8,0:0|0:0|0:0,0:0:0:0:
112,128,96474,6,0,L|144:256,2,125,8|0|8,0:0|0:0|0:0,0:0:0:0:
400,128,96997,2,0,L|368:256,2,125,8|0|8,0:0|0:0|0:0,0:0:0:0:
160,208,97521,6,0,L|64:128,1,125,8|0,0:0|0:0,0:0:0:0:
352,208,97870,2,0,L|448:128,1,125,8|0,0:0|0:0,0:0:0:0:
128,272,98219,5,0,0:0:0:0:
256,272,98393,1,0,0:0:0:0:
384,272,98568,1,0,0:0:0:0:
112,192,98742,5,0,0:0:0:0:
256,192,98916,1,0,0:0:0:0:
400,192,99091,1,0,0:0:0:0:
128,112,99265,5,0,0:0:0:0:
256,112,99440,1,0,0:0:0:0:
384,112,99614,1,0,0:0:0:0:
112,32,99789,5,0,0:0:0:0:
256,32,99963,1,0,0:0:0:0:
400,32,100138,1,0,0:0:0:0:
272,160,100312,5,0,0:0:0:0:
240,160,100487,1,0,0:0:0:0:
128,288,100661,5,2,0:0:0:0:
384,288,100836,1,2,0:0:0:0:
128,288,101010,6,0,L|96:160,1,125,4|0,0:0|0:0,0:0:0:0:
224,272,101359,2,0,L|208:144,1,125,8|8,0:0|0:0,0:0:0:0:
384,288,101708,2,0,L|416:160,2,125,8|0|8,0:0|0:0|0:0,0:0:0:0:
128,288,102231,6,0,B|80:176|80:176|128:48,1,250
256,48,102755,2,0,L|256:176,1,125,8|8,0:0|0:0,0:0:0:0:
448,128,103103,2,0,L|448:256,1,125,8|0,0:0|0:0,0:0:0:0:
256,336,103452,2,0,L|256:211,1,125,8|0,0:0|0:0,0:0:0:0:
64,128,103801,6,0,L|32:256,1,125
176,128,104150,2,0,L|160:256,1,125,8|8,0:0|0:0,0:0:0:0:
448,128,104499,2,0,L|480:256,2,125,8|0|8,0:0|0:0|0:0,0:0:0:0:
176,128,105023,6,0,B|160:256|160:256|256:336,1,250
400,336,105546,2,0,L|400:208,1,125,8|8,0:0|0:0,0:0:0:0:
112,48,105895,2,0,L|112:176,1,125,8|0,0:0|0:0,0:0:0:0:
336,336,106244,2,0,L|336:208,1,125,8|0,0:0|0:0,0:0:0:0:
176,48,106593,6,0,L|224:176,1,125
64,48,106942,2,0,L|112:176,1,125,8|8,0:0|0:0,0:0:0:0:
256,48,107291,2,0,L|304:176,2,125,8|0|8,0:0|0:0|0:0,0:0:0:0:
400,48,107814,6,0,B|448:160|448:160|400:288,1,250
112,288,108337,2,0,L|128:160,1,125,8|8,0:0|0:0,0:0:0:0:
400,288,108686,2,0,L|384:160,1,125,8|0,0:0|0:0,0:0:0:0:
160,288,109035,2,0,L|176:160,1,125,8|0,0:0|0:0,0:0:0:0:
352,288,109384,6,0,L|336:160,1,125
480,288,109733,2,0,L|464:160,1,125,8|8,0:0|0:0,0:0:0:0:
256,288,110082,2,0,L|240:160,2,125,8|0|8,0:0|0:0|0:0,0:0:0:0:
96,288,110605,6,0,B|80:176|80:176|224:160,1,250
416,176,111129,2,0,L|288:160,1,125,8|8,0:0|0:0,0:0:0:0:
80,167,111478,1,8,0:0:0:0:
81,199,111565,1,0,0:0:0:0:
89,229,111652,1,0,0:0:0:0:
102,257,111739,1,0,0:0:0:0:
120,282,111826,1,0,0:0:0:0:
143,303,111914,1,0,0:0:0:0:
170,320,112001,1,0,0:0:0:0:
199,330,112088,1,0,0:0:0:0:
304,336,112175,6,0,B|336:224|336:224|208:176,1,250,6|8,0:0|0:0,0:0:0:0:
400,160,112699,2,0,L|272:112,1,125,8|10,0:0|0:0,0:0:0:0:
480,96,113048,2,0,L|352:48,1,125,0|8,0:0|0:0,0:0:0:0:
80,192,113397,6,0,L|48:320,2,125,2|0|0,0:0|0:0|0:0,0:0:0:0:
256,192,113920,1,8,0:0:0:0:
176,192,114094,1,10,0:0:0:0:
336,192,114269,2,0,L|272:304,1,125,8|2,0:0|0:0,0:0:0:0:
480,192,114618,2,0,L|416:304,1,125,8|2,0:0|0:0,0:0:0:0:
32,192,114967,6,0,B|96:304|96:304|208:352,1,250,2|8,0:0|0:0,0:0:0:0:
400,304,115490,2,0,L|272:304,1,125,8|10,0:0|0:0,0:0:0:0:
112,304,115839,2,0,L|240:304,1,125,0|8,0:0|0:0,0:0:0:0:
416,304,116188,6,0,L|496:208,2,125,2|0|0,0:0|0:0|0:0,0:0:0:0:
128,304,116711,2,0,L|96:176,1,125,8|10,0:0|0:0,0:0:0:0:
384,80,117060,2,0,L|416:208,1,125,8|2,0:0|0:0,0:0:0:0:
240,208,117409,1,8,0:0:0:0:
368,208,117584,1,2,0:0:0:0:
208,48,117758,6,0,B|176:160|176:160|304:208,1,250,2|8,0:0|0:0,0:0:0:0:
112,224,118281,2,0,L|240:272,1,125,8|10,0:0|0:0,0:0:0:0:
32,288,118630,2,0,L|160:336,1,125,0|8,0:0|0:0,0:0:0:0:
432,192,118979,6,0,L|464:64,2,125,2|0|0,0:0|0:0|0:0,0:0:0:0:
256,192,119503,1,8,0:0:0:0:
352,192,119677,1,10,0:0:0:0:
160,192,119852,2,0,L|240:96,1,125,8|2,0:0|0:0,0:0:0:0:
32,192,120200,2,0,L|112:96,1,125,8|2,0:0|0:0,0:0:0:0:
480,192,120549,6,0,B|416:80|416:80|304:32,1,250,2|8,0:0|0:0,0:0:0:0:
112,80,121073,2,0,L|240:80,1,125,8|10,0:0|0:0,0:0:0:0:
400,80,121422,2,0,L|272:80,1,125,0|8,0:0|0:0,0:0:0:0:
96,80,121771,6,0,L|16:176,2,125,2|0|2,0:0|0:0|0:0,0:0:0:0:
432,80,122294,1,10,0:0:0:0:
256,192,122468,1,10,0:0:0:0:
80,304,122643,1,0,0:0:0:0:
87,273,122730,1,0,0:0:0:0:
95,243,122817,1,0,0:0:0:0:
102,213,122905,1,0,0:0:0:0:
110,182,122992,1,0,0:0:0:0:
134,166,123079,1,0,0:0:0:0:
163,154,123166,1,0,0:0:0:0:
191,141,123254,1,0,0:0:0:0:
320,144,123341,6,0,L|432:208,1,125,6|0,0:0|0:0,0:0:0:0:
272,192,123690,2,0,L|384:256,1,125,10|8,0:0|0:0,0:0:0:0:
208,240,124039,2,0,L|320:304,1,125,10|0,0:0|0:0,0:0:0:0:
128,288,124388,1,10,0:0:0:0:
384,288,124562,1,2,0:0:0:0:
256,288,124736,6,0,L|160:208,1,125
352,208,125085,2,0,L|432:112,1,125,8|10,0:0|0:0,0:0:0:0:
160,176,125434,2,0,L|80:272,1,125,8|2,0:0|0:0,0:0:0:0:
256,96,125783,2,0,L|352:176,1,125,8|2,0:0|0:0,0:0:0:0:
448,256,126132,6,0,L|448:128,1,125,2|0,0:0|0:0,0:0:0:0:
160,256,126481,2,0,L|160:128,1,125,10|8,0:0|0:0,0:0:0:0:
320,128,126830,1,10,0:0:0:0:
192,128,127004,1,0,0:0:0:0:
352,128,127179,1,10,0:0:0:0:
64,256,127353,6,0,L|32:128,1,125,2|0,0:0|0:0,0:0:0:0:
176,256,127702,1,0,0:0:0:0:
336,256,127877,2,0,L|336:128,1,125,8|10,0:0|0:0,0:0:0:0:
176,256,128226,2,0,L|176:128,1,125,8|2,0:0|0:0,0:0:0:0:
448,256,128575,2,0,L|480:128,1,125,8|2,0:0|0:0,0:0:0:0:
192,240,128923,6,0,L|80:176,1,125,2|0,0:0|0:0,0:0:0:0:
240,192,129272,2,0,L|128:128,1,125,10|8,0:0|0:0,0:0:0:0:
304,144,129621,2,0,L|192:80,1,125,10|0,0:0|0:0,0:0:0:0:
384,96,129970,1,10,0:0:0:0:
128,96,130145,1,2,0:0:0:0:
256,96,130319,6,0,L|352:176,1,125
160,176,130668,2,0,L|80:272,1,125,8|10,0:0|0:0,0:0:0:0:
352,208,131017,2,0,L|432:112,1,125,8|2,0:0|0:0,0:0:0:0:
256,288,131366,2,0,L|160:208,1,125,8|2,0:0|0:0,0:0:0:0:
64,128,131715,6,0,L|64:256,1,125,2|0,0:0|0:0,0:0:0:0:
352,128,132064,2,0,L|352:256,1,125,10|8,0:0|0:0,0:0:0:0:
192,256,132413,1,10,0:0:0:0:
320,256,132587,1,0,0:0:0:0:
160,256,132762,1,10,0:0:0:0:
352,256,132936,1,2,0:0:0:0:
48,256,133110,6,0,L|48:128,1,125,0|2,0:0|0:0,0:0:0:0:
464,128,133459,2,0,L|464:256,1,125,8|10,0:0|0:0,0:0:0:0:
112,192,133808,6,0,L|128:128,1,62.5
400,192,133983,2,0,L|384:256,1,62.5
96,192,134157,2,0,L|112:128,1,62.5
416,192,134332,2,0,L|400:256,1,62.5
256,192,134506,5,4,0:0:0:0:
256,192,134681,12,2,138693,0:0:0:0:
