osu file format v12

[General]
AudioFilename: Gay Bar.mp3
AudioLeadIn: 0
PreviewTime: 11675
Countdown: 0
SampleSet: Normal
StackLeniency: 0.7
Mode: 2
LetterboxInBreaks: 0
WidescreenStoryboard: 0

[Editor]
DistanceSpacing: 1
BeatDivisor: 4
GridSize: 16
TimelineZoom: 1

[Metadata]
Title:Gay Bar
TitleUnicode:Gay Bar
Artist:Electric Six
ArtistUnicode:Electric Six
Creator:Deif
Version:Platter
Source:
Tags:Fire Tyler Spencer Dick Valentine OnosakiHito
BeatmapID:327012
BeatmapSetID:129402

[Difficulty]
HPDrainRate:6
CircleSize:4
OverallDifficulty:8
ApproachRate:8
SliderMultiplier:2
SliderTickRate:2

[Events]
//Background and Video events
0,0,"BG.jpg",0,0
//Break Periods
2,76088,80721
//Storyboard Layer 0 (Background)
//Storyboard Layer 1 (Fail)
//Storyboard Layer 2 (Pass)
//Storyboard Layer 3 (Foreground)
//Storyboard Sound Samples
//Background Colour Transformations
3,100,163,162,255

[TimingPoints]
522,348.918353105373,4,1,2,60,1,0
20061,-100,4,3,1,70,0,0
22154,-66.6666666666667,4,3,1,70,0,0
22852,-100,4,1,2,60,0,0
31226,-100,4,3,1,70,0,0
33320,-66.6666666666667,4,3,1,70,0,0
34018,-50,4,1,2,60,0,0
34715,-100,4,1,2,60,0,0
45183,-100,4,1,0,75,0,1
55127,-100,4,3,0,75,0,1
55476,-100,4,3,0,70,0,1
55825,-100,4,3,0,65,0,1
56174,-100,4,3,0,60,0,1
56348,-100,4,1,2,60,0,0
64722,-100,4,3,1,70,0,0
66816,-66.6666666666667,4,3,1,70,0,0
67514,-100,4,1,0,70,0,0
67601,-100,4,1,0,35,0,0
68037,-100,4,1,0,70,0,0
68124,-100,4,1,0,35,0,0
68561,-100,4,1,0,70,0,0
68648,-100,4,1,0,35,0,0
69084,-100,4,1,0,70,0,0
69171,-100,4,1,0,35,0,0
69607,-100,4,1,0,70,0,0
69695,-100,4,1,0,35,0,0
69956,-100,4,1,0,70,0,0
70218,-100,4,2,0,50,0,0
71614,-100,4,2,0,40,0,0
73009,-100,4,2,0,30,0,0
74405,-100,4,2,0,20,0,0
75452,-100,4,2,0,10,0,0
75888,-100,4,1,0,30,0,0
81471,-100,4,3,1,40,0,0
84262,-100,4,1,0,50,0,0
85658,-100,4,1,2,60,0,0
86355,-100,4,3,1,60,0,0
87053,-100,4,1,2,60,0,0
95427,-100,4,3,1,70,0,0
97521,-66.6666666666667,4,3,1,70,0,0
98219,-100,4,1,0,70,0,0
98306,-100,4,1,0,35,0,0
98742,-100,4,1,0,70,0,0
98829,-100,4,1,0,35,0,0
99265,-100,4,1,0,70,0,0
99353,-100,4,1,0,35,0,0
99789,-100,4,1,0,70,0,0
99876,-100,4,1,0,35,0,0
100312,-100,4,1,0,70,0,0
100399,-100,4,1,0,35,0,0
100661,-50,4,1,0,70,0,0
100836,-100,4,1,0,35,0,0
101010,-100,4,1,0,50,0,0
112175,-100,4,1,0,75,0,1
123166,-100,4,1,0,75,0,0
123341,-100,4,1,0,75,0,1
134506,-100,4,1,0,60,0,0
137297,-100,4,1,0,40,0,0

[Colours]
Combo1 : 117,7,135
Combo2 : 228,3,3
Combo3 : 255,140,0
Combo4 : 255,237,0
Combo5 : 0,128,38
Combo6 : 0,77,255

[HitObjects]
128,192,11687,5,12,0:0:0:0:
384,192,12036,2,0,L|464:128,1,100,8|0,0:0|0:0,0:0:0:0:
320,128,12385,1,8,0:0:0:0:
224,128,12559,1,0,0:0:0:0:
144,128,12734,1,8,0:0:0:0:
80,128,12908,1,0,0:0:0:0:
31,128,13083,6,0,P|47:223|128:288,1,200,8|8,0:0|0:0,0:0:0:0:
292,286,13606,2,0,P|367:224|384:128,1,200,0|0,0:0|0:0,0:0:0:0:
224,128,14129,1,8,0:0:0:0:
352,128,14304,1,0,0:0:0:0:
192,128,14478,5,10,0:0:0:0:
432,128,14827,2,0,L|400:224,1,100,10|0,0:0|0:0,0:0:0:0:
256,224,15176,1,8,0:0:0:0:
384,224,15351,1,0,0:0:0:0:
272,224,15525,1,8,0:0:0:0:
176,224,15699,1,0,0:0:0:0:
256,192,15874,6,0,P|352:192|416:112,1,200,8|8,0:0|0:0,0:0:0:0:
256,192,16397,2,0,P|160:192|96:272,1,200,0|0,0:0|0:0,0:0:0:0:
256,192,16921,1,8,0:0:0:0:
368,192,17095,1,0,0:0:0:0:
176,192,17270,5,10,0:0:0:0:
448,192,17618,2,0,L|496:96,1,100,10|0,0:0|0:0,0:0:0:0:
352,96,17967,1,8,0:0:0:0:
224,96,18142,1,0,0:0:0:0:
112,96,18316,1,8,0:0:0:0:
16,96,18491,1,0,0:0:0:0:
96,192,18665,5,8,0:0:0:0:
224,192,18840,2,0,L|160:272,1,100,0|8,0:0|0:0,0:0:0:0:
304,192,19189,2,0,L|240:272,1,100,0|8,0:0|0:0,0:0:0:0:
384,192,19538,2,0,L|320:272,1,100,0|8,0:0|0:0,0:0:0:0:
448,192,19886,1,8,0:0:0:0:
336,128,20061,6,0,L|432:96,2,100,8|0|8,0:0|3:0|0:0,0:0:0:0:
208,128,20584,2,0,L|304:96,2,100,8|0|8,0:0|0:0|0:0,0:0:0:0:
80,128,21108,6,0,L|176:96,2,100,8|0|8,0:0|0:0|0:0,0:0:0:0:
240,160,21631,2,0,L|336:128,2,100,8|0|8,0:0|0:0|0:0,0:0:0:0:
400,192,22154,6,0,L|96:192,1,300.000011444092,8|8,0:0|0:0,0:0:0:0:
464,192,22852,5,12,0:0:0:0:
256,192,23201,2,0,L|320:112,1,100,8|0,0:0|0:0,0:0:0:0:
160,112,23550,1,8,0:0:0:0:
304,112,23725,1,0,0:0:0:0:
176,112,23899,1,8,0:0:0:0:
288,112,24073,1,0,0:0:0:0:
192,112,24248,5,8,0:0:0:0:
464,192,24597,1,10,0:0:0:0:
160,192,24946,1,10,0:0:0:0:
304,192,25120,1,0,0:0:0:0:
160,192,25295,2,0,L|192:288,1,100,10|0,0:0|0:0,0:0:0:0:
48,192,25644,5,8,0:0:0:0:
256,192,25993,2,0,L|192:112,1,100,8|0,0:0|0:0,0:0:0:0:
352,112,26341,1,8,0:0:0:0:
208,112,26516,1,0,0:0:0:0:
336,112,26690,1,8,0:0:0:0:
224,112,26865,1,0,0:0:0:0:
320,112,27039,5,8,0:0:0:0:
64,192,27388,1,10,0:0:0:0:
240,192,27563,1,0,0:0:0:0:
272,192,27737,1,10,0:0:0:0:
448,192,27912,2,0,L|480:288,2,100,0|10|0,0:0|0:0|0:0,0:0:0:0:
304,288,28435,5,8,0:0:0:0:
80,288,28784,2,0,L|112:192,1,100,8|0,0:0|0:0,0:0:0:0:
272,192,29133,2,0,L|240:96,1,100,8|0,0:0|0:0,0:0:0:0:
112,192,29482,2,0,L|144:96,1,100,8|0,0:0|0:0,0:0:0:0:
240,96,29831,6,0,P|320:160|400:112,1,200,8|8,0:0|0:0,0:0:0:0:
272,96,30354,2,0,P|192:160|112:112,1,200,0|0,0:0|0:0,0:0:0:0:
240,96,30877,1,8,0:0:0:0:
336,128,31052,1,8,0:0:0:0:
176,128,31226,6,0,L|80:96,2,100,8|0|8,0:0|0:0|0:0,0:0:0:0:
304,128,31750,2,0,L|208:96,2,100,8|0|8,0:0|0:0|0:0,0:0:0:0:
432,128,32273,6,0,L|336:96,2,100,8|0|8,0:0|0:0|0:0,0:0:0:0:
272,160,32796,2,0,L|176:128,2,100,8|0|8,0:0|0:0|0:0,0:0:0:0:
112,192,33320,6,0,L|416:192,1,300.000011444092,8|8,0:0|0:0,0:0:0:0:
463,112,34018,6,0,P|340:262|144:272,1,400,14|8,0:0|0:0,0:0:0:0:
64,192,34715,2,0,P|112:96|192:32,1,200,10|8,0:0|0:0,0:0:0:0:
330,37,35239,2,0,P|405:102|448:192,1,200,2|0,0:0|0:0,0:0:0:0:
304,192,35762,2,0,L|112:128,2,200,8|8|8,0:0|0:0|0:0,0:0:0:0:
64,192,36809,5,10,0:0:0:0:
304,192,37158,1,8,0:0:0:0:
32,192,37507,2,0,L|144:192,2,100,10|0|8,0:0|0:0|0:0,0:0:0:0:
176,192,38030,6,0,B|240:192|240:192|272:144|272:144|352:144,1,200,2|0,0:0|0:0,0:0:0:0:
496,144,38554,2,0,L|464:240,1,100,8|2,0:0|0:0,0:0:0:0:
304,238,38903,2,0,L|336:144,1,100,8|2,0:0|0:0,0:0:0:0:
176,144,39251,2,0,L|144:240,1,100,8|2,0:0|0:0,0:0:0:0:
304,240,39600,6,0,P|256:160|224:240,1,200,10|8,0:0|0:0,0:0:0:0:
448,192,40298,2,0,P|400:96|320:32,1,200,10|8,0:0|0:0,0:0:0:0:
182,37,40822,2,0,P|107:102|64:192,1,200,2|0,0:0|0:0,0:0:0:0:
208,192,41345,2,0,L|400:128,2,200,8|8|8,0:0|0:0|0:0,0:0:0:0:
448,192,42392,5,10,0:0:0:0:
208,192,42741,2,0,L|160:96,1,100,8|0,0:0|0:0,0:0:0:0:
304,192,43090,2,0,L|352:96,1,100,10|0,0:0|0:0,0:0:0:0:
163,102,43438,1,8,0:0:0:0:
348,102,43613,6,0,P|444:112|495:194,1,200,2|0,0:0|0:0,0:0:0:0:
368,192,44136,1,8,0:0:0:0:
496,192,44311,1,8,0:0:0:0:
144,192,44485,1,0,0:0:0:0:
336,192,44834,1,0,0:0:0:0:
16,192,45183,6,0,P|80:272|176:304,1,200,6|8,0:0|0:0,0:0:0:0:
416,304,45881,1,10,0:0:0:0:
160,304,46230,1,8,0:0:0:0:
16,192,46404,6,0,P|96:128|192:128,1,200,2|0,0:0|0:0,0:0:0:0:
320,128,46928,2,0,L|288:224,1,100,8|10,0:0|0:0,0:0:0:0:
416,224,47277,1,8,0:0:0:0:
192,224,47625,1,8,0:0:0:0:
496,192,47974,6,0,P|432:112|336:80,1,200,2|8,0:0|0:0,0:0:0:0:
96,80,48672,1,10,0:0:0:0:
352,80,49021,1,8,0:0:0:0:
496,192,49196,6,0,P|416:256|320:256,1,200,2|0,0:0|0:0,0:0:0:0:
192,256,49719,2,0,L|224:160,1,100,8|10,0:0|0:0,0:0:0:0:
96,160,50068,1,8,0:0:0:0:
320,160,50417,1,8,0:0:0:0:
32,192,50766,6,0,P|128:224|224:192,1,200,2|8,0:0|0:0,0:0:0:0:
480,192,51464,1,10,0:0:0:0:
192,192,51812,1,8,0:0:0:0:
320,192,51987,6,0,L|192:36,1,200,2|0,0:0|0:0,0:0:0:0:
320,32,52510,2,0,L|288:128,1,100,8|10,0:0|0:0,0:0:0:0:
432,128,52859,1,8,0:0:0:0:
176,128,53208,1,8,0:0:0:0:
480,192,53557,6,0,P|384:224|288:192,1,200,2|8,0:0|0:0,0:0:0:0:
32,192,54255,1,10,0:0:0:0:
320,192,54604,1,8,0:0:0:0:
192,192,54778,6,0,L|320:36,1,200,2|8,0:0|0:0,0:0:0:0:
304,32,55302,1,8,0:0:0:0:
144,64,55476,1,8,0:0:0:0:
160,64,55651,1,8,0:0:0:0:
336,128,55825,1,8,0:0:0:0:
176,128,56000,1,8,0:0:0:0:
352,160,56174,1,8,0:0:0:0:
112,160,56348,5,14,0:0:0:0:
368,192,56697,2,0,L|416:288,1,100,8|0,0:0|0:0,0:0:0:0:
272,288,57046,1,8,0:0:0:0:
144,288,57221,1,0,0:0:0:0:
32,288,57395,1,8,0:0:0:0:
128,256,57570,1,0,0:0:0:0:
48,256,57744,6,0,B|128:192|128:192|160:96,1,200,8|10,0:0|0:0,0:0:0:0:
305,99,58267,2,0,B|336:192|336:192|416:256,1,200,0|0,0:0|0:0,0:0:0:0:
272,256,58791,2,0,L|176:224,1,100,10|2,0:0|0:0,0:0:0:0:
320,160,59140,5,10,0:0:0:0:
144,192,59489,2,0,L|96:288,1,100,8|0,0:0|0:0,0:0:0:0:
240,288,59838,1,8,0:0:0:0:
368,288,60012,1,0,0:0:0:0:
480,288,60187,1,8,0:0:0:0:
384,256,60361,1,0,0:0:0:0:
464,256,60535,6,0,B|384:192|384:192|352:96,1,200,8|10,0:0|0:0,0:0:0:0:
206,99,61059,2,0,B|176:192|176:192|96:256,1,200,0|0,0:0|0:0,0:0:0:0:
240,256,61582,2,0,L|336:224,1,100,0|2,0:0|0:0,0:0:0:0:
192,160,61931,5,8,0:0:0:0:
416,160,62280,2,0,L|352:80,1,100,10|0,0:0|0:0,0:0:0:0:
496,192,62629,1,8,0:0:0:0:
352,192,62803,1,0,0:0:0:0:
224,192,62978,1,8,0:0:0:0:
112,192,63152,1,0,0:0:0:0:
16,192,63327,6,0,P|96:256|192:272,1,200,8|8,0:0|0:0,0:0:0:0:
321,272,63850,2,0,P|419:254|496:192,1,200,0|0,0:0|0:0,0:0:0:0:
352,192,64374,1,8,0:0:0:0:
192,192,64548,1,8,0:0:0:0:
16,192,64722,6,0,L|80:112,2,100,8|0|8,0:0|0:0|0:0,0:0:0:0:
160,192,65246,2,0,L|224:112,2,100,8|0|8,0:0|0:0|0:0,0:0:0:0:
304,192,65769,6,0,L|368:112,2,100,8|0|8,0:0|0:0|0:0,0:0:0:0:
448,192,66293,2,0,L|512:112,2,100,8|0|8,0:0|0:0|0:0,0:0:0:0:
304,144,66816,6,0,P|196:192|304:224,1,300.000011444092,8|8,0:0|0:0,0:0:0:0:
64,192,67514,5,0,0:0:0:0:
96,192,67688,1,0,0:0:0:0:
128,192,67863,1,0,0:0:0:0:
272,192,68037,1,0,0:0:0:0:
304,192,68386,5,0,0:0:0:0:
448,192,68561,5,0,0:0:0:0:
416,192,68735,1,0,0:0:0:0:
384,192,68909,1,0,0:0:0:0:
240,192,69084,1,0,0:0:0:0:
208,192,69433,5,0,0:0:0:0:
64,192,69607,5,0,0:0:0:0:
304,192,69782,1,0,0:0:0:0:
448,192,69956,1,0,0:0:0:0:
256,192,70305,12,2,75888,0:0:0:0:
160,192,81471,5,8,0:0:0:0:
352,192,81819,1,8,0:0:0:0:
128,192,82168,1,8,0:0:0:0:
384,192,82517,1,8,0:0:0:0:
160,112,82866,5,8,0:0:0:0:
352,112,83215,1,8,0:0:0:0:
128,112,83564,1,8,0:0:0:0:
384,112,83913,1,8,0:0:0:0:
160,192,84262,6,0,P|88:240|160:288,1,200,2|2,0:0|0:0,0:0:0:0:
256,288,84785,1,0,0:0:0:0:
352,288,84960,1,2,0:0:0:0:
256,288,85134,1,0,0:0:0:0:
176,288,85309,1,2,0:0:0:0:
256,288,85483,1,0,0:0:0:0:
336,288,85658,6,0,L|384:304,2,50,8|0|0,0:0|0:0|0:0,0:0:0:0:
176,288,86006,2,0,L|128:304,2,50,8|0|0,0:0|0:0|0:0,0:0:0:0:
336,288,86355,5,8,0:0:0:0:
176,288,86530,1,8,0:0:0:0:
320,256,86704,1,8,0:0:0:0:
192,256,86879,1,8,0:0:0:0:
448,256,87053,6,0,L|368:176,2,100,14|0|10,0:0|0:0|0:0,0:0:0:0:
448,256,87577,1,0,0:0:0:0:
288,256,87751,1,8,0:0:0:0:
144,256,87926,1,0,0:0:0:0:
272,224,88100,1,8,0:0:0:0:
384,224,88274,1,0,0:0:0:0:
288,192,88449,6,0,P|160:160|96:128,1,200,8|10,0:0|0:0,0:0:0:0:
224,192,88972,2,0,P|352:224|416:256,1,200,0|0,0:0|0:0,0:0:0:0:
288,192,89496,1,10,0:0:0:0:
224,192,89670,1,0,0:0:0:0:
352,192,89845,6,0,L|416:272,2,100,10|0|10,0:0|0:0|0:0,0:0:0:0:
352,192,90368,1,0,0:0:0:0:
192,144,90542,1,8,0:0:0:0:
48,144,90717,1,0,0:0:0:0:
176,96,90891,1,8,0:0:0:0:
288,96,91066,1,0,0:0:0:0:
192,144,91240,6,0,P|192:240|272:304,1,200,8|10,0:0|0:0,0:0:0:0:
405,302,91764,2,0,P|479:240|480:144,1,200,0|0,0:0|0:0,0:0:0:0:
336,144,92287,2,0,L|368:240,1,100,10|0,0:0|0:0,0:0:0:0:
192,144,92636,6,0,L|288:192,2,100,10|0|10,0:0|0:0|0:0,0:0:0:0:
192,144,93159,1,0,0:0:0:0:
336,144,93334,2,0,L|448:144,1,100,8|0,0:0|0:0,0:0:0:0:
304,192,93683,2,0,L|368:272,1,100,8|0,0:0|0:0,0:0:0:0:
240,208,94032,6,0,P|208:288|144:224,1,200,8|8,0:0|0:0,0:0:0:0:
272,176,94555,2,0,P|304:96|368:160,1,200,0|0,0:0|0:0,0:0:0:0:
240,208,95078,1,8,0:0:0:0:
369,151,95253,1,8,0:0:0:0:
496,192,95427,6,0,L|432:112,2,100,8|0|8,0:0|0:0|0:0,0:0:0:0:
352,192,95951,2,0,L|288:112,2,100,8|0|8,0:0|0:0|0:0,0:0:0:0:
208,192,96474,6,0,L|144:112,2,100,8|0|8,0:0|0:0|0:0,0:0:0:0:
64,192,96997,2,0,L|0:112,2,100,8|0|8,0:0|0:0|0:0,0:0:0:0:
208,144,97521,6,0,B|304:256|304:256|144:256,1,300.000011444092,8|8,0:0|0:0,0:0:0:0:
448,192,98219,5,0,0:0:0:0:
416,192,98393,1,0,0:0:0:0:
384,192,98568,1,0,0:0:0:0:
240,192,98742,1,0,0:0:0:0:
208,192,99091,5,0,0:0:0:0:
64,192,99265,5,0,0:0:0:0:
96,192,99440,1,0,0:0:0:0:
128,192,99614,1,0,0:0:0:0:
272,192,99789,1,0,0:0:0:0:
304,192,100138,5,0,0:0:0:0:
432,192,100312,5,0,0:0:0:0:
96,192,100661,2,0,L|256:64,1,200,2|2,0:0|0:0,0:0:0:0:
432,192,101010,5,4,0:0:0:0:
432,192,101359,2,0,L|352:256,1,100,8|8,0:0|0:0,0:0:0:0:
240,256,101708,1,8,0:0:0:0:
80,192,101882,2,0,L|160:128,1,100,0|8,0:0|0:0,0:0:0:0:
272,128,102231,6,0,P|368:176|352:256,1,200,0|0,0:0|0:0,0:0:0:0:
272,128,102755,2,0,P|224:160|208:208,1,100,8|8,0:0|0:0,0:0:0:0:
354,252,103103,2,0,P|359:159|272:128,1,200,8|8,0:0|0:0,0:0:0:0:
354,252,103627,1,0,0:0:0:0:
192,256,103801,5,0,0:0:0:0:
176,256,104150,2,0,L|96:192,1,100,8|8,0:0|0:0,0:0:0:0:
192,128,104499,1,8,0:0:0:0:
336,128,104674,2,0,L|416:192,1,100,0|8,0:0|0:0,0:0:0:0:
320,256,105023,6,0,P|256:240|304:144,1,200,0|0,0:0|0:0,0:0:0:0:
448,192,105546,2,0,L|416:288,1,100,8|8,0:0|0:0,0:0:0:0:
256,192,105895,2,0,L|224:96,1,100,8|0,0:0|0:0,0:0:0:0:
64,192,106244,2,0,L|96:288,1,100,8|0,0:0|0:0,0:0:0:0:
320,128,106593,5,0,0:0:0:0:
336,128,106942,2,0,L|416:192,1,100,8|8,0:0|0:0,0:0:0:0:
320,256,107291,1,8,0:0:0:0:
176,256,107465,2,0,L|96:192,1,100,0|8,0:0|0:0,0:0:0:0:
192,128,107814,6,0,P|256:144|208:240,1,200,0|0,0:0|0:0,0:0:0:0:
64,192,108337,2,0,L|96:96,1,100,8|8,0:0|0:0,0:0:0:0:
256,192,108686,2,0,L|288:288,1,100,8|0,0:0|0:0,0:0:0:0:
448,192,109035,2,0,L|416:96,1,100,8|0,0:0|0:0,0:0:0:0:
192,256,109384,5,0,0:0:0:0:
176,256,109733,2,0,L|256:192,1,100,8|8,0:0|0:0,0:0:0:0:
176,128,110082,1,8,0:0:0:0:
336,128,110256,2,0,L|256:192,1,100,0|8,0:0|0:0,0:0:0:0:
336,256,110605,6,0,P|400:192|336:128,1,200,0|0,0:0|0:0,0:0:0:0:
176,128,111129,2,0,L|208:224,1,100,8|8,0:0|0:0,0:0:0:0:
336,192,111478,6,0,L|384:224,2,50,8|0|0,0:0|0:0|0:0,0:0:0:0:
176,192,111826,2,0,L|128:224,2,50,0|0|0,0:0|0:0|0:0,0:0:0:0:
416,192,112175,6,0,P|416:272|320:336,1,200,6|8,0:0|0:0,0:0:0:0:
192,336,112699,1,8,0:0:0:0:
320,336,112873,2,0,L|416:288,2,100,10|0|8,0:0|0:0|0:0,0:0:0:0:
192,336,113397,6,0,P|112:288|128:192,1,200,2|0,0:0|0:0,0:0:0:0:
256,192,113920,1,8,0:0:0:0:
128,192,114094,1,10,0:0:0:0:
16,192,114269,1,8,0:0:0:0:
320,192,114618,1,8,0:0:0:0:
96,192,114967,6,0,P|96:272|192:336,1,200,2|8,0:0|0:0,0:0:0:0:
320,336,115490,1,8,0:0:0:0:
192,336,115665,2,0,L|96:288,2,100,10|0|8,0:0|0:0|0:0,0:0:0:0:
320,336,116188,6,0,P|400:288|384:192,1,200,2|0,0:0|0:0,0:0:0:0:
256,192,116711,1,8,0:0:0:0:
16,192,117060,1,8,0:0:0:0:
144,192,117235,1,2,0:0:0:0:
496,192,117584,1,2,0:0:0:0:
368,192,117758,6,0,P|288:240|192:208,1,200,2|8,0:0|0:0,0:0:0:0:
336,192,118281,1,8,0:0:0:0:
192,208,118456,2,0,P|144:176|96:160,2,100,10|0|8,0:0|0:0|0:0,0:0:0:0:
336,192,118979,6,0,P|336:272|240:256,1,200,2|0,0:0|0:0,0:0:0:0:
112,192,119503,1,8,0:0:0:0:
240,192,119677,1,10,0:0:0:0:
80,192,119852,1,8,0:0:0:0:
432,192,120200,1,8,0:0:0:0:
144,192,120549,6,0,P|224:144|320:176,1,200,2|8,0:0|0:0,0:0:0:0:
176,192,121073,1,8,0:0:0:0:
320,176,121247,2,0,P|368:208|416:224,2,100,10|0|8,0:0|0:0|0:0,0:0:0:0:
176,192,121771,6,0,P|176:112|272:128,1,200,2|2,0:0|0:0,0:0:0:0:
400,192,122294,1,10,0:0:0:0:
112,192,122643,1,0,0:0:0:0:
32,112,122817,1,0,0:0:0:0:
480,112,123166,1,0,0:0:0:0:
400,192,123341,6,0,P|320:256|224:256,1,200,6|10,0:0|0:0,0:0:0:0:
352,192,123864,1,8,0:0:0:0:
226,256,124039,2,0,P|176:224|160:176,2,100,10|0|10,0:0|0:0|0:0,0:0:0:0:
400,192,124562,6,0,B|384:128|320:96|304:16,1,200,2|0,0:0|0:0,0:0:0:0:
208,16,125085,1,8,0:0:0:0:
336,96,125260,1,10,0:0:0:0:
176,96,125434,1,8,0:0:0:0:
400,96,125783,1,8,0:0:0:0:
112,192,126132,6,0,P|192:128|288:128,1,200,2|10,0:0|0:0,0:0:0:0:
160,192,126655,1,8,0:0:0:0:
285,127,126830,2,0,P|336:160|352:208,2,100,10|0|10,0:0|0:0|0:0,0:0:0:0:
112,192,127353,6,0,B|128:256|192:288|208:368,1,200,2|0,0:0|0:0,0:0:0:0:
304,368,127877,1,8,0:0:0:0:
336,288,128226,1,8,0:0:0:0:
176,288,128400,1,2,0:0:0:0:
112,192,128749,1,2,0:0:0:0:
384,192,128923,6,0,P|416:144|320:144,1,200,2|10,0:0|0:0,0:0:0:0:
190,136,129447,1,8,0:0:0:0:
321,136,129621,2,0,L|400:208,2,100,10|0|10,0:0|0:0|0:0,0:0:0:0:
191,136,130145,6,0,P|112:110|128:192,1,200,2|0,0:0|0:0,0:0:0:0:
256,144,130668,1,8,0:0:0:0:
384,191,130843,1,10,0:0:0:0:
127,191,131017,1,8,0:0:0:0:
384,191,131366,1,8,0:0:0:0:
128,192,131715,6,0,P|96:240|192:240,1,200,2|10,0:0|0:0,0:0:0:0:
321,247,132238,1,8,0:0:0:0:
190,247,132413,2,0,L|112:176,2,100,10|0|10,0:0|0:0|0:0,0:0:0:0:
321,247,132936,1,2,0:0:0:0:
192,112,133110,6,0,L|112:176,1,100,0|2,0:0|0:0,0:0:0:0:
398,174,133634,1,10,0:0:0:0:
256,192,133808,5,0,0:0:0:0:
208,192,133896,1,0,0:0:0:0:
160,192,133983,1,0,0:0:0:0:
352,192,134157,1,0,0:0:0:0:
304,192,134244,1,0,0:0:0:0:
256,192,134332,1,0,0:0:0:0:
256,192,134506,12,2,138693,0:0:0:0:
