osu file format v12

[General]
AudioFilename: Gay Bar.mp3
AudioLeadIn: 0
PreviewTime: 11675
Countdown: 0
SampleSet: Normal
StackLeniency: 0.7
Mode: 1
LetterboxInBreaks: 0
SkinPreference:taiko
WidescreenStoryboard: 0

[Editor]
Bookmarks: 510,11675,34006,45171,56336,70293,87041,100998,112163,134494
DistanceSpacing: 1
BeatDivisor: 4
GridSize: 16
TimelineZoom: 2.3

[Metadata]
Title:Gay Bar
TitleUnicode:Gay Bar
Artist:Electric Six
ArtistUnicode:Electric Six
Creator:Deif
Version:Muzukashii
Source:
Tags:Fire Tyler Spencer Dick Valentine OnosakiHito
BeatmapID:364921
BeatmapSetID:129402

[Difficulty]
HPDrainRate:4
CircleSize:4
OverallDifficulty:4
ApproachRate:5
SliderMultiplier:1.4
SliderTickRate:1

[Events]
//Background and Video events
0,0,"Taiko_BG.jpg",0,0
//Break Periods
2,70505,74688
//Storyboard Layer 0 (Background)
//Storyboard Layer 1 (Fail)
//Storyboard Layer 2 (Pass)
//Storyboard Layer 3 (Foreground)
//Storyboard Sound Samples
//Background Colour Transformations
3,100,163,162,255

[TimingPoints]
522,348.918353105373,4,1,0,80,1,0
45183,-100,4,1,0,80,0,1
56348,-100,4,1,0,80,0,0
112175,-100,4,1,0,80,0,1
134506,-100,4,1,0,80,0,0

[HitObjects]
256,192,522,1,0,0:0:0:0:
256,192,1917,1,0,0:0:0:0:
256,192,2441,1,0,0:0:0:0:
256,192,2964,1,0,0:0:0:0:
256,192,3313,1,0,0:0:0:0:
256,192,4360,1,0,0:0:0:0:
256,192,4709,1,0,0:0:0:0:
256,192,5232,1,0,0:0:0:0:
256,192,5755,1,0,0:0:0:0:
256,192,6104,1,0,0:0:0:0:
256,192,6802,1,0,0:0:0:0:
256,192,7500,1,0,0:0:0:0:
256,192,8023,1,0,0:0:0:0:
256,192,8547,1,0,0:0:0:0:
256,192,8896,1,0,0:0:0:0:
256,192,9244,1,0,0:0:0:0:
256,192,9593,1,0,0:0:0:0:
256,192,9942,1,0,0:0:0:0:
256,192,10291,1,0,0:0:0:0:
256,192,10466,1,0,0:0:0:0:
256,192,10640,1,0,0:0:0:0:
256,192,10815,1,0,0:0:0:0:
256,192,10989,2,0,L|112:192,1,140
256,192,11687,1,4,0:0:0:0:
256,192,12036,5,8,0:0:0:0:
256,192,12385,5,0,0:0:0:0:
256,192,12559,1,0,0:0:0:0:
256,192,12734,5,8,0:0:0:0:
256,192,12908,1,8,0:0:0:0:
256,192,13083,5,0,0:0:0:0:
256,192,13431,5,8,0:0:0:0:
256,192,13780,5,0,0:0:0:0:
256,192,13955,1,0,0:0:0:0:
256,192,14129,5,8,0:0:0:0:
256,192,14478,5,4,0:0:0:0:
256,192,14827,5,12,0:0:0:0:
256,192,15176,5,0,0:0:0:0:
256,192,15351,1,0,0:0:0:0:
256,192,15525,5,8,0:0:0:0:
256,192,15699,1,8,0:0:0:0:
256,192,15874,5,0,0:0:0:0:
256,192,16223,5,8,0:0:0:0:
256,192,16572,5,0,0:0:0:0:
256,192,16746,1,0,0:0:0:0:
256,192,16921,5,8,0:0:0:0:
256,192,17270,5,4,0:0:0:0:
256,192,17618,5,12,0:0:0:0:
256,192,17967,5,0,0:0:0:0:
256,192,18142,1,0,0:0:0:0:
256,192,18316,5,8,0:0:0:0:
256,192,18491,1,8,0:0:0:0:
256,192,18665,5,0,0:0:0:0:
256,192,19014,5,8,0:0:0:0:
256,192,19189,5,0,0:0:0:0:
256,192,19538,1,0,0:0:0:0:
256,192,19712,5,8,0:0:0:0:
256,192,20061,5,4,0:0:0:0:
256,192,20584,5,12,0:0:0:0:
256,192,21108,5,4,0:0:0:0:
256,192,21631,5,12,0:0:0:0:
256,192,22154,5,4,0:0:0:0:
256,192,22503,5,12,0:0:0:0:
256,192,22852,5,0,0:0:0:0:
256,192,23201,5,8,0:0:0:0:
256,192,23725,5,0,0:0:0:0:
256,192,23899,5,8,0:0:0:0:
256,192,24248,5,0,0:0:0:0:
256,192,24597,5,8,0:0:0:0:
256,192,24946,5,0,0:0:0:0:
256,192,25120,1,0,0:0:0:0:
256,192,25295,5,8,0:0:0:0:
256,192,25644,5,0,0:0:0:0:
256,192,25993,5,8,0:0:0:0:
256,192,26516,5,0,0:0:0:0:
256,192,26690,5,8,0:0:0:0:
256,192,27039,5,0,0:0:0:0:
256,192,27388,5,8,0:0:0:0:
256,192,27563,1,8,0:0:0:0:
256,192,27737,5,0,0:0:0:0:
256,192,27912,1,0,0:0:0:0:
256,192,28086,5,8,0:0:0:0:
256,192,28261,5,0,0:0:0:0:
256,192,28435,1,0,0:0:0:0:
256,192,28784,5,8,0:0:0:0:
256,192,29307,5,0,0:0:0:0:
256,192,29482,5,8,0:0:0:0:
256,192,29831,5,0,0:0:0:0:
256,192,30180,5,8,0:0:0:0:
256,192,30354,5,0,0:0:0:0:
256,192,30703,1,0,0:0:0:0:
256,192,30877,5,8,0:0:0:0:
256,192,31052,1,8,0:0:0:0:
256,192,31226,5,4,0:0:0:0:
256,192,31750,5,12,0:0:0:0:
256,192,32273,5,4,0:0:0:0:
256,192,32796,5,12,0:0:0:0:
256,192,33320,5,4,0:0:0:0:
256,192,33669,5,12,0:0:0:0:
256,192,34018,5,4,0:0:0:0:
256,192,34715,5,8,0:0:0:0:
256,192,34890,1,8,0:0:0:0:
256,192,35064,1,8,0:0:0:0:
256,192,35239,1,8,0:0:0:0:
256,192,35588,1,8,0:0:0:0:
256,192,35762,1,8,0:0:0:0:
256,192,35937,1,8,0:0:0:0:
256,192,36111,1,8,0:0:0:0:
256,192,36460,1,8,0:0:0:0:
256,192,36809,5,0,0:0:0:0:
256,192,37158,5,8,0:0:0:0:
256,192,37332,1,8,0:0:0:0:
256,192,37507,1,8,0:0:0:0:
256,192,37681,1,8,0:0:0:0:
256,192,37856,1,8,0:0:0:0:
256,192,38030,1,8,0:0:0:0:
256,192,38379,1,8,0:0:0:0:
256,192,38554,1,8,0:0:0:0:
256,192,38903,1,8,0:0:0:0:
256,192,39077,1,8,0:0:0:0:
256,192,39251,1,8,0:0:0:0:
256,192,39600,5,0,0:0:0:0:
256,192,39949,5,8,0:0:0:0:
256,192,40124,1,8,0:0:0:0:
256,192,40298,1,8,0:0:0:0:
256,192,40473,1,8,0:0:0:0:
256,192,40647,1,8,0:0:0:0:
256,192,40822,1,8,0:0:0:0:
256,192,41170,1,8,0:0:0:0:
256,192,41345,1,8,0:0:0:0:
256,192,41694,1,8,0:0:0:0:
256,192,41868,1,8,0:0:0:0:
256,192,42043,1,8,0:0:0:0:
256,192,42392,5,0,0:0:0:0:
256,192,42741,5,8,0:0:0:0:
256,192,43090,1,8,0:0:0:0:
256,192,43264,1,8,0:0:0:0:
256,192,43438,1,8,0:0:0:0:
256,192,43613,1,8,0:0:0:0:
256,192,43962,1,8,0:0:0:0:
256,192,44136,5,0,0:0:0:0:
256,192,44311,1,0,0:0:0:0:
256,192,44485,5,12,0:0:0:0:
256,192,44834,1,12,0:0:0:0:
256,192,45183,5,0,0:0:0:0:
256,192,45270,1,0,0:0:0:0:
256,192,45358,1,0,0:0:0:0:
256,192,45532,5,8,0:0:0:0:
256,192,45706,1,8,0:0:0:0:
256,192,45881,5,0,0:0:0:0:
256,192,46055,1,0,0:0:0:0:
256,192,46230,5,8,0:0:0:0:
256,192,46404,5,0,0:0:0:0:
256,192,46753,1,0,0:0:0:0:
256,192,46928,5,8,0:0:0:0:
256,192,47102,1,8,0:0:0:0:
256,192,47277,5,0,0:0:0:0:
256,192,47364,1,0,0:0:0:0:
256,192,47451,5,8,0:0:0:0:
256,192,47625,1,8,0:0:0:0:
256,192,47974,5,0,0:0:0:0:
256,192,48062,1,0,0:0:0:0:
256,192,48149,1,0,0:0:0:0:
256,192,48323,5,8,0:0:0:0:
256,192,48498,1,8,0:0:0:0:
256,192,48672,5,0,0:0:0:0:
256,192,48847,5,8,0:0:0:0:
256,192,49021,1,8,0:0:0:0:
256,192,49196,5,0,0:0:0:0:
256,192,49545,1,0,0:0:0:0:
256,192,49719,5,8,0:0:0:0:
256,192,49893,1,8,0:0:0:0:
256,192,50068,5,0,0:0:0:0:
256,192,50155,1,0,0:0:0:0:
256,192,50242,1,0,0:0:0:0:
256,192,50417,5,8,0:0:0:0:
256,192,50766,5,0,0:0:0:0:
256,192,50853,1,0,0:0:0:0:
256,192,50940,1,0,0:0:0:0:
256,192,51115,5,8,0:0:0:0:
256,192,51289,1,8,0:0:0:0:
256,192,51464,5,0,0:0:0:0:
256,192,51638,1,0,0:0:0:0:
256,192,51812,5,8,0:0:0:0:
256,192,51987,5,0,0:0:0:0:
256,192,52336,1,0,0:0:0:0:
256,192,52510,5,8,0:0:0:0:
256,192,52685,1,8,0:0:0:0:
256,192,52859,5,0,0:0:0:0:
256,192,52946,1,0,0:0:0:0:
256,192,53034,5,8,0:0:0:0:
256,192,53208,1,8,0:0:0:0:
256,192,53557,5,0,0:0:0:0:
256,192,53644,1,0,0:0:0:0:
256,192,53732,1,0,0:0:0:0:
256,192,53906,5,8,0:0:0:0:
256,192,54080,1,8,0:0:0:0:
256,192,54255,5,0,0:0:0:0:
256,192,54429,1,0,0:0:0:0:
256,192,54604,5,8,0:0:0:0:
256,192,54778,5,0,0:0:0:0:
256,192,55127,1,0,0:0:0:0:
256,192,55302,1,0,0:0:0:0:
256,192,55476,1,0,0:0:0:0:
256,192,55651,1,0,0:0:0:0:
256,192,55825,5,8,0:0:0:0:
256,192,56000,1,8,0:0:0:0:
256,192,56174,1,8,0:0:0:0:
256,192,56348,5,4,0:0:0:0:
256,192,56697,5,8,0:0:0:0:
256,192,57046,5,0,0:0:0:0:
256,192,57221,1,0,0:0:0:0:
256,192,57395,5,8,0:0:0:0:
256,192,57570,1,8,0:0:0:0:
256,192,57744,5,0,0:0:0:0:
256,192,58093,5,8,0:0:0:0:
256,192,58442,5,0,0:0:0:0:
256,192,58616,1,0,0:0:0:0:
256,192,58791,5,8,0:0:0:0:
256,192,59140,5,0,0:0:0:0:
256,192,59489,5,8,0:0:0:0:
256,192,59663,1,8,0:0:0:0:
256,192,59838,5,0,0:0:0:0:
256,192,60012,1,0,0:0:0:0:
256,192,60187,5,8,0:0:0:0:
256,192,60535,5,0,0:0:0:0:
256,192,60884,5,8,0:0:0:0:
256,192,61059,1,8,0:0:0:0:
256,192,61233,5,0,0:0:0:0:
256,192,61582,5,8,0:0:0:0:
256,192,61931,5,0,0:0:0:0:
256,192,62280,5,8,0:0:0:0:
256,192,62455,1,8,0:0:0:0:
256,192,62629,5,0,0:0:0:0:
256,192,62803,1,0,0:0:0:0:
256,192,62978,5,8,0:0:0:0:
256,192,63152,1,8,0:0:0:0:
256,192,63327,5,0,0:0:0:0:
256,192,63676,5,8,0:0:0:0:
256,192,63850,5,0,0:0:0:0:
256,192,64199,1,0,0:0:0:0:
256,192,64374,5,8,0:0:0:0:
256,192,64722,5,4,0:0:0:0:
256,192,65246,5,12,0:0:0:0:
256,192,65769,5,4,0:0:0:0:
256,192,66293,5,12,0:0:0:0:
256,192,66816,5,4,0:0:0:0:
256,192,67165,5,12,0:0:0:0:
256,192,67514,5,0,0:0:0:0:
256,192,68037,1,0,0:0:0:0:
256,192,68561,1,0,0:0:0:0:
256,192,69084,1,0,0:0:0:0:
256,192,69258,1,0,0:0:0:0:
256,192,69607,1,0,0:0:0:0:
256,192,69956,1,0,0:0:0:0:
256,192,70305,5,12,0:0:0:0:
256,192,75888,5,0,0:0:0:0:
256,192,76935,1,0,0:0:0:0:
256,192,77284,1,0,0:0:0:0:
256,192,77807,1,0,0:0:0:0:
256,192,78330,1,0,0:0:0:0:
256,192,78679,1,0,0:0:0:0:
256,192,79726,1,0,0:0:0:0:
256,192,80075,1,0,0:0:0:0:
256,192,80598,1,0,0:0:0:0:
256,192,80947,1,0,0:0:0:0:
256,192,81122,1,0,0:0:0:0:
256,192,81296,1,0,0:0:0:0:
256,192,81471,5,8,0:0:0:0:
256,192,81819,1,8,0:0:0:0:
256,192,82168,1,8,0:0:0:0:
256,192,82343,1,8,0:0:0:0:
256,192,82517,1,8,0:0:0:0:
256,192,82866,1,8,0:0:0:0:
256,192,83215,1,8,0:0:0:0:
256,192,83390,1,8,0:0:0:0:
256,192,83739,1,8,0:0:0:0:
256,192,83913,1,8,0:0:0:0:
256,192,84262,1,8,0:0:0:0:
256,192,84611,1,8,0:0:0:0:
256,192,84785,1,8,0:0:0:0:
256,192,84960,1,8,0:0:0:0:
256,192,85134,1,8,0:0:0:0:
256,192,85309,1,8,0:0:0:0:
256,192,85483,1,8,0:0:0:0:
256,192,85658,5,0,0:0:0:0:
256,192,85745,1,0,0:0:0:0:
256,192,85832,1,0,0:0:0:0:
256,192,86006,1,0,0:0:0:0:
256,192,86094,1,0,0:0:0:0:
256,192,86181,1,0,0:0:0:0:
256,192,86355,2,0,L|112:192,1,140
256,192,87053,1,4,0:0:0:0:
256,192,87402,5,12,0:0:0:0:
256,192,87751,5,0,0:0:0:0:
256,192,87926,1,0,0:0:0:0:
256,192,88100,5,8,0:0:0:0:
256,192,88274,1,8,0:0:0:0:
256,192,88449,5,0,0:0:0:0:
256,192,88798,5,8,0:0:0:0:
256,192,89147,5,0,0:0:0:0:
256,192,89321,1,0,0:0:0:0:
256,192,89496,5,8,0:0:0:0:
256,192,89845,5,4,0:0:0:0:
256,192,90194,5,12,0:0:0:0:
256,192,90542,5,0,0:0:0:0:
256,192,90717,1,0,0:0:0:0:
256,192,90891,5,8,0:0:0:0:
256,192,91066,1,8,0:0:0:0:
256,192,91240,5,0,0:0:0:0:
256,192,91589,5,8,0:0:0:0:
256,192,91764,1,8,0:0:0:0:
256,192,91938,5,0,0:0:0:0:
256,192,92287,5,8,0:0:0:0:
256,192,92636,5,4,0:0:0:0:
256,192,92985,5,12,0:0:0:0:
256,192,93334,5,0,0:0:0:0:
256,192,93508,1,0,0:0:0:0:
256,192,93683,5,8,0:0:0:0:
256,192,93857,1,8,0:0:0:0:
256,192,94032,5,0,0:0:0:0:
256,192,94381,5,8,0:0:0:0:
256,192,94555,5,0,0:0:0:0:
256,192,94904,1,0,0:0:0:0:
256,192,95078,5,8,0:0:0:0:
256,192,95253,1,8,0:0:0:0:
256,192,95427,5,4,0:0:0:0:
256,192,95951,5,12,0:0:0:0:
256,192,96474,5,4,0:0:0:0:
256,192,96997,5,12,0:0:0:0:
256,192,97521,5,4,0:0:0:0:
256,192,97870,5,12,0:0:0:0:
256,192,98219,5,0,0:0:0:0:
256,192,98393,1,0,0:0:0:0:
256,192,98568,1,0,0:0:0:0:
256,192,98742,1,0,0:0:0:0:
256,192,99091,1,0,0:0:0:0:
256,192,99265,1,0,0:0:0:0:
256,192,99614,1,0,0:0:0:0:
256,192,99789,1,0,0:0:0:0:
256,192,100138,1,0,0:0:0:0:
256,192,100312,1,0,0:0:0:0:
256,192,100661,5,12,0:0:0:0:
256,192,101010,5,0,0:0:0:0:
256,192,101359,5,8,0:0:0:0:
256,192,101533,1,8,0:0:0:0:
256,192,101708,5,0,0:0:0:0:
256,192,101882,1,0,0:0:0:0:
256,192,102057,5,8,0:0:0:0:
256,192,102231,5,0,0:0:0:0:
256,192,102580,1,0,0:0:0:0:
256,192,102755,5,8,0:0:0:0:
256,192,102929,1,8,0:0:0:0:
256,192,103103,5,0,0:0:0:0:
256,192,103278,5,8,0:0:0:0:
256,192,103452,1,8,0:0:0:0:
256,192,103801,5,0,0:0:0:0:
256,192,104150,5,8,0:0:0:0:
256,192,104325,1,8,0:0:0:0:
256,192,104499,5,0,0:0:0:0:
256,192,104674,1,0,0:0:0:0:
256,192,104848,5,8,0:0:0:0:
256,192,105023,5,0,0:0:0:0:
256,192,105371,1,0,0:0:0:0:
256,192,105546,5,8,0:0:0:0:
256,192,105720,1,8,0:0:0:0:
256,192,105895,5,0,0:0:0:0:
256,192,105982,1,0,0:0:0:0:
256,192,106069,1,0,0:0:0:0:
256,192,106244,5,8,0:0:0:0:
256,192,106593,5,0,0:0:0:0:
256,192,106942,5,8,0:0:0:0:
256,192,107116,1,8,0:0:0:0:
256,192,107291,5,0,0:0:0:0:
256,192,107465,1,0,0:0:0:0:
256,192,107639,5,8,0:0:0:0:
256,192,107814,5,0,0:0:0:0:
256,192,108163,1,0,0:0:0:0:
256,192,108337,5,8,0:0:0:0:
256,192,108512,1,8,0:0:0:0:
256,192,108686,5,0,0:0:0:0:
256,192,108861,5,8,0:0:0:0:
256,192,109035,1,8,0:0:0:0:
256,192,109384,5,0,0:0:0:0:
256,192,109733,5,8,0:0:0:0:
256,192,109907,1,8,0:0:0:0:
256,192,110082,5,0,0:0:0:0:
256,192,110256,1,0,0:0:0:0:
256,192,110431,5,8,0:0:0:0:
256,192,110605,5,0,0:0:0:0:
256,192,110954,1,0,0:0:0:0:
256,192,111129,5,8,0:0:0:0:
256,192,111303,1,8,0:0:0:0:
256,192,111478,1,8,0:0:0:0:
256,192,111565,1,8,0:0:0:0:
256,192,111652,1,8,0:0:0:0:
256,192,111826,1,8,0:0:0:0:
256,192,112175,5,0,0:0:0:0:
256,192,112437,1,0,0:0:0:0:
256,192,112524,5,8,0:0:0:0:
256,192,112699,1,8,0:0:0:0:
256,192,112873,5,0,0:0:0:0:
256,192,113048,1,0,0:0:0:0:
256,192,113222,5,8,0:0:0:0:
256,192,113397,5,0,0:0:0:0:
256,192,113746,1,0,0:0:0:0:
256,192,113920,5,8,0:0:0:0:
256,192,114007,1,8,0:0:0:0:
256,192,114094,1,8,0:0:0:0:
256,192,114269,5,0,0:0:0:0:
256,192,114443,1,0,0:0:0:0:
256,192,114618,5,8,0:0:0:0:
256,192,114967,5,0,0:0:0:0:
256,192,115228,1,0,0:0:0:0:
256,192,115316,5,8,0:0:0:0:
256,192,115490,1,8,0:0:0:0:
256,192,115665,5,0,0:0:0:0:
256,192,115839,1,0,0:0:0:0:
256,192,116013,5,8,0:0:0:0:
256,192,116188,1,8,0:0:0:0:
256,192,116537,5,0,0:0:0:0:
256,192,116711,5,8,0:0:0:0:
256,192,116799,1,8,0:0:0:0:
256,192,116886,1,8,0:0:0:0:
256,192,117060,5,0,0:0:0:0:
256,192,117235,5,0,0:0:0:0:
256,192,117409,5,8,0:0:0:0:
256,192,117758,1,0,0:0:0:0:
256,192,118020,1,0,0:0:0:0:
256,192,118107,5,8,0:0:0:0:
256,192,118281,1,8,0:0:0:0:
256,192,118456,5,0,0:0:0:0:
256,192,118630,1,0,0:0:0:0:
256,192,118805,5,8,0:0:0:0:
256,192,118979,5,0,0:0:0:0:
256,192,119328,1,0,0:0:0:0:
256,192,119503,5,8,0:0:0:0:
256,192,119590,1,8,0:0:0:0:
256,192,119677,1,8,0:0:0:0:
256,192,119852,5,0,0:0:0:0:
256,192,120026,1,0,0:0:0:0:
256,192,120200,5,8,0:0:0:0:
256,192,120549,5,0,0:0:0:0:
256,192,120811,1,0,0:0:0:0:
256,192,120898,5,8,0:0:0:0:
256,192,121073,1,8,0:0:0:0:
256,192,121247,5,0,0:0:0:0:
256,192,121422,1,0,0:0:0:0:
256,192,121596,5,8,0:0:0:0:
256,192,121771,5,0,0:0:0:0:
256,192,122120,2,0,L|176:192,5,70
256,192,123341,5,0,0:0:0:0:
256,192,123602,5,0,0:0:0:0:
256,192,123690,5,8,0:0:0:0:
256,192,123864,1,8,0:0:0:0:
256,192,124039,5,0,0:0:0:0:
256,192,124126,1,0,0:0:0:0:
256,192,124213,1,0,0:0:0:0:
256,192,124388,5,8,0:0:0:0:
256,192,124562,1,8,0:0:0:0:
256,192,124911,5,0,0:0:0:0:
256,192,124998,1,0,0:0:0:0:
256,192,125085,1,0,0:0:0:0:
256,192,125260,1,0,0:0:0:0:
256,192,125434,5,8,0:0:0:0:
256,192,125521,1,8,0:0:0:0:
256,192,125609,1,8,0:0:0:0:
256,192,125696,1,8,0:0:0:0:
256,192,125783,1,8,0:0:0:0:
256,192,126132,5,0,0:0:0:0:
256,192,126394,1,0,0:0:0:0:
256,192,126481,5,8,0:0:0:0:
256,192,126655,1,8,0:0:0:0:
256,192,126830,5,0,0:0:0:0:
256,192,126917,1,0,0:0:0:0:
256,192,127004,1,0,0:0:0:0:
256,192,127179,5,8,0:0:0:0:
256,192,127353,1,8,0:0:0:0:
256,192,127702,5,0,0:0:0:0:
256,192,127789,1,0,0:0:0:0:
256,192,127877,5,8,0:0:0:0:
256,192,128051,1,8,0:0:0:0:
256,192,128226,5,0,0:0:0:0:
256,192,128313,1,0,0:0:0:0:
256,192,128400,5,8,0:0:0:0:
256,192,128575,1,8,0:0:0:0:
256,192,128923,5,0,0:0:0:0:
256,192,129185,1,0,0:0:0:0:
256,192,129272,5,8,0:0:0:0:
256,192,129447,1,8,0:0:0:0:
256,192,129621,5,0,0:0:0:0:
256,192,129709,1,0,0:0:0:0:
256,192,129796,1,0,0:0:0:0:
256,192,129970,5,8,0:0:0:0:
256,192,130145,1,8,0:0:0:0:
256,192,130494,5,0,0:0:0:0:
256,192,130581,1,0,0:0:0:0:
256,192,130668,1,0,0:0:0:0:
256,192,130843,1,0,0:0:0:0:
256,192,131017,5,8,0:0:0:0:
256,192,131104,1,8,0:0:0:0:
256,192,131191,1,8,0:0:0:0:
256,192,131279,1,8,0:0:0:0:
256,192,131366,1,8,0:0:0:0:
256,192,131715,5,0,0:0:0:0:
256,192,131976,1,0,0:0:0:0:
256,192,132064,5,8,0:0:0:0:
256,192,132238,1,8,0:0:0:0:
256,192,132413,5,0,0:0:0:0:
256,192,132500,1,0,0:0:0:0:
256,192,132587,1,0,0:0:0:0:
256,192,132762,5,8,0:0:0:0:
256,192,132849,1,8,0:0:0:0:
256,192,132936,1,8,0:0:0:0:
256,192,133110,5,0,0:0:0:0:
256,192,133372,1,0,0:0:0:0:
256,192,133459,5,8,0:0:0:0:
256,192,133634,5,0,0:0:0:0:
256,192,133983,1,0,0:0:0:0:
256,192,134157,5,8,0:0:0:0:
256,192,134332,1,8,0:0:0:0:
256,192,134506,5,4,0:0:0:0:
