osu file format v12

[General]
AudioFilename: Gay Bar.mp3
AudioLeadIn: 0
PreviewTime: 11675
Countdown: 0
SampleSet: Normal
StackLeniency: 0.7
Mode: 2
LetterboxInBreaks: 0
WidescreenStoryboard: 0

[Editor]
DistanceSpacing: 1
BeatDivisor: 4
GridSize: 16

[Metadata]
Title:Gay Bar
TitleUnicode:Gay Bar
Artist:Electric Six
ArtistUnicode:Electric Six
Creator:Deif
Version:Cup
Source:
Tags:Fire Tyler Spencer Dick Valentine OnosakiHito
BeatmapID:327011
BeatmapSetID:129402

[Difficulty]
HPDrainRate:4
CircleSize:2
OverallDifficulty:6
ApproachRate:6
SliderMultiplier:0.999999999999999
SliderTickRate:2

[Events]
//Background and Video events
0,0,"BG.jpg",0,0
//Break Periods
2,76076,80409
//Storyboard Layer 0 (Background)
//Storyboard Layer 1 (Fail)
//Storyboard Layer 2 (Pass)
//Storyboard Layer 3 (Foreground)
//Storyboard Sound Samples
//Background Colour Transformations
3,100,163,162,255

[TimingPoints]
522,348.918353105373,4,1,2,60,1,0
20061,-100,4,3,1,70,0,0
22852,-100,4,1,2,60,0,0
31226,-100,4,3,1,70,0,0
34018,-100,4,1,2,60,0,0
45183,-100,4,1,0,75,0,1
55127,-100,4,3,0,75,0,1
55476,-100,4,3,0,70,0,1
55825,-100,4,3,0,65,0,1
56348,-100,4,1,2,60,0,0
64722,-100,4,3,1,70,0,0
67514,-100,4,1,0,70,0,0
69695,-100,4,1,0,35,0,0
69956,-100,4,1,0,70,0,0
70218,-100,4,2,0,50,0,0
71614,-100,4,2,0,40,0,0
73009,-100,4,2,0,30,0,0
74405,-100,4,2,0,20,0,0
75452,-100,4,2,0,10,0,0
75888,-100,4,1,0,30,0,0
81471,-100,4,3,1,40,0,0
84262,-100,4,1,0,50,0,0
85658,-100,4,1,2,60,0,0
86355,-100,4,3,1,60,0,0
87053,-100,4,1,2,60,0,0
95427,-100,4,3,1,70,0,0
98219,-100,4,1,0,70,0,0
100399,-100,4,1,0,35,0,0
100661,-100,4,1,0,70,0,0
101010,-100,4,1,0,50,0,0
112175,-100,4,1,0,75,0,1
123166,-100,4,1,0,75,0,0
123341,-100,4,1,0,75,0,1
134506,-100,4,1,0,60,0,0
137297,-100,4,1,0,40,0,0

[Colours]
Combo1 : 117,7,135
Combo2 : 228,3,3
Combo3 : 255,140,0
Combo4 : 255,237,0
Combo5 : 0,128,38
Combo6 : 0,77,255

[HitObjects]
288,80,11687,6,0,B|192:128|96:80,2,200,12|8|8,0:0|0:0|0:0,0:0:0:0:
400,80,13431,6,0,P|464:144|384:176,1,200,8|8,0:0|0:0,0:0:0:0:
256,176,14478,1,10,0:0:0:0:
112,176,14827,2,0,B|208:224|304:176|304:176|224:240,1,300,10|8,0:0|0:0,0:0:0:0:
112,304,16223,6,0,P|48:240|128:208,1,200,8|8,0:0|0:0,0:0:0:0:
256,208,17270,1,10,0:0:0:0:
400,208,17618,2,0,B|304:160|208:208|208:208|288:144,1,300,10|8,0:0|0:0,0:0:0:0:
400,80,19014,6,0,P|304:48|208:80,1,200,8|8,0:0|0:0,0:0:0:0:
256,192,20061,12,8,22503,0:0:0:0:
112,128,22852,6,0,P|176:224|256:240,2,200,12|8|8,0:0|0:0|0:0,0:0:0:0:
256,144,24597,2,0,L|256:256,2,99.9999999999999,10|10|10,0:0|0:0|0:0,0:0:0:0:
400,128,25644,6,0,P|336:224|256:240,2,200,8|8|8,0:0|0:0|0:0,0:0:0:0:
256,144,27388,2,0,L|256:256,2,99.9999999999999,10|10|10,0:0|0:0|0:0,0:0:0:0:
112,128,28435,6,0,P|208:160|304:128,1,200,8|8,0:0|0:0,0:0:0:0:
208,64,29482,1,8,0:0:0:0:
400,128,29831,2,0,P|304:160|208:128,1,200,8|8,0:0|0:0,0:0:0:0:
304,64,30877,1,8,0:0:0:0:
256,192,31226,12,14,34018,0:0:0:0:
160,224,34715,6,0,B|256:256|256:256|240:304,2,150,10|2|8,0:0|0:0|0:0,0:0:0:0:
48,208,36111,1,8,0:0:0:0:
176,160,36460,1,8,0:0:0:0:
32,144,36809,1,10,0:0:0:0:
352,160,37507,6,0,B|256:128|256:128|272:80,2,150,10|2|8,0:0|0:0|0:0,0:0:0:0:
464,176,38903,1,8,0:0:0:0:
336,224,39251,1,8,0:0:0:0:
480,240,39600,1,10,0:0:0:0:
160,224,40298,6,0,B|80:160|80:160|80:112,2,150,10|2|8,0:0|0:0|0:0,0:0:0:0:
304,224,41694,1,8,0:0:0:0:
192,224,42043,1,8,0:0:0:0:
80,224,42392,1,10,0:0:0:0:
352,160,43090,6,0,B|432:224|432:224|432:272,2,150,10|2|8,0:0|0:0|0:0,0:0:0:0:
224,160,44485,2,0,L|160:240,1,99.9999999999999,0|0,0:0|0:0,0:0:0:0:
32,224,45183,6,0,L|144:224,2,99.9999999999999,6|8|10,0:0|0:0|0:0,0:0:0:0:
192,224,46404,1,2,0:0:0:0:
352,224,46928,2,0,L|320:128,2,99.9999999999999,8|8|8,0:0|0:0|0:0,0:0:0:0:
480,160,47974,6,0,L|368:160,2,99.9999999999999,2|8|10,0:0|0:0|0:0,0:0:0:0:
320,160,49196,1,2,0:0:0:0:
160,160,49719,2,0,L|192:256,2,99.9999999999999,8|8|8,0:0|0:0|0:0,0:0:0:0:
352,224,50766,6,0,L|384:320,2,99.9999999999999,2|8|10,0:0|0:0|0:0,0:0:0:0:
192,224,51987,1,2,0:0:0:0:
352,160,52510,2,0,L|448:112,2,99.9999999999999,8|8|8,0:0|0:0|0:0,0:0:0:0:
160,160,53557,6,0,L|128:64,2,99.9999999999999,2|8|10,0:0|0:0|0:0,0:0:0:0:
320,160,54778,1,2,0:0:0:0:
160,224,55302,1,8,0:0:0:0:
320,224,55651,1,8,0:0:0:0:
192,224,56000,1,8,0:0:0:0:
352,224,56348,6,0,P|288:304|192:304,2,200,14|8|8,0:0|0:0|0:0,0:0:0:0:
224,224,58093,1,10,0:0:0:0:
352,224,58442,1,10,0:0:0:0:
224,224,58791,1,10,0:0:0:0:
96,160,59140,6,0,P|160:80|256:80,2,200,10|8|8,0:0|0:0|0:0,0:0:0:0:
224,160,60884,1,10,0:0:0:0:
96,160,61233,1,10,0:0:0:0:
224,160,61582,1,0,0:0:0:0:
352,160,61931,6,0,P|256:192|160:160,1,200,8|8,0:0|0:0,0:0:0:0:
304,96,62978,1,8,0:0:0:0:
160,224,63327,2,0,P|256:192|352:224,1,200,8|8,0:0|0:0,0:0:0:0:
208,288,64374,1,8,0:0:0:0:
256,192,64722,12,8,67165,0:0:0:0:
320,192,67514,5,0,0:0:0:0:
128,192,68037,1,0,0:0:0:0:
352,192,68561,1,0,0:0:0:0:
160,192,69084,1,0,0:0:0:0:
384,192,69607,2,0,L|288:160,1,99.9999999999999,0|0,0:0|0:0,0:0:0:0:
256,192,70305,12,2,75888,0:0:0:0:
32,192,81471,6,0,L|32:80,1,99.9999999999999,8|8,0:0|0:0,0:0:0:0:
144,192,82168,2,0,L|144:92,1,99.9999999999999,8|8,0:0|0:0,0:0:0:0:
256,192,82866,2,0,L|256:92,1,99.9999999999999,8|8,0:0|0:0,0:0:0:0:
368,192,83564,2,0,L|368:92,1,99.9999999999999,8|8,0:0|0:0,0:0:0:0:
480,192,84262,5,2,0:0:0:0:
256,192,84960,1,2,0:0:0:0:
32,192,85658,6,0,L|0:96,1,99.9999999999999,8|8,0:0|0:0,0:0:0:0:
144,192,86355,2,0,L|144:80,1,99.9999999999999,8|8,0:0|0:0,0:0:0:0:
256,192,87053,6,0,L|368:192,1,99.9999999999999,14|10,0:0|0:0,0:0:0:0:
480,192,87751,2,0,L|368:192,1,99.9999999999999,8|8,0:0|0:0,0:0:0:0:
256,192,88449,2,0,P|176:176|160:112,2,150,8|0|10,0:0|0:0|0:0,0:0:0:0:
368,192,89845,6,0,L|256:192,1,99.9999999999999,10|10,0:0|0:0,0:0:0:0:
160,192,90542,2,0,L|272:192,1,99.9999999999999,8|8,0:0|0:0,0:0:0:0:
368,192,91240,2,0,P|448:192|480:128,2,150,8|0|10,0:0|0:0|0:0,0:0:0:0:
256,192,92636,6,0,L|144:192,1,99.9999999999999,10|10,0:0|0:0,0:0:0:0:
32,192,93334,2,0,L|144:192,1,99.9999999999999,8|8,0:0|0:0,0:0:0:0:
256,192,94032,2,0,P|336:208|352:272,2,150,8|0|8,0:0|0:0|0:0,0:0:0:0:
256,192,95427,12,8,97870,0:0:0:0:
192,192,98219,5,0,0:0:0:0:
384,192,98742,1,0,0:0:0:0:
160,192,99265,1,0,0:0:0:0:
352,192,99789,1,0,0:0:0:0:
128,192,100312,2,0,P|112:144|128:96,1,99.9999999999999,0|2,0:0|0:0,0:0:0:0:
288,96,101010,6,0,P|384:113|368:193,1,200,4|8,0:0|0:0,0:0:0:0:
192,193,102231,1,0,0:0:0:0:
368,193,102755,2,0,L|448:257,2,99.9999999999999,8|8|8,0:0|0:0|0:0,0:0:0:0:
224,288,103801,6,0,P|128:271|144:191,1,200,0|8,0:0|0:0,0:0:0:0:
320,191,105023,1,0,0:0:0:0:
144,191,105546,2,0,L|64:127,2,99.9999999999999,8|8|8,0:0|0:0|0:0,0:0:0:0:
304,144,106593,6,0,P|416:176|432:256,1,200,0|8,0:0|0:0,0:0:0:0:
256,272,107814,1,0,0:0:0:0:
80,256,108337,2,0,L|16:352,2,99.9999999999999,8|8|8,0:0|0:0|0:0,0:0:0:0:
208,144,109384,6,0,P|96:176|80:256,1,200,0|8,0:0|0:0,0:0:0:0:
256,272,110605,1,0,0:0:0:0:
432,256,111129,2,0,L|496:352,2,99.9999999999999,8|8|0,0:0|0:0|0:0,0:0:0:0:
288,192,112175,5,6,0:0:0:0:
160,192,112524,1,8,0:0:0:0:
288,192,112873,2,0,P|368:240|368:288,2,150,10|2|8,0:0|0:0|0:0,0:0:0:0:
159,192,114269,2,0,P|112:208|64:192,1,99.9999999999999,8|8,0:0|0:0,0:0:0:0:
224,192,114967,5,2,0:0:0:0:
352,192,115316,1,8,0:0:0:0:
224,192,115665,2,0,P|144:144|144:96,2,150,10|2|8,0:0|0:0|0:0,0:0:0:0:
353,192,117060,2,0,P|400:176|448:192,1,99.9999999999999,8|8,0:0|0:0,0:0:0:0:
288,256,117758,5,2,0:0:0:0:
416,256,118107,1,8,0:0:0:0:
288,256,118456,2,0,P|224:224|144:240,2,150,10|2|8,0:0|0:0|0:0,0:0:0:0:
416,256,119852,2,0,L|384:160,1,99.9999999999999,8|8,0:0|0:0,0:0:0:0:
224,128,120549,5,2,0:0:0:0:
96,128,120898,1,8,0:0:0:0:
224,128,121247,2,0,P|288:160|368:144,2,150,10|2|10,0:0|0:0|0:0,0:0:0:0:
96,128,122643,2,0,L|128:224,1,99.9999999999999,0|0,0:0|0:0,0:0:0:0:
288,224,123341,6,0,L|384:192,2,99.9999999999999,6|10|10,0:0|0:0|0:0,0:0:0:0:
96,224,124562,1,2,0:0:0:0:
288,224,125085,2,0,L|208:160,1,99.9999999999999,8|8,0:0|0:0,0:0:0:0:
80,224,125783,1,8,0:0:0:0:
224,224,126132,6,0,P|272:272|304:272,2,99.9999999999999,2|10|10,0:0|0:0|0:0,0:0:0:0:
416,192,127353,1,2,0:0:0:0:
224,160,127877,2,0,P|320:160|384:80,1,200,8|8,0:0|0:0,0:0:0:0:
224,160,128923,6,0,L|128:192,2,99.9999999999999,2|10|10,0:0|0:0|0:0,0:0:0:0:
416,160,130145,1,2,0:0:0:0:
224,160,130668,2,0,L|304:224,1,99.9999999999999,8|8,0:0|0:0,0:0:0:0:
432,160,131366,1,8,0:0:0:0:
288,160,131715,6,0,P|240:112|208:112,2,99.9999999999999,2|10|10,0:0|0:0|0:0,0:0:0:0:
96,192,132936,1,2,0:0:0:0:
176,288,133459,5,8,0:0:0:0:
336,288,133808,1,0,0:0:0:0:
256,192,134157,1,0,0:0:0:0:
256,192,134506,12,2,138693,0:0:0:0:
