osu file format v5

[General]
AudioFilename: Electric Six - Gay Bar.mp3
AudioLeadIn: 0
PreviewTime: 22219
Countdown: 0
SampleSet: Normal
StackLeniency: 0.7
Mode: 0
LetterboxInBreaks: 0
StoryFireInFront: 0

[Editor]
Bookmarks: 69843,86587,100541
DistanceSpacing: 0.800000011920929
BeatDivisor: 4
GridSize: 8

[Metadata]
Title:Gay Bar
Artist:Electric Six
Creator:Agent Spin Here
Version:Normal
Source:
Tags:jarto

[Difficulty]
HPDrainRate:4
CircleSize:4
OverallDifficulty:4
SliderMultiplier:2
SliderTickRate:0.5

[Events]
//Background and Video events
0,0,"thumbnail-1.png"
//Break Periods
2,33775,42720
2,70054,85848
2,100752,110964
//Storyboard Layer 0 (Background)
//Storyboard Layer 1 (Fail)
//Storyboard Layer 2 (Pass)
//Storyboard Layer 3 (Foreground)
//Storyboard Sound Samples
//Background Colour Transformations
3,100,163,162,255

[TimingPoints]
11250,348.837209302326,4,1,0,60,1,0
133866,-100,4,1,0,100,0,0
134040,-100,4,1,0,100,0,1

[HitObjects]
88,128,11249,6,0,B|48:240|192:304,1,200,4|0
256,160,11947,1,8
336,296,12296,1,0
400,144,12645,2,0,B|376:64|296:32|216:40,1,200,0|8
400,144,13343,2,0,B|392:240|480:320|512:320,1,200,0|8
176,336,14040,6,2,B|96:336|48:272|56:208|80:168,1,200,2|0
64,40,14738,1,8
200,120,15087,1,0
344,48,15436,2,0,B|448:72|464:152|448:232,1,200,0|8
384,336,16133,2,0,B|360:200|232:216,1,200,0|8
136,320,16831,6,2,B|40:232|144:128,1,200,2|0
256,48,17529,1,8
384,144,17877,1,0
256,240,18226,2,0,B|272:368|440:368|464:216,2,300
120,328,19622,5,8
120,328,20145,1,4
392,328,20668,5,8
392,328,21191,1,4
216,168,21715,6,6,B|248:256|256:288|264:256|296:160,1,200,6|4
136,184,22412,6,8,B|120:96|192:32|264:64,1,200,0|0
392,112,23110,1,8
392,112,23459,1,0
408,272,23808,2,0,B|368:352|304:312|248:272|216:344,1,200,0|8
96,232,24505,2,0,B|56:136|72:64|176:64,1,200,0|12
296,56,25203,6,0,B|392:32|440:96|456:176,1,200
288,160,25901,2,0,B|288:240|344:296|432:272,1,200,8|0
264,328,26598,1,0
112,280,26947,1,8
208,152,27296,1,4
48,120,27645,1,8
192,56,27994,6,0,B|296:24|408:80|440:136|440:224|408:272|368:312,1,400,0|8
168,336,29040,1,0
168,336,29389,2,0,B|136:248|72:224|48:264|40:176,1,200,0|8
200,192,30087,2,0,B|264:80|376:112|384:136,1,200,0|8
256,192,30784,12,4,33226
256,192,33575,5,14
128,208,44040,6,0,B|136:296|208:312,3,100
248,320,44738,6,2,B|360:336|408:232|424:184,1,200
320,88,45436,1,2
320,88,45610,1,2
160,96,45959,2,0,B|56:56|0:168|72:296|192:216,1,300,0|8
256,360,46831,1,8
256,200,47180,1,8
368,320,47529,6,2,B|368:216|456:256|480:144,1,200
344,64,48226,1,2
344,64,48401,1,2
184,72,48750,2,0,B|64:56|16:104|16:208|24:248|80:280,1,300,0|8
184,344,49622,1,8
344,320,49970,1,8
464,216,50319,6,2,B|488:136|448:56|352:56,1,200
288,192,51017,1,2
288,192,51191,1,2
168,296,51540,2,0,B|96:256|160:240|208:176|176:120|128:144|88:136|72:88|72:64|152:48,1,300,0|8
280,32,52412,1,8
288,192,52761,1,8
424,112,53110,6,2,B|488:200|480:272|480:304|464:328,1,200
320,336,53808,1,2
320,336,53982,1,2
160,344,54331,2,0,B|80:288|96:168|160:128|200:344|256:112,1,300,0|8
112,64,55203,1,8
264,104,55552,1,8
416,56,55901,6,4,B|496:96|496:144|464:152|400:192|504:248,1,200,4|0
368,344,56598,1,8
256,224,56947,1,0
144,112,57296,2,0,B|0:104|24:256,1,200,0|8
152,312,57994,2,0,B|224:320|272:296|272:192,1,200,0|8
304,40,58691,6,0,B|320:104|408:64|464:96|480:160,1,200,4|0
320,200,59389,1,8
464,272,59738,1,0
312,320,60087,2,0,B|248:344|200:312|216:256|200:208|104:264,1,200,0|8
72,104,60784,2,0,B|152:192|184:16|272:184,1,200,0|8
384,56,61482,2,2,B|448:80|424:152,1,100,0|2
256,304,62180,5,8
256,144,62529,1,0
168,8,62877,2,0,B|256:64|360:8,1,200,0|8
359,168,63575,2,0,B|256:104|170:170,1,200,0|8
120,328,64273,5,8
120,328,64796,1,4
392,328,65319,5,8
392,328,65842,1,4
216,168,66366,6,6,B|248:256|256:288|264:256|296:160,1,200,6|4
144,104,67063,6,8,B|192:24|352:16|456:96,1,300
408,311,68110,2,8,B|342:367|182:359|134:279,1,300,8|8
264,200,69156,1,8
264,200,69505,1,8
264,200,69854,5,12
72,256,86598,6,0,B|88:368|168:368|176:224,1,200,4|0
256,120,87296,1,8
256,280,87645,1,0
440,256,87994,2,0,B|424:368|344:368|336:224,1,200,0|8
336,96,88691,1,8
176,96,89040,1,8
200,256,89389,2,2,B|248:176|256:144|264:176|312:256,1,200,6|0
336,96,90087,5,8
176,96,90436,1,0
40,176,90784,2,0,B|32:256|88:304|128:320|184:304,1,200,0|8
256,184,91482,1,8
360,304,91831,1,8
464,184,92180,2,6,B|448:104|416:72|344:64|320:96|296:64,1,200,6|0
160,80,92877,1,8
32,184,93226,1,0
104,328,93575,2,0,B|160:368|232:368|288:344|320:312,1,200,0|8
184,216,94273,2,0,B|232:248|288:256|328:240|368:200,1,200,0|8
256,192,94970,12,4,97761
40,88,98284,6,4,B|80:160|120:120|144:64|176:40|224:48|256:88|264:112|328:88,1,300
160,288,99331,1,4
400,256,99854,1,0
384,96,100203,5,10
320,240,100552,5,4
80,80,111715,6,2,B|24:160|32:208|120:248,1,200
232,136,112412,1,10
232,136,112587,1,8
296,280,112936,2,0,B|312:208|384:192|432:256|496:232|448:88,1,300,4|8
304,32,113808,1,8
144,48,114156,1,4
64,184,114505,6,2,B|64:248|112:280|128:224|168:192|192:336,1,200
344,336,115203,1,10
344,336,115377,1,8
464,224,115726,2,4,B|376:176|416:136|472:80|416:8|296:64,1,300,4|8
256,208,116598,1,8
256,208,116773,1,0
192,56,117122,1,4
88,272,117645,6,2,B|120:352|176:272|232:280|280:328,1,200
344,336,118168,2,8,B|400:320|432:264,1,100,8|0
456,200,118517,2,4,B|464:112|440:64|392:24|328:16|248:64,1,300,4|8
112,80,119389,1,8
216,200,119738,1,4
56,232,120087,6,2,B|80:168|176:168|224:88,1,200,2|10
352,176,120784,1,10
352,176,120959,1,8
416,320,121308,2,0,B|368:232|320:224|280:248|264:304|224:360|176:312|144:264,1,300,0|8
256,192,121918,12,6,122877
144,264,123226,6,0,B|176:328|248:328,1,100,10|0
296,328,123575,2,0,B|368:320|384:248,1,100,10|0
384,192,123924,2,10,B|376:112|320:104,1,100,10|14
176,104,124447,5,0
176,104,124622,1,8
176,104,124970,2,10,B|176:184|200:192|272:144|296:256,1,200,10|12
168,344,125668,6,2,B|176:256|40:256|48:152,1,200
344,344,126366,2,2,B|336:256|472:256|464:152,1,200
336,80,127063,1,4
176,80,127412,1,8
173,240,127761,6,0,B|173:176|229:152,1,100,0|8
298,158,128110,2,0,B|347:183|346:246,1,100,0|8
360,320,128459,2,2,B|120:320,1,200
256,192,129156,1,2
256,192,129331,1,2
72,48,129680,6,4,B|88:120|136:136|168:112|160:56|192:16|256:40|288:56|296:112,1,300,4|8
256,256,130552,1,8
216,104,130901,1,8
136,240,131250,6,2,B|128:344|288:344,1,200
416,264,131947,1,2
416,264,132122,1,0
360,96,132645,6,12,B|336:40|264:16|232:72|256:200|208:200|152:200|120:160,1,300,8|8
248,344,134040,5,4
