osu file format v14

[General]
AudioFilename: Electric Joy Ride & Fusk Asker - Coco.mp3
AudioLeadIn: 0
PreviewTime: 78166
Countdown: 0
SampleSet: None
StackLeniency: 0.7
Mode: 3
LetterboxInBreaks: 0
SpecialStyle: 0
WidescreenStoryboard: 1

[Editor]
DistanceSpacing: 1.2
BeatDivisor: 4
GridSize: 4
TimelineZoom: 1.9

[Metadata]
Title:Coco
TitleUnicode:Coco
Artist:Electric Joy Ride & Fusk Asker
ArtistUnicode:Electric Joy Ride & Fusk Asker
Creator:c36098651
Version:BPM<0
Source:
Tags:
BeatmapID:745327
BeatmapSetID:331833

[Difficulty]
HPDrainRate:8
CircleSize:7
OverallDifficulty:0
ApproachRate:10
SliderMultiplier:1.4
SliderTickRate:1

[Events]
//Background and Video events
0,0,"BGBG.jpg",0,0
//Break Periods
//Storyboard Layer 0 (Background)
//Storyboard Layer 1 (Fail)
//Storyboard Layer 2 (Pass)
//Storyboard Layer 3 (Foreground)
//Storyboard Sound Samples

[TimingPoints]
120,999999999999,4,2,0,0,1,0
121,-468.75,4,2,0,0,1,0
45120,-100,4,2,0,0,0,0
76995,-4000,4,2,0,0,1,0
78166,-468.75,4,2,0,0,1,0
78634,-468.75,4,2,0,0,1,0

[HitObjects]
402,192,120,5,0,0:0:0:0:
109,192,354,1,0,0:0:0:0:
182,192,940,128,0,1057:0:0:0:0:
329,192,1291,1,0,0:0:0:0:
36,192,1995,1,0,0:0:0:0:
329,192,2229,1,0,0:0:0:0:
329,192,3166,1,0,0:0:0:0:
402,192,3870,1,0,0:0:0:0:
109,192,4104,1,0,0:0:0:0:
182,192,4690,128,0,4807:0:0:0:0:
329,192,5041,1,0,0:0:0:0:
402,192,5510,1,0,0:0:0:0:
256,192,5745,1,0,0:0:0:0:
109,192,5979,1,0,0:0:0:0:
402,192,6916,1,0,0:0:0:0:
256,192,6916,128,0,7151:0:0:0:0:
109,192,6916,128,0,7151:0:0:0:0:
109,192,7268,128,0,7385:0:0:0:0:
256,192,7268,128,0,7385:0:0:0:0:
256,192,7502,128,0,7620:0:0:0:0:
109,192,7502,128,0,7620:0:0:0:0:
402,192,7620,1,0,0:0:0:0:
109,192,7854,1,0,0:0:0:0:
182,192,8440,128,0,8557:0:0:0:0:
329,192,8791,1,0,0:0:0:0:
36,192,9495,1,0,0:0:0:0:
329,192,9729,1,0,0:0:0:0:
329,192,10666,1,0,0:0:0:0:
402,192,11370,1,0,0:0:0:0:
109,192,11604,1,0,0:0:0:0:
182,192,12190,128,0,12307:0:0:0:0:
329,192,12541,1,0,0:0:0:0:
475,192,13010,1,0,0:0:0:0:
256,192,13245,1,0,0:0:0:0:
36,192,13479,1,0,0:0:0:0:
256,192,14416,1,0,0:0:0:0:
182,192,14416,128,0,14651:0:0:0:0:
329,192,14416,128,0,14651:0:0:0:0:
109,192,15120,5,0,0:0:0:0:
475,192,15120,1,0,0:0:0:0:
329,192,15120,1,0,0:0:0:0:
402,192,15354,1,0,0:0:0:0:
256,192,15471,1,0,0:0:0:0:
36,192,15588,1,0,0:0:0:0:
182,192,15705,1,0,0:0:0:0:
329,192,15823,1,0,0:0:0:0:
256,192,16057,1,0,0:0:0:0:
402,192,16057,1,0,0:0:0:0:
36,192,16291,1,0,0:0:0:0:
182,192,16291,1,0,0:0:0:0:
109,192,16526,1,0,0:0:0:0:
256,192,16526,1,0,0:0:0:0:
36,192,16760,1,0,0:0:0:0:
182,192,16760,1,0,0:0:0:0:
109,192,16995,1,0,0:0:0:0:
256,192,16995,1,0,0:0:0:0:
475,192,16995,1,0,0:0:0:0:
402,192,17229,1,0,0:0:0:0:
329,192,17346,1,0,0:0:0:0:
109,192,17463,1,0,0:0:0:0:
182,192,17580,1,0,0:0:0:0:
256,192,17698,1,0,0:0:0:0:
329,192,17932,1,0,0:0:0:0:
182,192,17932,1,0,0:0:0:0:
36,192,18166,1,0,0:0:0:0:
256,192,18166,1,0,0:0:0:0:
36,192,18401,1,0,0:0:0:0:
256,192,18401,1,0,0:0:0:0:
182,192,18635,1,0,0:0:0:0:
329,192,18635,1,0,0:0:0:0:
36,192,18870,1,0,0:0:0:0:
256,192,18870,1,0,0:0:0:0:
402,192,18870,1,0,0:0:0:0:
475,192,19104,1,0,0:0:0:0:
36,192,19221,1,0,0:0:0:0:
109,192,19338,1,0,0:0:0:0:
256,192,19455,1,0,0:0:0:0:
402,192,19573,1,0,0:0:0:0:
475,192,19807,1,0,0:0:0:0:
36,192,19807,1,0,0:0:0:0:
109,192,20041,1,0,0:0:0:0:
256,192,20041,1,0,0:0:0:0:
402,192,20041,1,0,0:0:0:0:
329,192,20276,1,0,0:0:0:0:
182,192,20276,1,0,0:0:0:0:
109,192,20510,1,0,0:0:0:0:
256,192,20510,1,0,0:0:0:0:
402,192,20510,1,0,0:0:0:0:
329,192,20745,1,0,0:0:0:0:
36,192,20745,1,0,0:0:0:0:
182,192,20745,1,0,0:0:0:0:
402,192,20979,1,0,0:0:0:0:
256,192,21096,1,0,0:0:0:0:
36,192,21213,1,0,0:0:0:0:
329,192,21330,1,0,0:0:0:0:
475,192,21448,1,0,0:0:0:0:
182,192,21682,1,0,0:0:0:0:
329,192,21682,1,0,0:0:0:0:
109,192,21916,1,0,0:0:0:0:
256,192,21916,1,0,0:0:0:0:
402,192,21916,1,0,0:0:0:0:
475,192,22151,1,0,0:0:0:0:
329,192,22151,1,0,0:0:0:0:
182,192,22151,1,0,0:0:0:0:
36,192,22151,1,0,0:0:0:0:
109,192,22385,1,0,0:0:0:0:
402,192,22385,1,0,0:0:0:0:
329,192,22620,128,0,22971:0:0:0:0:
182,192,22620,1,0,0:0:0:0:
475,192,22620,1,0,0:0:0:0:
402,192,22854,128,0,22971:0:0:0:0:
256,192,22971,128,0,23088:0:0:0:0:
109,192,23088,128,0,23205:0:0:0:0:
182,192,23205,128,0,23323:0:0:0:0:
256,192,23323,128,0,23440:0:0:0:0:
182,192,23557,1,0,0:0:0:0:
329,192,23557,1,0,0:0:0:0:
475,192,23557,1,0,0:0:0:0:
256,192,23791,128,0,24143:0:0:0:0:
109,192,23791,128,0,24143:0:0:0:0:
182,192,24026,128,0,24260:0:0:0:0:
36,192,24026,128,0,24260:0:0:0:0:
109,192,24260,128,0,24495:0:0:0:0:
256,192,24260,128,0,24495:0:0:0:0:
402,192,24495,128,0,24846:0:0:0:0:
329,192,24495,1,0,0:0:0:0:
475,192,24729,128,0,24846:0:0:0:0:
182,192,24846,128,0,24963:0:0:0:0:
36,192,24963,128,0,25080:0:0:0:0:
256,192,25080,128,0,25198:0:0:0:0:
475,192,25198,128,0,25315:0:0:0:0:
402,192,25432,1,0,0:0:0:0:
182,192,25432,1,0,0:0:0:0:
109,192,25666,128,0,25784:0:0:0:0:
256,192,25666,128,0,25784:0:0:0:0:
109,192,25901,128,0,26135:0:0:0:0:
256,192,25901,128,0,26135:0:0:0:0:
182,192,26135,128,0,26370:0:0:0:0:
329,192,26135,128,0,26370:0:0:0:0:
109,192,26370,128,0,26721:0:0:0:0:
182,192,26604,128,0,26721:0:0:0:0:
36,192,26721,128,0,26838:0:0:0:0:
256,192,26838,128,0,26955:0:0:0:0:
329,192,26955,128,0,27073:0:0:0:0:
402,192,27073,128,0,27190:0:0:0:0:
256,192,27307,1,0,0:0:0:0:
475,192,27307,1,0,0:0:0:0:
329,192,27541,128,0,28245:0:0:0:0:
182,192,27541,128,0,28245:0:0:0:0:
36,192,27776,128,0,28010:0:0:0:0:
256,192,27776,128,0,28010:0:0:0:0:
109,192,28010,128,0,28245:0:0:0:0:
402,192,28010,128,0,28245:0:0:0:0:
475,192,28245,128,0,28596:0:0:0:0:
402,192,28479,128,0,28596:0:0:0:0:
329,192,28596,128,0,28713:0:0:0:0:
109,192,28713,128,0,28830:0:0:0:0:
182,192,28830,128,0,28948:0:0:0:0:
256,192,28948,128,0,29065:0:0:0:0:
182,192,29182,128,0,30120:0:0:0:0:
475,192,29182,128,0,30120:0:0:0:0:
402,192,29416,128,0,30002:0:0:0:0:
109,192,29416,128,0,30120:0:0:0:0:
256,192,29651,128,0,30120:0:0:0:0:
36,192,29651,128,0,30120:0:0:0:0:
329,192,29885,128,0,30002:0:0:0:0:
329,192,30120,128,0,30588:0:0:0:0:
402,192,30120,128,0,30471:0:0:0:0:
256,192,30354,128,0,30588:0:0:0:0:
182,192,30354,128,0,30705:0:0:0:0:
109,192,30471,128,0,30705:0:0:0:0:
36,192,30471,128,0,31174:0:0:0:0:
402,192,30588,128,0,30940:0:0:0:0:
475,192,30588,128,0,31409:0:0:0:0:
329,192,30705,128,0,30940:0:0:0:0:
256,192,30705,1,0,0:0:0:0:
182,192,30823,128,0,31174:0:0:0:0:
109,192,30823,128,0,31174:0:0:0:0:
402,192,31057,128,0,31409:0:0:0:0:
329,192,31057,128,0,31409:0:0:0:0:
36,192,31291,128,0,31643:0:0:0:0:
109,192,31291,128,0,31643:0:0:0:0:
182,192,31291,128,0,31643:0:0:0:0:
402,192,31526,1,0,0:0:0:0:
475,192,31526,1,0,0:0:0:0:
329,192,31526,1,0,0:0:0:0:
36,192,31760,1,0,0:0:0:0:
182,192,31760,1,0,0:0:0:0:
109,192,31760,1,0,0:0:0:0:
256,192,31995,128,0,32463:0:0:0:0:
329,192,31995,128,0,32463:0:0:0:0:
36,192,32229,128,0,33049:0:0:0:0:
109,192,32229,128,0,32346:0:0:0:0:
475,192,32346,128,0,32580:0:0:0:0:
402,192,32346,128,0,32580:0:0:0:0:
109,192,32463,128,0,33049:0:0:0:0:
182,192,32463,128,0,33049:0:0:0:0:
329,192,32580,128,0,32815:0:0:0:0:
256,192,32580,128,0,32815:0:0:0:0:
475,192,32698,128,0,33518:0:0:0:0:
402,192,32698,128,0,33518:0:0:0:0:
329,192,32932,128,0,33518:0:0:0:0:
256,192,32932,1,0,0:0:0:0:
36,192,33166,128,0,33284:0:0:0:0:
109,192,33166,128,0,33284:0:0:0:0:
182,192,33166,128,0,33284:0:0:0:0:
182,192,33401,1,0,0:0:0:0:
109,192,33401,1,0,0:0:0:0:
36,192,33401,1,0,0:0:0:0:
402,192,33635,1,0,0:0:0:0:
475,192,33635,1,0,0:0:0:0:
329,192,33635,1,0,0:0:0:0:
109,192,33870,128,0,34221:0:0:0:0:
36,192,33870,128,0,34221:0:0:0:0:
475,192,34104,128,0,34455:0:0:0:0:
402,192,34104,128,0,34455:0:0:0:0:
182,192,34221,128,0,34924:0:0:0:0:
256,192,34221,128,0,34338:0:0:0:0:
36,192,34338,128,0,34924:0:0:0:0:
109,192,34338,128,0,34924:0:0:0:0:
329,192,34455,128,0,34690:0:0:0:0:
256,192,34455,1,0,0:0:0:0:
475,192,34573,128,0,35159:0:0:0:0:
402,192,34573,128,0,34690:0:0:0:0:
402,192,34807,128,0,35159:0:0:0:0:
329,192,34807,128,0,35159:0:0:0:0:
182,192,35041,128,0,35393:0:0:0:0:
36,192,35041,128,0,35393:0:0:0:0:
109,192,35041,128,0,35393:0:0:0:0:
475,192,35276,1,0,0:0:0:0:
329,192,35276,1,0,0:0:0:0:
402,192,35276,1,0,0:0:0:0:
182,192,35510,1,0,0:0:0:0:
109,192,35510,1,0,0:0:0:0:
36,192,35510,1,0,0:0:0:0:
475,192,35745,128,0,36096:0:0:0:0:
402,192,35745,128,0,36096:0:0:0:0:
182,192,35979,128,0,36330:0:0:0:0:
256,192,35979,128,0,36213:0:0:0:0:
109,192,36096,128,0,36330:0:0:0:0:
36,192,36096,128,0,36799:0:0:0:0:
475,192,36213,128,0,37268:0:0:0:0:
402,192,36213,128,0,37268:0:0:0:0:
256,192,36330,128,0,36565:0:0:0:0:
329,192,36330,128,0,36565:0:0:0:0:
182,192,36448,128,0,36565:0:0:0:0:
109,192,36448,128,0,36799:0:0:0:0:
182,192,36682,128,0,36799:0:0:0:0:
329,192,36682,128,0,37268:0:0:0:0:
256,192,36682,128,0,37034:0:0:0:0:
109,192,36916,128,0,37034:0:0:0:0:
36,192,36916,1,0,0:0:0:0:
182,192,36916,128,0,37034:0:0:0:0:
182,192,37151,1,0,0:0:0:0:
256,192,37151,1,0,0:0:0:0:
109,192,37151,1,0,0:0:0:0:
402,192,37385,1,0,0:0:0:0:
475,192,37385,1,0,0:0:0:0:
329,192,37385,1,0,0:0:0:0:
402,192,37620,128,0,37971:0:0:0:0:
182,192,37620,128,0,38088:0:0:0:0:
256,192,37854,128,0,38205:0:0:0:0:
475,192,37854,128,0,38088:0:0:0:0:
329,192,37971,128,0,38440:0:0:0:0:
36,192,37971,128,0,38674:0:0:0:0:
402,192,38088,128,0,38205:0:0:0:0:
109,192,38088,128,0,38909:0:0:0:0:
182,192,38205,128,0,38674:0:0:0:0:
475,192,38205,1,0,0:0:0:0:
402,192,38323,128,0,38440:0:0:0:0:
256,192,38323,128,0,38909:0:0:0:0:
329,192,38557,128,0,38674:0:0:0:0:
402,192,38557,128,0,38909:0:0:0:0:
182,192,38791,128,0,38909:0:0:0:0:
36,192,38791,128,0,38909:0:0:0:0:
329,192,38791,128,0,38909:0:0:0:0:
256,192,39026,1,0,0:0:0:0:
109,192,39026,1,0,0:0:0:0:
402,192,39026,1,0,0:0:0:0:
36,192,39260,1,0,0:0:0:0:
182,192,39260,1,0,0:0:0:0:
329,192,39260,1,0,0:0:0:0:
109,192,39495,128,0,39963:0:0:0:0:
256,192,39495,128,0,39846:0:0:0:0:
329,192,39729,128,0,39963:0:0:0:0:
475,192,39729,128,0,40315:0:0:0:0:
402,192,39846,128,0,40080:0:0:0:0:
182,192,39846,128,0,40080:0:0:0:0:
256,192,39963,1,0,0:0:0:0:
36,192,39963,128,0,40549:0:0:0:0:
109,192,40080,128,0,41018:0:0:0:0:
329,192,40080,128,0,40315:0:0:0:0:
402,192,40198,128,0,40549:0:0:0:0:
182,192,40198,128,0,40549:0:0:0:0:
329,192,40432,128,0,41018:0:0:0:0:
475,192,40432,128,0,41018:0:0:0:0:
402,192,40666,128,0,40784:0:0:0:0:
36,192,40666,128,0,40784:0:0:0:0:
182,192,40666,128,0,40784:0:0:0:0:
402,192,40901,1,0,0:0:0:0:
36,192,40901,1,0,0:0:0:0:
182,192,40901,1,0,0:0:0:0:
475,192,41135,1,0,0:0:0:0:
329,192,41135,1,0,0:0:0:0:
109,192,41135,1,0,0:0:0:0:
182,192,41370,128,0,41721:0:0:0:0:
402,192,41370,128,0,41721:0:0:0:0:
475,192,41604,128,0,41838:0:0:0:0:
256,192,41604,128,0,41955:0:0:0:0:
109,192,41721,128,0,41955:0:0:0:0:
329,192,41721,128,0,42190:0:0:0:0:
182,192,41838,128,0,42190:0:0:0:0:
402,192,41838,128,0,42424:0:0:0:0:
475,192,41955,128,0,42659:0:0:0:0:
36,192,41955,1,0,0:0:0:0:
109,192,42073,128,0,42424:0:0:0:0:
256,192,42073,128,0,42424:0:0:0:0:
329,192,42307,128,0,42659:0:0:0:0:
182,192,42307,128,0,42659:0:0:0:0:
402,192,42541,128,0,42893:0:0:0:0:
256,192,42541,128,0,42893:0:0:0:0:
109,192,42541,128,0,42893:0:0:0:0:
182,192,42776,1,0,0:0:0:0:
475,192,42776,1,0,0:0:0:0:
329,192,42776,1,0,0:0:0:0:
402,192,43010,1,0,0:0:0:0:
109,192,43010,1,0,0:0:0:0:
256,192,43010,1,0,0:0:0:0:
475,192,43245,128,0,43596:0:0:0:0:
256,192,43245,128,0,44065:0:0:0:0:
402,192,43479,128,0,43713:0:0:0:0:
109,192,43479,128,0,43713:0:0:0:0:
329,192,43596,128,0,43830:0:0:0:0:
36,192,43596,128,0,43830:0:0:0:0:
475,192,43713,128,0,44534:0:0:0:0:
182,192,43713,128,0,44065:0:0:0:0:
109,192,43830,128,0,44299:0:0:0:0:
402,192,43830,128,0,44299:0:0:0:0:
329,192,43948,128,0,44065:0:0:0:0:
36,192,43948,128,0,44534:0:0:0:0:
256,192,44182,128,0,44299:0:0:0:0:
182,192,44182,128,0,44299:0:0:0:0:
329,192,44182,128,0,44299:0:0:0:0:
109,192,44416,128,0,44534:0:0:0:0:
182,192,44416,128,0,44534:0:0:0:0:
256,192,44416,128,0,44534:0:0:0:0:
402,192,44416,128,0,44534:0:0:0:0:
329,192,44416,128,0,44534:0:0:0:0:
182,192,44651,128,0,44768:0:0:0:0:
256,192,44651,128,0,44768:0:0:0:0:
329,192,44651,128,0,44768:0:0:0:0:
475,192,44651,1,0,0:0:0:0:
109,192,44651,128,0,44768:0:0:0:0:
402,192,44651,128,0,44768:0:0:0:0:
36,192,44651,1,0,0:0:0:0:
182,192,44885,1,0,0:0:0:0:
256,192,44885,1,0,0:0:0:0:
329,192,44885,1,0,0:0:0:0:
109,192,44885,1,0,0:0:0:0:
402,192,44885,1,0,0:0:0:0:
329,192,46995,128,0,50510:0:0:0:0:
109,192,47932,128,0,50510:0:0:0:0:
256,192,48870,128,0,51213:0:0:0:0:
475,192,48870,128,0,50979:0:0:0:0:
182,192,50510,128,0,50979:0:0:0:0:
36,192,50510,128,0,51213:0:0:0:0:
402,192,50979,128,0,54495:0:0:0:0:
109,192,50979,128,0,54495:0:0:0:0:
329,192,51213,128,0,54495:0:0:0:0:
182,192,51213,128,0,54495:0:0:0:0:
256,192,54495,128,0,58010:0:0:0:0:
475,192,54495,1,0,0:0:0:0:
109,192,54963,1,0,0:0:0:0:
329,192,55198,1,0,0:0:0:0:
36,192,55432,128,0,58713:0:0:0:0:
109,192,55901,1,0,0:0:0:0:
329,192,56135,1,0,0:0:0:0:
402,192,56370,128,0,58010:0:0:0:0:
475,192,56370,128,0,61995:0:0:0:0:
109,192,56604,1,0,0:0:0:0:
182,192,56838,1,0,0:0:0:0:
329,192,57073,1,0,0:0:0:0:
109,192,57776,1,0,0:0:0:0:
329,192,58010,128,0,58479:0:0:0:0:
182,192,58010,128,0,58479:0:0:0:0:
109,192,58010,1,0,0:0:0:0:
109,192,58479,128,0,61995:0:0:0:0:
256,192,58479,128,0,58713:0:0:0:0:
402,192,58479,1,0,0:0:0:0:
402,192,58713,128,0,61995:0:0:0:0:
182,192,58713,128,0,61995:0:0:0:0:
329,192,58713,1,0,0:0:0:0:
256,192,58948,1,0,0:0:0:0:
329,192,59651,1,0,0:0:0:0:
256,192,59885,1,0,0:0:0:0:
36,192,60120,1,0,0:0:0:0:
36,192,60354,1,0,0:0:0:0:
256,192,60588,1,0,0:0:0:0:
329,192,60823,1,0,0:0:0:0:
36,192,61526,1,0,0:0:0:0:
256,192,61760,1,0,0:0:0:0:
329,192,61995,128,0,65393:0:0:0:0:
36,192,61995,128,0,69377:0:0:0:0:
256,192,61995,1,0,0:0:0:0:
109,192,62463,1,0,0:0:0:0:
475,192,62698,1,0,0:0:0:0:
256,192,62932,128,0,65862:0:0:0:0:
402,192,62932,128,0,63870:0:0:0:0:
109,192,63401,1,0,0:0:0:0:
475,192,63635,1,0,0:0:0:0:
182,192,63870,128,0,66096:0:0:0:0:
475,192,63870,128,0,69377:0:0:0:0:
109,192,64104,1,0,0:0:0:0:
109,192,64338,1,0,0:0:0:0:
402,192,64573,1,0,0:0:0:0:
109,192,65276,1,0,0:0:0:0:
402,192,65510,1,0,0:0:0:0:
329,192,65510,128,0,69377:0:0:0:0:
256,192,65979,128,0,69377:0:0:0:0:
402,192,65979,1,0,0:0:0:0:
182,192,66213,128,0,69377:0:0:0:0:
109,192,66213,1,0,0:0:0:0:
402,192,66448,1,0,0:0:0:0:
402,192,67151,1,0,0:0:0:0:
109,192,67385,1,0,0:0:0:0:
402,192,67620,1,0,0:0:0:0:
109,192,67854,1,0,0:0:0:0:
402,192,68088,1,0,0:0:0:0:
109,192,68323,1,0,0:0:0:0:
109,192,69026,1,0,0:0:0:0:
402,192,69260,1,0,0:0:0:0:
36,192,69495,128,0,72893:0:0:0:0:
109,192,69495,128,0,70315:0:0:0:0:
182,192,69495,128,0,69846:0:0:0:0:
256,192,69495,128,0,70315:0:0:0:0:
329,192,69495,128,0,70315:0:0:0:0:
402,192,69495,128,0,70080:0:0:0:0:
475,192,69495,128,0,71252:0:0:0:0:
182,192,69963,128,0,70784:0:0:0:0:
402,192,70198,128,0,71018:0:0:0:0:
256,192,70432,128,0,71252:0:0:0:0:
329,192,70432,128,0,71721:0:0:0:0:
109,192,70432,128,0,71252:0:0:0:0:
182,192,70901,128,0,71487:0:0:0:0:
402,192,71135,128,0,71955:0:0:0:0:
475,192,71370,128,0,72893:0:0:0:0:
109,192,71370,128,0,73596:0:0:0:0:
256,192,71370,128,0,72893:0:0:0:0:
182,192,71604,128,0,72659:0:0:0:0:
329,192,71838,128,0,72893:0:0:0:0:
402,192,72073,128,0,74534:0:0:0:0:
182,192,72776,128,0,73830:0:0:0:0:
256,192,73010,128,0,73596:0:0:0:0:
329,192,73010,128,0,73362:0:0:0:0:
475,192,73010,128,0,73362:0:0:0:0:
36,192,73010,128,0,75412:0:0:0:0:
329,192,73479,128,0,74768:0:0:0:0:
475,192,73479,128,0,75061:0:0:0:0:
109,192,73713,128,0,75354:0:0:0:0:
256,192,73713,128,0,75002:0:0:0:0:
182,192,73948,128,0,75295:0:0:0:0:
402,192,74651,128,0,75120:0:0:0:0:
329,192,74885,128,0,75178:0:0:0:0:
256,192,75120,128,0,75237:0:0:0:0:
475,192,75120,128,0,75471:0:0:0:0:
402,192,75178,128,0,75530:0:0:0:0:
329,192,75237,128,0,75588:0:0:0:0:
256,192,75295,128,0,75647:0:0:0:0:
182,192,75354,128,0,75471:0:0:0:0:
109,192,75412,128,0,75764:0:0:0:0:
36,192,75471,128,0,75823:0:0:0:0:
475,192,75530,128,0,75881:0:0:0:0:
402,192,75588,128,0,75705:0:0:0:0:
182,192,75588,128,0,75705:0:0:0:0:
329,192,75647,128,0,75998:0:0:0:0:
256,192,75705,128,0,76057:0:0:0:0:
182,192,75764,128,0,76116:0:0:0:0:
109,192,75823,128,0,76174:0:0:0:0:
402,192,75823,128,0,75940:0:0:0:0:
36,192,75881,128,0,76233:0:0:0:0:
475,192,75940,128,0,76116:0:0:0:0:
402,192,75998,128,0,76174:0:0:0:0:
329,192,76057,128,0,76233:0:0:0:0:
256,192,76116,128,0,76291:0:0:0:0:
182,192,76174,128,0,76350:0:0:0:0:
475,192,76174,128,0,76291:0:0:0:0:
109,192,76233,128,0,76409:0:0:0:0:
402,192,76233,128,0,76350:0:0:0:0:
36,192,76291,128,0,76467:0:0:0:0:
329,192,76291,128,0,76409:0:0:0:0:
475,192,76350,128,0,76467:0:0:0:0:
256,192,76350,128,0,76467:0:0:0:0:
182,192,76409,128,0,76526:0:0:0:0:
402,192,76409,128,0,76526:0:0:0:0:
109,192,76467,128,0,76584:0:0:0:0:
329,192,76467,128,0,76584:0:0:0:0:
475,192,76526,128,0,76936:0:0:0:0:
36,192,76526,128,0,76643:0:0:0:0:
256,192,76526,128,0,76643:0:0:0:0:
402,192,76584,128,0,76936:0:0:0:0:
182,192,76584,128,0,76702:0:0:0:0:
329,192,76643,128,0,76936:0:0:0:0:
109,192,76643,128,0,76760:0:0:0:0:
256,192,76702,128,0,76936:0:0:0:0:
36,192,76702,128,0,76819:0:0:0:0:
182,192,76760,128,0,76936:0:0:0:0:
109,192,76819,128,0,76936:0:0:0:0:
36,192,76877,128,0,76936:0:0:0:0:
36,192,76995,1,0,0:0:0:0:
109,192,76995,1,0,0:0:0:0:
182,192,76995,1,0,0:0:0:0:
256,192,76995,1,0,0:0:0:0:
329,192,76995,1,0,0:0:0:0:
402,192,76995,1,0,0:0:0:0:
475,192,76995,1,0,0:0:0:0:
256,192,78166,5,0,0:0:0:0:
256,192,78400,1,0,0:0:0:0:
329,192,78634,128,0,78985:0:0:0:0:
402,192,78634,128,0,78751:0:0:0:0:
475,192,78634,128,0,78751:0:0:0:0:
256,192,78634,128,0,78751:0:0:0:0:
109,192,78634,128,0,78751:0:0:0:0:
182,192,78634,1,0,0:0:0:0:
109,192,78868,128,0,79102:0:0:0:0:
36,192,78868,128,0,78985:0:0:0:0:
182,192,78868,128,0,78985:0:0:0:0:
402,192,78868,128,0,78985:0:0:0:0:
36,192,79102,1,0,0:0:0:0:
256,192,79102,1,0,0:0:0:0:
329,192,79102,1,0,0:0:0:0:
402,192,79102,1,0,0:0:0:0:
475,192,79102,1,0,0:0:0:0:
182,192,79337,128,0,79454:0:0:0:0:
329,192,79337,128,0,79454:0:0:0:0:
475,192,79337,128,0,79454:0:0:0:0:
109,192,79571,128,0,79923:0:0:0:0:
182,192,79571,128,0,79688:0:0:0:0:
329,192,79571,128,0,79688:0:0:0:0:
36,192,79571,128,0,79688:0:0:0:0:
402,192,79571,128,0,79688:0:0:0:0:
256,192,79571,1,0,0:0:0:0:
402,192,79805,128,0,80040:0:0:0:0:
329,192,79805,128,0,79923:0:0:0:0:
256,192,79805,128,0,79923:0:0:0:0:
475,192,79805,128,0,79923:0:0:0:0:
36,192,80040,1,0,0:0:0:0:
109,192,80040,1,0,0:0:0:0:
182,192,80040,1,0,0:0:0:0:
256,192,80040,1,0,0:0:0:0:
329,192,80040,1,0,0:0:0:0:
109,192,80274,128,0,80977:0:0:0:0:
256,192,80274,128,0,81094:0:0:0:0:
402,192,80274,128,0,81212:0:0:0:0:
329,192,80509,1,0,0:0:0:0:
475,192,80509,1,0,0:0:0:0:
182,192,80509,1,0,0:0:0:0:
36,192,80509,1,0,0:0:0:0:
36,192,80977,128,0,81387:0:0:0:0:
329,192,80977,1,0,0:0:0:0:
475,192,80977,1,0,0:0:0:0:
109,192,81036,128,0,81563:0:0:0:0:
182,192,81094,128,0,81798:0:0:0:0:
256,192,81153,128,0,81387:0:0:0:0:
329,192,81212,128,0,81387:0:0:0:0:
402,192,81270,128,0,82032:0:0:0:0:
475,192,81329,128,0,81563:0:0:0:0:
329,192,81446,128,0,81798:0:0:0:0:
36,192,81446,128,0,81798:0:0:0:0:
256,192,81446,128,0,81563:0:0:0:0:
475,192,81680,128,0,82032:0:0:0:0:
256,192,81680,128,0,82032:0:0:0:0:
109,192,81680,128,0,82032:0:0:0:0:
329,192,81915,1,0,0:0:0:0:
182,192,81915,1,0,0:0:0:0:
36,192,81915,1,0,0:0:0:0:
475,192,82149,1,0,0:0:0:0:
402,192,82149,1,0,0:0:0:0:
256,192,82149,1,0,0:0:0:0:
109,192,82149,1,0,0:0:0:0:
36,192,82384,128,0,82794:0:0:0:0:
182,192,82384,128,0,82794:0:0:0:0:
329,192,82384,128,0,82794:0:0:0:0:
475,192,82384,128,0,82794:0:0:0:0:
256,192,82618,128,0,82852:0:0:0:0:
402,192,82618,128,0,82852:0:0:0:0:
109,192,82618,128,0,82852:0:0:0:0:
182,192,82852,1,0,0:0:0:0:
329,192,82852,1,0,0:0:0:0:
475,192,82852,1,0,0:0:0:0:
36,192,82852,1,0,0:0:0:0:
329,192,83087,128,0,83731:0:0:0:0:
402,192,83145,128,0,83204:0:0:0:0:
475,192,83204,128,0,83731:0:0:0:0:
109,192,83321,128,0,83731:0:0:0:0:
36,192,83555,128,0,83790:0:0:0:0:
182,192,83555,128,0,83790:0:0:0:0:
256,192,83555,128,0,83790:0:0:0:0:
402,192,83555,128,0,83790:0:0:0:0:
109,192,83790,1,0,0:0:0:0:
329,192,83790,1,0,0:0:0:0:
475,192,83790,1,0,0:0:0:0:
109,192,84024,128,0,84610:0:0:0:0:
402,192,84024,128,0,84610:0:0:0:0:
182,192,84259,1,0,0:0:0:0:
36,192,84259,1,0,0:0:0:0:
329,192,84259,1,0,0:0:0:0:
475,192,84259,1,0,0:0:0:0:
182,192,84493,128,0,84844:0:0:0:0:
475,192,84493,128,0,84844:0:0:0:0:
36,192,84493,128,0,84610:0:0:0:0:
256,192,84493,128,0,84610:0:0:0:0:
329,192,84493,128,0,84610:0:0:0:0:
256,192,84727,128,0,85118:0:0:0:0:
36,192,84727,128,0,85352:0:0:0:0:
402,192,84727,128,0,84844:0:0:0:0:
329,192,84727,128,0,84844:0:0:0:0:
109,192,84727,128,0,84844:0:0:0:0:
109,192,84962,128,0,85274:0:0:0:0:
182,192,84962,128,0,85196:0:0:0:0:
329,192,84962,128,0,85274:0:0:0:0:
402,192,84962,128,0,85196:0:0:0:0:
475,192,84962,128,0,85118:0:0:0:0:
475,192,85196,1,0,0:0:0:0:
256,192,85196,128,0,86075:0:0:0:0:
182,192,85274,1,0,0:0:0:0:
402,192,85274,1,0,0:0:0:0:
109,192,85352,1,0,0:0:0:0:
329,192,85352,1,0,0:0:0:0:
36,192,85430,1,0,0:0:0:0:
182,192,85665,128,0,86075:0:0:0:0:
329,192,85665,128,0,86075:0:0:0:0:
36,192,85665,128,0,85899:0:0:0:0:
109,192,85665,128,0,85782:0:0:0:0:
402,192,85665,128,0,85782:0:0:0:0:
475,192,85665,128,0,85899:0:0:0:0:
109,192,85899,1,0,0:0:0:0:
402,192,85899,1,0,0:0:0:0:
36,192,86134,128,0,86309:0:0:0:0:
182,192,86134,128,0,86368:0:0:0:0:
329,192,86134,128,0,86368:0:0:0:0:
475,192,86134,128,0,86309:0:0:0:0:
109,192,86368,128,0,86544:0:0:0:0:
256,192,86368,128,0,86544:0:0:0:0:
402,192,86368,128,0,86544:0:0:0:0:
36,192,86368,1,0,0:0:0:0:
475,192,86368,1,0,0:0:0:0:
109,192,86602,1,0,0:0:0:0:
182,192,86602,1,0,0:0:0:0:
256,192,86602,1,0,0:0:0:0:
329,192,86602,1,0,0:0:0:0:
402,192,86602,1,0,0:0:0:0:
182,192,86837,128,0,86954:0:0:0:0:
329,192,86837,128,0,86954:0:0:0:0:
475,192,86837,128,0,86954:0:0:0:0:
36,192,87071,128,0,87481:0:0:0:0:
402,192,87071,128,0,87481:0:0:0:0:
109,192,87071,128,0,87247:0:0:0:0:
256,192,87071,128,0,87247:0:0:0:0:
109,192,87305,128,0,87540:0:0:0:0:
256,192,87305,128,0,87540:0:0:0:0:
182,192,87305,1,0,0:0:0:0:
475,192,87305,1,0,0:0:0:0:
36,192,87540,1,0,0:0:0:0:
402,192,87540,1,0,0:0:0:0:
329,192,87540,1,0,0:0:0:0:
475,192,87540,1,0,0:0:0:0:
182,192,87774,128,0,88653:0:0:0:0:
329,192,87774,128,0,88536:0:0:0:0:
109,192,88009,1,0,0:0:0:0:
256,192,88009,1,0,0:0:0:0:
402,192,88009,1,0,0:0:0:0:
36,192,88477,1,0,0:0:0:0:
109,192,88477,1,0,0:0:0:0:
475,192,88477,128,0,88887:0:0:0:0:
402,192,88536,128,0,89298:0:0:0:0:
329,192,88594,128,0,88887:0:0:0:0:
256,192,88653,128,0,89298:0:0:0:0:
182,192,88712,128,0,88887:0:0:0:0:
109,192,88770,128,0,89298:0:0:0:0:
36,192,88829,128,0,89298:0:0:0:0:
182,192,88946,1,0,0:0:0:0:
329,192,88946,1,0,0:0:0:0:
475,192,88946,1,0,0:0:0:0:
182,192,89180,128,0,89532:0:0:0:0:
329,192,89180,128,0,89532:0:0:0:0:
475,192,89180,128,0,89532:0:0:0:0:
36,192,89415,1,0,0:0:0:0:
109,192,89415,1,0,0:0:0:0:
256,192,89415,1,0,0:0:0:0:
402,192,89415,1,0,0:0:0:0:
182,192,89649,1,0,0:0:0:0:
329,192,89649,1,0,0:0:0:0:
475,192,89649,1,0,0:0:0:0:
36,192,89884,128,0,90001:0:0:0:0:
256,192,89884,128,0,90001:0:0:0:0:
475,192,89884,128,0,90001:0:0:0:0:
182,192,89884,128,0,90235:0:0:0:0:
329,192,89884,1,0,0:0:0:0:
329,192,90118,128,0,90235:0:0:0:0:
109,192,90118,128,0,90235:0:0:0:0:
402,192,90118,128,0,90235:0:0:0:0:
475,192,90118,128,0,90352:0:0:0:0:
36,192,90118,1,0,0:0:0:0:
36,192,90352,1,0,0:0:0:0:
109,192,90352,1,0,0:0:0:0:
182,192,90352,1,0,0:0:0:0:
329,192,90352,1,0,0:0:0:0:
256,192,90352,1,0,0:0:0:0:
256,192,90587,128,0,91231:0:0:0:0:
329,192,90645,128,0,90704:0:0:0:0:
402,192,90704,128,0,91231:0:0:0:0:
475,192,90821,128,0,90997:0:0:0:0:
182,192,90821,128,0,90997:0:0:0:0:
36,192,90821,128,0,91290:0:0:0:0:
182,192,91055,1,0,0:0:0:0:
109,192,91055,1,0,0:0:0:0:
475,192,91055,128,0,91290:0:0:0:0:
329,192,91055,128,0,91290:0:0:0:0:
256,192,91290,1,0,0:0:0:0:
402,192,91290,1,0,0:0:0:0:
182,192,91524,128,0,92774:0:0:0:0:
475,192,91524,128,0,92774:0:0:0:0:
36,192,91759,1,0,0:0:0:0:
256,192,91759,1,0,0:0:0:0:
329,192,91759,1,0,0:0:0:0:
36,192,91993,1,0,0:0:0:0:
256,192,91993,1,0,0:0:0:0:
109,192,91993,128,0,92110:0:0:0:0:
329,192,91993,128,0,92110:0:0:0:0:
402,192,91993,128,0,92110:0:0:0:0:
329,192,92227,128,0,92344:0:0:0:0:
402,192,92227,128,0,92344:0:0:0:0:
109,192,92227,128,0,92344:0:0:0:0:
256,192,92227,1,0,0:0:0:0:
36,192,92227,1,0,0:0:0:0:
329,192,92462,128,0,92579:0:0:0:0:
402,192,92462,128,0,92579:0:0:0:0:
109,192,92462,128,0,92579:0:0:0:0:
36,192,92462,1,0,0:0:0:0:
256,192,92462,1,0,0:0:0:0:
36,192,92696,128,0,93165:0:0:0:0:
329,192,92696,128,0,93165:0:0:0:0:
109,192,92774,128,0,93087:0:0:0:0:
402,192,92774,128,0,93087:0:0:0:0:
182,192,92852,128,0,93165:0:0:0:0:
475,192,92852,128,0,93165:0:0:0:0:
256,192,92930,128,0,93087:0:0:0:0:
402,192,93165,128,0,93341:0:0:0:0:
256,192,93165,128,0,93341:0:0:0:0:
109,192,93165,128,0,93341:0:0:0:0:
109,192,93399,1,0,0:0:0:0:
475,192,93399,1,0,0:0:0:0:
36,192,93399,1,0,0:0:0:0:
256,192,93399,1,0,0:0:0:0:
402,192,93399,1,0,0:0:0:0:
182,192,93634,128,0,93985:0:0:0:0:
329,192,93634,128,0,93985:0:0:0:0:
402,192,93634,128,0,93868:0:0:0:0:
475,192,93634,128,0,93751:0:0:0:0:
109,192,93634,128,0,93868:0:0:0:0:
36,192,93634,128,0,93751:0:0:0:0:
256,192,93868,1,0,0:0:0:0:
36,192,93868,1,0,0:0:0:0:
475,192,93868,1,0,0:0:0:0:
256,192,94102,1,0,0:0:0:0:
182,192,94102,1,0,0:0:0:0:
329,192,94102,1,0,0:0:0:0:
36,192,94102,1,0,0:0:0:0:
475,192,94102,1,0,0:0:0:0:
402,192,94337,128,0,94454:0:0:0:0:
475,192,94337,128,0,94454:0:0:0:0:
182,192,94337,128,0,94454:0:0:0:0:
329,192,94571,128,0,94923:0:0:0:0:
109,192,94571,128,0,94923:0:0:0:0:
182,192,94571,128,0,94805:0:0:0:0:
256,192,94571,128,0,94688:0:0:0:0:
36,192,94571,128,0,94688:0:0:0:0:
402,192,94571,128,0,94805:0:0:0:0:
475,192,94571,128,0,94688:0:0:0:0:
36,192,94805,1,0,0:0:0:0:
256,192,94805,1,0,0:0:0:0:
475,192,94805,1,0,0:0:0:0:
109,192,95040,1,0,0:0:0:0:
329,192,95040,1,0,0:0:0:0:
182,192,95040,1,0,0:0:0:0:
475,192,95040,1,0,0:0:0:0:
402,192,95040,1,0,0:0:0:0:
329,192,95274,128,0,96094:0:0:0:0:
402,192,95274,128,0,96270:0:0:0:0:
36,192,95509,1,0,0:0:0:0:
109,192,95509,1,0,0:0:0:0:
182,192,95509,1,0,0:0:0:0:
475,192,95509,1,0,0:0:0:0:
475,192,95977,128,0,96387:0:0:0:0:
182,192,95977,1,0,0:0:0:0:
36,192,95977,1,0,0:0:0:0:
256,192,96036,128,0,96798:0:0:0:0:
109,192,96094,128,0,96563:0:0:0:0:
329,192,96153,128,0,96387:0:0:0:0:
182,192,96212,128,0,96387:0:0:0:0:
36,192,96270,128,0,96798:0:0:0:0:
402,192,96329,128,0,96563:0:0:0:0:
182,192,96446,1,0,0:0:0:0:
329,192,96446,1,0,0:0:0:0:
475,192,96446,1,0,0:0:0:0:
402,192,96680,1,0,0:0:0:0:
109,192,96680,1,0,0:0:0:0:
182,192,96680,128,0,97032:0:0:0:0:
329,192,96680,128,0,97032:0:0:0:0:
36,192,96915,1,0,0:0:0:0:
256,192,96915,1,0,0:0:0:0:
109,192,96915,128,0,97149:0:0:0:0:
475,192,96915,128,0,97149:0:0:0:0:
182,192,97149,1,0,0:0:0:0:
329,192,97149,1,0,0:0:0:0:
402,192,97149,1,0,0:0:0:0:
109,192,97384,128,0,97501:0:0:0:0:
402,192,97384,128,0,97501:0:0:0:0:
182,192,97384,128,0,97852:0:0:0:0:
36,192,97384,128,0,97618:0:0:0:0:
329,192,97384,128,0,97852:0:0:0:0:
475,192,97384,128,0,97852:0:0:0:0:
256,192,97384,1,0,0:0:0:0:
402,192,97618,128,0,97735:0:0:0:0:
109,192,97618,128,0,97735:0:0:0:0:
256,192,97618,1,0,0:0:0:0:
36,192,97852,1,0,0:0:0:0:
109,192,97852,1,0,0:0:0:0:
402,192,97852,1,0,0:0:0:0:
182,192,98087,128,0,98731:0:0:0:0:
329,192,98145,128,0,98204:0:0:0:0:
475,192,98204,128,0,98731:0:0:0:0:
36,192,98321,128,0,98790:0:0:0:0:
402,192,98321,128,0,98731:0:0:0:0:
256,192,98321,128,0,98438:0:0:0:0:
109,192,98321,128,0,98438:0:0:0:0:
109,192,98555,128,0,98673:0:0:0:0:
329,192,98555,128,0,98673:0:0:0:0:
256,192,98555,1,0,0:0:0:0:
182,192,98790,1,0,0:0:0:0:
402,192,98790,1,0,0:0:0:0:
475,192,98790,1,0,0:0:0:0:
329,192,98790,1,0,0:0:0:0:
256,192,98790,1,0,0:0:0:0:
36,192,99024,128,0,100196:0:0:0:0:
475,192,99024,128,0,100196:0:0:0:0:
109,192,99259,1,0,0:0:0:0:
256,192,99259,1,0,0:0:0:0:
402,192,99259,1,0,0:0:0:0:
402,192,99493,128,0,99669:0:0:0:0:
329,192,99522,128,0,99669:0:0:0:0:
256,192,99551,128,0,99669:0:0:0:0:
182,192,99581,128,0,99669:0:0:0:0:
109,192,99610,128,0,99669:0:0:0:0:
402,192,99727,128,0,99903:0:0:0:0:
329,192,99757,128,0,99903:0:0:0:0:
256,192,99786,128,0,99903:0:0:0:0:
182,192,99815,128,0,99903:0:0:0:0:
109,192,99844,128,0,99903:0:0:0:0:
402,192,99962,128,0,100137:0:0:0:0:
329,192,99991,128,0,100137:0:0:0:0:
256,192,100020,128,0,100137:0:0:0:0:
182,192,100050,128,0,100137:0:0:0:0:
109,192,100079,128,0,100137:0:0:0:0:
182,192,100196,1,0,0:0:0:0:
329,192,100196,1,0,0:0:0:0:
402,192,100196,128,0,101075:0:0:0:0:
109,192,100274,1,0,0:0:0:0:
256,192,100274,1,0,0:0:0:0:
36,192,100352,1,0,0:0:0:0:
475,192,100352,1,0,0:0:0:0:
329,192,100430,1,0,0:0:0:0:
182,192,100430,1,0,0:0:0:0:
109,192,100665,128,0,101016:0:0:0:0:
256,192,100665,128,0,100782:0:0:0:0:
182,192,100665,128,0,100782:0:0:0:0:
329,192,100665,128,0,100782:0:0:0:0:
475,192,100665,128,0,100782:0:0:0:0:
36,192,100665,128,0,100782:0:0:0:0:
256,192,100899,128,0,101016:0:0:0:0:
182,192,100899,128,0,101016:0:0:0:0:
36,192,100899,128,0,101075:0:0:0:0:
329,192,100899,128,0,101075:0:0:0:0:
475,192,100899,128,0,101016:0:0:0:0:
256,192,101134,128,0,101602:0:0:0:0:
182,192,101134,128,0,101368:0:0:0:0:
475,192,101134,128,0,101251:0:0:0:0:
109,192,101134,128,0,101251:0:0:0:0:
329,192,101134,128,0,101602:0:0:0:0:
36,192,101134,128,0,101368:0:0:0:0:
402,192,101134,128,0,101251:0:0:0:0:
109,192,101368,1,0,0:0:0:0:
402,192,101368,1,0,0:0:0:0:
475,192,101368,1,0,0:0:0:0:
36,192,101602,1,0,0:0:0:0:
109,192,101602,1,0,0:0:0:0:
182,192,101602,1,0,0:0:0:0:
475,192,101602,1,0,0:0:0:0:
402,192,101602,1,0,0:0:0:0:
475,192,101837,128,0,101954:0:0:0:0:
329,192,101837,128,0,101954:0:0:0:0:
109,192,101837,128,0,101954:0:0:0:0:
182,192,102071,128,0,102481:0:0:0:0:
402,192,102071,128,0,102481:0:0:0:0:
256,192,102071,1,0,0:0:0:0:
36,192,102071,1,0,0:0:0:0:
475,192,102071,1,0,0:0:0:0:
36,192,102305,128,0,102423:0:0:0:0:
256,192,102305,128,0,102423:0:0:0:0:
475,192,102305,128,0,102423:0:0:0:0:
329,192,102305,128,0,102540:0:0:0:0:
109,192,102305,128,0,102540:0:0:0:0:
36,192,102540,1,0,0:0:0:0:
256,192,102540,1,0,0:0:0:0:
475,192,102540,1,0,0:0:0:0:
182,192,102540,1,0,0:0:0:0:
402,192,102540,1,0,0:0:0:0:
329,192,102774,128,0,103477:0:0:0:0:
475,192,102774,128,0,103477:0:0:0:0:
402,192,103009,1,0,0:0:0:0:
182,192,103009,1,0,0:0:0:0:
109,192,103009,1,0,0:0:0:0:
36,192,103009,1,0,0:0:0:0:
36,192,103477,128,0,104063:0:0:0:0:
402,192,103477,1,0,0:0:0:0:
256,192,103477,1,0,0:0:0:0:
109,192,103536,128,0,103594:0:0:0:0:
182,192,103594,128,0,104063:0:0:0:0:
256,192,103653,128,0,103712:0:0:0:0:
329,192,103712,128,0,104063:0:0:0:0:
402,192,103770,128,0,103829:0:0:0:0:
475,192,103829,128,0,104532:0:0:0:0:
109,192,103946,128,0,104298:0:0:0:0:
256,192,103946,128,0,104298:0:0:0:0:
402,192,103946,128,0,104298:0:0:0:0:
182,192,104180,128,0,104532:0:0:0:0:
329,192,104180,128,0,104532:0:0:0:0:
36,192,104180,1,0,0:0:0:0:
109,192,104415,1,0,0:0:0:0:
256,192,104415,1,0,0:0:0:0:
402,192,104415,1,0,0:0:0:0:
182,192,104649,1,0,0:0:0:0:
329,192,104649,1,0,0:0:0:0:
475,192,104649,1,0,0:0:0:0:
109,192,104884,128,0,105294:0:0:0:0:
402,192,104884,128,0,105294:0:0:0:0:
182,192,104884,128,0,105059:0:0:0:0:
329,192,104884,128,0,105059:0:0:0:0:
36,192,104884,1,0,0:0:0:0:
256,192,104884,1,0,0:0:0:0:
475,192,104884,1,0,0:0:0:0:
329,192,105118,128,0,105352:0:0:0:0:
182,192,105118,128,0,105352:0:0:0:0:
256,192,105118,1,0,0:0:0:0:
36,192,105118,1,0,0:0:0:0:
475,192,105118,1,0,0:0:0:0:
402,192,105352,1,0,0:0:0:0:
475,192,105352,1,0,0:0:0:0:
109,192,105352,1,0,0:0:0:0:
36,192,105352,1,0,0:0:0:0:
256,192,105352,1,0,0:0:0:0:
36,192,105587,128,0,106290:0:0:0:0:
256,192,105645,128,0,105704:0:0:0:0:
475,192,105704,128,0,106290:0:0:0:0:
329,192,105821,128,0,106290:0:0:0:0:
402,192,105821,128,0,105938:0:0:0:0:
182,192,105821,128,0,105938:0:0:0:0:
109,192,105821,128,0,106055:0:0:0:0:
402,192,106055,1,0,0:0:0:0:
182,192,106055,1,0,0:0:0:0:
109,192,106290,1,0,0:0:0:0:
182,192,106290,1,0,0:0:0:0:
256,192,106290,1,0,0:0:0:0:
402,192,106290,1,0,0:0:0:0:
256,192,106524,128,0,106934:0:0:0:0:
475,192,106524,128,0,106934:0:0:0:0:
36,192,106759,1,0,0:0:0:0:
182,192,106759,1,0,0:0:0:0:
329,192,106759,1,0,0:0:0:0:
402,192,106759,1,0,0:0:0:0:
36,192,106993,128,0,107198:0:0:0:0:
109,192,106993,128,0,107169:0:0:0:0:
182,192,106993,128,0,107139:0:0:0:0:
256,192,106993,128,0,107110:0:0:0:0:
329,192,106993,128,0,107081:0:0:0:0:
402,192,106993,128,0,107051:0:0:0:0:
475,192,106993,128,0,107022:0:0:0:0:
36,192,107227,128,0,107257:0:0:0:0:
109,192,107227,128,0,107286:0:0:0:0:
182,192,107227,128,0,107315:0:0:0:0:
256,192,107227,128,0,107344:0:0:0:0:
329,192,107227,128,0,107374:0:0:0:0:
402,192,107227,128,0,107403:0:0:0:0:
475,192,107227,128,0,107432:0:0:0:0:
256,192,107462,128,0,107520:0:0:0:0:
182,192,107462,128,0,107550:0:0:0:0:
329,192,107462,128,0,107550:0:0:0:0:
402,192,107462,128,0,107579:0:0:0:0:
475,192,107462,128,0,107608:0:0:0:0:
109,192,107462,128,0,107579:0:0:0:0:
36,192,107462,128,0,107608:0:0:0:0:
36,192,107696,1,0,0:0:0:0:
182,192,107696,1,0,0:0:0:0:
402,192,107696,128,0,108341:0:0:0:0:
109,192,107774,1,0,0:0:0:0:
256,192,107774,1,0,0:0:0:0:
329,192,107852,1,0,0:0:0:0:
182,192,107852,1,0,0:0:0:0:
256,192,107930,1,0,0:0:0:0:
475,192,107930,1,0,0:0:0:0:
36,192,108165,128,0,108399:0:0:0:0:
182,192,108165,128,0,108399:0:0:0:0:
329,192,108165,128,0,108399:0:0:0:0:
109,192,108399,1,0,0:0:0:0:
256,192,108399,1,0,0:0:0:0:
475,192,108399,1,0,0:0:0:0:
402,192,108399,1,0,0:0:0:0:
256,192,108634,128,0,109102:0:0:0:0:
402,192,108634,128,0,108868:0:0:0:0:
329,192,108634,128,0,108751:0:0:0:0:
475,192,108634,128,0,108751:0:0:0:0:
36,192,108634,128,0,108751:0:0:0:0:
182,192,108634,128,0,108751:0:0:0:0:
109,192,108634,128,0,108868:0:0:0:0:
36,192,108868,1,0,0:0:0:0:
182,192,108868,1,0,0:0:0:0:
329,192,108868,1,0,0:0:0:0:
475,192,108868,1,0,0:0:0:0:
36,192,109102,1,0,0:0:0:0:
109,192,109102,1,0,0:0:0:0:
329,192,109102,1,0,0:0:0:0:
475,192,109102,1,0,0:0:0:0:
402,192,109102,128,0,109219:0:0:0:0:
182,192,109102,128,0,109219:0:0:0:0:
475,192,109337,128,0,109454:0:0:0:0:
329,192,109337,128,0,109454:0:0:0:0:
109,192,109337,128,0,109454:0:0:0:0:
256,192,109337,128,0,109454:0:0:0:0:
182,192,109571,128,0,110040:0:0:0:0:
402,192,109571,128,0,110040:0:0:0:0:
256,192,109571,128,0,109688:0:0:0:0:
36,192,109571,128,0,109805:0:0:0:0:
329,192,109571,128,0,109805:0:0:0:0:
109,192,109571,128,0,109688:0:0:0:0:
256,192,109805,1,0,0:0:0:0:
109,192,109805,1,0,0:0:0:0:
475,192,109805,128,0,109923:0:0:0:0:
256,192,110040,128,0,110157:0:0:0:0:
329,192,110040,1,0,0:0:0:0:
475,192,110040,1,0,0:0:0:0:
109,192,110040,1,0,0:0:0:0:
36,192,110040,1,0,0:0:0:0:
182,192,110274,128,0,110977:0:0:0:0:
329,192,110274,128,0,110977:0:0:0:0:
475,192,110274,128,0,110919:0:0:0:0:
36,192,110509,1,0,0:0:0:0:
256,192,110509,1,0,0:0:0:0:
402,192,110509,1,0,0:0:0:0:
109,192,110977,1,0,0:0:0:0:
475,192,110977,128,0,111387:0:0:0:0:
256,192,110977,1,0,0:0:0:0:
402,192,111036,128,0,111563:0:0:0:0:
329,192,111094,128,0,111563:0:0:0:0:
256,192,111153,128,0,111387:0:0:0:0:
36,192,111212,1,0,0:0:0:0:
182,192,111212,128,0,111387:0:0:0:0:
109,192,111270,128,0,111563:0:0:0:0:
36,192,111329,128,0,111387:0:0:0:0:
475,192,111446,128,0,111798:0:0:0:0:
182,192,111446,128,0,111563:0:0:0:0:
36,192,111446,128,0,111798:0:0:0:0:
256,192,111446,128,0,111798:0:0:0:0:
329,192,111680,128,0,112032:0:0:0:0:
402,192,111680,128,0,111915:0:0:0:0:
109,192,111680,128,0,111798:0:0:0:0:
182,192,111680,128,0,112032:0:0:0:0:
475,192,111915,1,0,0:0:0:0:
36,192,111915,1,0,0:0:0:0:
109,192,111915,1,0,0:0:0:0:
256,192,111915,1,0,0:0:0:0:
402,192,112032,1,0,0:0:0:0:
475,192,112149,1,0,0:0:0:0:
182,192,112149,1,0,0:0:0:0:
329,192,112149,1,0,0:0:0:0:
109,192,112149,1,0,0:0:0:0:
256,192,112384,128,0,112735:0:0:0:0:
402,192,112384,128,0,112735:0:0:0:0:
475,192,112384,128,0,112501:0:0:0:0:
329,192,112384,128,0,112501:0:0:0:0:
182,192,112384,128,0,112501:0:0:0:0:
109,192,112384,128,0,112501:0:0:0:0:
36,192,112384,128,0,112501:0:0:0:0:
109,192,112618,128,0,112852:0:0:0:0:
475,192,112618,128,0,112735:0:0:0:0:
182,192,112618,128,0,112735:0:0:0:0:
36,192,112618,128,0,112735:0:0:0:0:
329,192,112618,128,0,112852:0:0:0:0:
36,192,112852,1,0,0:0:0:0:
182,192,112852,1,0,0:0:0:0:
256,192,112852,1,0,0:0:0:0:
402,192,112852,1,0,0:0:0:0:
475,192,112852,128,0,112969:0:0:0:0:
329,192,113087,128,0,113790:0:0:0:0:
402,192,113087,128,0,113204:0:0:0:0:
182,192,113145,128,0,113204:0:0:0:0:
36,192,113204,128,0,113790:0:0:0:0:
475,192,113321,128,0,113438:0:0:0:0:
256,192,113321,128,0,113438:0:0:0:0:
109,192,113321,128,0,113673:0:0:0:0:
402,192,113321,128,0,113673:0:0:0:0:
182,192,113555,128,0,113673:0:0:0:0:
256,192,113555,128,0,113790:0:0:0:0:
475,192,113555,128,0,113790:0:0:0:0:
109,192,113790,1,0,0:0:0:0:
182,192,113790,1,0,0:0:0:0:
402,192,113790,128,0,113907:0:0:0:0:
182,192,114024,128,0,114551:0:0:0:0:
329,192,114024,128,0,114551:0:0:0:0:
36,192,114259,1,0,0:0:0:0:
109,192,114259,1,0,0:0:0:0:
256,192,114259,1,0,0:0:0:0:
402,192,114259,1,0,0:0:0:0:
475,192,114259,1,0,0:0:0:0:
36,192,114493,128,0,114669:0:0:0:0:
475,192,114493,128,0,114669:0:0:0:0:
109,192,114551,128,0,114669:0:0:0:0:
402,192,114551,128,0,114669:0:0:0:0:
182,192,114610,128,0,114669:0:0:0:0:
329,192,114610,128,0,114669:0:0:0:0:
256,192,114669,1,0,0:0:0:0:
475,192,114727,128,0,114903:0:0:0:0:
36,192,114727,128,0,114903:0:0:0:0:
109,192,114786,128,0,114903:0:0:0:0:
402,192,114786,128,0,114903:0:0:0:0:
329,192,114844,128,0,114903:0:0:0:0:
182,192,114844,128,0,114903:0:0:0:0:
256,192,114903,1,0,0:0:0:0:
36,192,114962,128,0,115137:0:0:0:0:
475,192,114962,128,0,115137:0:0:0:0:
402,192,115020,128,0,115137:0:0:0:0:
109,192,115020,128,0,115137:0:0:0:0:
182,192,115079,128,0,115137:0:0:0:0:
329,192,115079,128,0,115137:0:0:0:0:
256,192,115137,1,0,0:0:0:0:
36,192,115196,1,0,0:0:0:0:
182,192,115196,1,0,0:0:0:0:
256,192,115196,128,0,115782:0:0:0:0:
475,192,115274,1,0,0:0:0:0:
329,192,115274,1,0,0:0:0:0:
109,192,115352,1,0,0:0:0:0:
402,192,115352,1,0,0:0:0:0:
36,192,115430,1,0,0:0:0:0:
329,192,115430,1,0,0:0:0:0:
329,192,115665,128,0,116075:0:0:0:0:
182,192,115665,128,0,116075:0:0:0:0:
402,192,115782,128,0,116075:0:0:0:0:
109,192,115782,128,0,116075:0:0:0:0:
475,192,115899,1,0,0:0:0:0:
36,192,115899,1,0,0:0:0:0:
256,192,115899,1,0,0:0:0:0:
256,192,116134,128,0,116485:0:0:0:0:
475,192,116134,128,0,116485:0:0:0:0:
402,192,116134,128,0,116251:0:0:0:0:
109,192,116134,128,0,116251:0:0:0:0:
36,192,116134,1,0,0:0:0:0:
182,192,116134,1,0,0:0:0:0:
329,192,116134,128,0,116251:0:0:0:0:
182,192,116368,128,0,116485:0:0:0:0:
402,192,116368,128,0,116485:0:0:0:0:
36,192,116368,128,0,116602:0:0:0:0:
329,192,116368,128,0,116602:0:0:0:0:
109,192,116368,1,0,0:0:0:0:
109,192,116602,1,0,0:0:0:0:
182,192,116602,1,0,0:0:0:0:
256,192,116602,1,0,0:0:0:0:
402,192,116602,128,0,116719:0:0:0:0:
475,192,116602,1,0,0:0:0:0:
475,192,116837,128,0,116954:0:0:0:0:
329,192,116837,128,0,116954:0:0:0:0:
256,192,116837,128,0,116954:0:0:0:0:
109,192,116837,128,0,116954:0:0:0:0:
182,192,117071,128,0,117540:0:0:0:0:
256,192,117071,128,0,117188:0:0:0:0:
402,192,117071,128,0,117305:0:0:0:0:
329,192,117071,128,0,117188:0:0:0:0:
475,192,117071,128,0,117540:0:0:0:0:
36,192,117071,128,0,117188:0:0:0:0:
109,192,117071,128,0,117305:0:0:0:0:
36,192,117305,1,0,0:0:0:0:
329,192,117305,128,0,117540:0:0:0:0:
256,192,117305,128,0,117423:0:0:0:0:
36,192,117540,128,0,117657:0:0:0:0:
109,192,117540,1,0,0:0:0:0:
256,192,117540,1,0,0:0:0:0:
402,192,117540,1,0,0:0:0:0:
402,192,117774,128,0,118536:0:0:0:0:
256,192,117774,128,0,118653:0:0:0:0:
109,192,117774,128,0,118536:0:0:0:0:
36,192,118009,1,0,0:0:0:0:
182,192,118009,1,0,0:0:0:0:
329,192,118009,1,0,0:0:0:0:
475,192,118009,1,0,0:0:0:0:
36,192,118536,128,0,118712:0:0:0:0:
182,192,118536,1,0,0:0:0:0:
475,192,118536,128,0,118712:0:0:0:0:
329,192,118536,1,0,0:0:0:0:
109,192,118594,128,0,118770:0:0:0:0:
402,192,118594,128,0,118770:0:0:0:0:
182,192,118653,128,0,118829:0:0:0:0:
329,192,118653,128,0,118829:0:0:0:0:
256,192,118712,128,0,118887:0:0:0:0:
36,192,118770,1,0,0:0:0:0:
475,192,118770,1,0,0:0:0:0:
109,192,118829,1,0,0:0:0:0:
402,192,118829,1,0,0:0:0:0:
182,192,118887,1,0,0:0:0:0:
329,192,118887,1,0,0:0:0:0:
256,192,118946,1,0,0:0:0:0:
475,192,118946,128,0,119005:0:0:0:0:
402,192,118946,128,0,119005:0:0:0:0:
109,192,118946,128,0,119005:0:0:0:0:
36,192,118946,1,0,0:0:0:0:
402,192,119180,128,0,119239:0:0:0:0:
475,192,119180,128,0,119239:0:0:0:0:
36,192,119180,1,0,0:0:0:0:
182,192,119180,128,0,119239:0:0:0:0:
329,192,119180,1,0,0:0:0:0:
475,192,119415,1,0,0:0:0:0:
329,192,119415,128,0,119532:0:0:0:0:
256,192,119415,128,0,119649:0:0:0:0:
109,192,119415,128,0,119649:0:0:0:0:
36,192,119415,1,0,0:0:0:0:
182,192,119415,128,0,119532:0:0:0:0:
402,192,119532,1,0,0:0:0:0:
329,192,119649,1,0,0:0:0:0:
475,192,119649,1,0,0:0:0:0:
182,192,119649,1,0,0:0:0:0:
36,192,119649,1,0,0:0:0:0:
402,192,119884,128,0,120059:0:0:0:0:
329,192,119884,128,0,120001:0:0:0:0:
475,192,119884,128,0,119942:0:0:0:0:
256,192,119884,128,0,119942:0:0:0:0:
182,192,119884,128,0,120352:0:0:0:0:
109,192,119884,128,0,120001:0:0:0:0:
36,192,119884,128,0,120059:0:0:0:0:
256,192,120118,128,0,120235:0:0:0:0:
329,192,120118,128,0,120294:0:0:0:0:
402,192,120118,128,0,120176:0:0:0:0:
475,192,120118,128,0,120235:0:0:0:0:
109,192,120118,128,0,120176:0:0:0:0:
36,192,120118,128,0,120235:0:0:0:0:
475,192,120352,128,0,120469:0:0:0:0:
402,192,120352,1,0,0:0:0:0:
256,192,120352,1,0,0:0:0:0:
109,192,120352,1,0,0:0:0:0:
36,192,120352,1,0,0:0:0:0:
402,192,120587,128,0,120704:0:0:0:0:
109,192,120587,128,0,121290:0:0:0:0:
182,192,120645,128,0,120704:0:0:0:0:
256,192,120704,128,0,121231:0:0:0:0:
475,192,120821,128,0,120938:0:0:0:0:
402,192,120821,128,0,120997:0:0:0:0:
329,192,120821,128,0,120880:0:0:0:0:
36,192,120821,128,0,120938:0:0:0:0:
36,192,121055,128,0,121114:0:0:0:0:
182,192,121055,128,0,121231:0:0:0:0:
329,192,121055,128,0,121173:0:0:0:0:
402,192,121055,128,0,121114:0:0:0:0:
475,192,121055,128,0,121231:0:0:0:0:
475,192,121290,1,0,0:0:0:0:
402,192,121290,1,0,0:0:0:0:
329,192,121290,1,0,0:0:0:0:
256,192,121290,1,0,0:0:0:0:
182,192,121290,1,0,0:0:0:0:
36,192,121290,1,0,0:0:0:0:
182,192,121524,128,0,122696:0:0:0:0:
329,192,121524,128,0,122696:0:0:0:0:
256,192,121759,1,0,0:0:0:0:
402,192,121759,1,0,0:0:0:0:
475,192,121759,1,0,0:0:0:0:
109,192,121759,1,0,0:0:0:0:
36,192,121759,1,0,0:0:0:0:
256,192,121993,128,0,122051:0:0:0:0:
109,192,121993,128,0,122110:0:0:0:0:
36,192,121993,128,0,122169:0:0:0:0:
402,192,121993,128,0,122051:0:0:0:0:
475,192,121993,128,0,122169:0:0:0:0:
475,192,122227,128,0,122286:0:0:0:0:
402,192,122227,128,0,122344:0:0:0:0:
256,192,122227,128,0,122403:0:0:0:0:
109,192,122227,128,0,122286:0:0:0:0:
36,192,122227,128,0,122344:0:0:0:0:
36,192,122462,128,0,122637:0:0:0:0:
475,192,122462,128,0,122637:0:0:0:0:
109,192,122520,128,0,122637:0:0:0:0:
402,192,122520,128,0,122637:0:0:0:0:
256,192,122579,128,0,122637:0:0:0:0:
36,192,122696,128,0,123634:0:0:0:0:
475,192,122696,128,0,123634:0:0:0:0:
109,192,122696,1,0,0:0:0:0:
402,192,122696,1,0,0:0:0:0:
256,192,122774,1,0,0:0:0:0:
182,192,122852,1,0,0:0:0:0:
402,192,122852,1,0,0:0:0:0:
329,192,122930,1,0,0:0:0:0:
109,192,122930,1,0,0:0:0:0:
256,192,122930,1,0,0:0:0:0:
109,192,123165,128,0,123634:0:0:0:0:
402,192,123165,128,0,123634:0:0:0:0:
182,192,123165,1,0,0:0:0:0:
329,192,123165,1,0,0:0:0:0:
182,192,123399,128,0,123575:0:0:0:0:
329,192,123399,128,0,123634:0:0:0:0:
256,192,123399,1,0,0:0:0:0:
256,192,123634,1,0,0:0:0:0:
182,192,123634,128,0,124571:0:0:0:0:
256,192,124102,128,0,124337:0:0:0:0:
402,192,124102,1,0,0:0:0:0:
329,192,124337,128,0,124571:0:0:0:0:
109,192,124337,1,0,0:0:0:0:
402,192,124571,128,0,124805:0:0:0:0:
475,192,124571,128,0,127149:0:0:0:0:
256,192,124805,128,0,125040:0:0:0:0:
329,192,124805,1,0,0:0:0:0:
329,192,125040,128,0,125274:0:0:0:0:
109,192,125040,1,0,0:0:0:0:
256,192,125274,128,0,126446:0:0:0:0:
36,192,125509,128,0,127149:0:0:0:0:
402,192,125977,1,0,0:0:0:0:
109,192,126212,1,0,0:0:0:0:
182,192,126446,128,0,126680:0:0:0:0:
329,192,126446,1,0,0:0:0:0:
256,192,126680,128,0,128321:0:0:0:0:
329,192,126680,1,0,0:0:0:0:
182,192,126915,1,0,0:0:0:0:
109,192,127032,1,0,0:0:0:0:
402,192,127149,128,0,127618:0:0:0:0:
182,192,127149,1,0,0:0:0:0:
329,192,127618,128,0,127852:0:0:0:0:
182,192,127852,128,0,131075:0:0:0:0:
402,192,127852,1,0,0:0:0:0:
109,192,128087,1,0,0:0:0:0:
402,192,128321,128,0,128555:0:0:0:0:
329,192,128555,128,0,130196:0:0:0:0:
475,192,128555,1,0,0:0:0:0:
109,192,128790,1,0,0:0:0:0:
402,192,129727,1,0,0:0:0:0:
109,192,129962,1,0,0:0:0:0:
256,192,130196,128,0,130430:0:0:0:0:
109,192,130430,128,0,130665:0:0:0:0:
475,192,130430,1,0,0:0:0:0:
36,192,130665,128,0,131134:0:0:0:0:
402,192,130665,1,0,0:0:0:0:
329,192,130782,1,0,0:0:0:0:
402,192,130899,1,0,0:0:0:0:
182,192,131134,128,0,132071:0:0:0:0:
109,192,131134,1,0,0:0:0:0:
256,192,131602,128,0,131837:0:0:0:0:
402,192,131602,1,0,0:0:0:0:
36,192,131602,1,0,0:0:0:0:
329,192,131837,128,0,132071:0:0:0:0:
109,192,131837,1,0,0:0:0:0:
475,192,131837,1,0,0:0:0:0:
402,192,132071,128,0,132305:0:0:0:0:
475,192,132071,128,0,134649:0:0:0:0:
256,192,132305,128,0,132540:0:0:0:0:
329,192,132305,1,0,0:0:0:0:
329,192,132540,128,0,132774:0:0:0:0:
109,192,132540,1,0,0:0:0:0:
36,192,132540,1,0,0:0:0:0:
256,192,132774,128,0,133946:0:0:0:0:
402,192,132774,1,0,0:0:0:0:
36,192,133009,128,0,134649:0:0:0:0:
109,192,133243,1,0,0:0:0:0:
402,192,133477,1,0,0:0:0:0:
182,192,133477,1,0,0:0:0:0:
109,192,133712,1,0,0:0:0:0:
329,192,133712,1,0,0:0:0:0:
182,192,133946,128,0,134180:0:0:0:0:
329,192,133946,1,0,0:0:0:0:
256,192,134180,128,0,135821:0:0:0:0:
329,192,134180,1,0,0:0:0:0:
182,192,134415,1,0,0:0:0:0:
402,192,134415,1,0,0:0:0:0:
109,192,134532,1,0,0:0:0:0:
402,192,134649,128,0,135118:0:0:0:0:
182,192,134649,1,0,0:0:0:0:
329,192,134649,1,0,0:0:0:0:
329,192,135118,128,0,135352:0:0:0:0:
475,192,135118,1,0,0:0:0:0:
182,192,135352,128,0,138575:0:0:0:0:
402,192,135352,1,0,0:0:0:0:
36,192,135352,1,0,0:0:0:0:
109,192,135587,1,0,0:0:0:0:
329,192,135587,1,0,0:0:0:0:
402,192,135821,128,0,136055:0:0:0:0:
329,192,136055,128,0,137696:0:0:0:0:
475,192,136055,1,0,0:0:0:0:
109,192,136290,1,0,0:0:0:0:
475,192,136524,1,0,0:0:0:0:
402,192,136759,1,0,0:0:0:0:
256,192,136993,1,0,0:0:0:0:
402,192,137227,1,0,0:0:0:0:
36,192,137227,1,0,0:0:0:0:
109,192,137462,1,0,0:0:0:0:
256,192,137462,1,0,0:0:0:0:
256,192,137696,128,0,137930:0:0:0:0:
475,192,137696,1,0,0:0:0:0:
109,192,137930,128,0,138165:0:0:0:0:
475,192,137930,1,0,0:0:0:0:
36,192,138165,128,0,138634:0:0:0:0:
402,192,138165,1,0,0:0:0:0:
329,192,138282,1,0,0:0:0:0:
402,192,138399,1,0,0:0:0:0:
182,192,138634,128,0,139571:0:0:0:0:
256,192,139102,128,0,139337:0:0:0:0:
402,192,139102,1,0,0:0:0:0:
36,192,139102,1,0,0:0:0:0:
329,192,139337,128,0,139571:0:0:0:0:
109,192,139337,1,0,0:0:0:0:
475,192,139337,1,0,0:0:0:0:
402,192,139571,128,0,139805:0:0:0:0:
475,192,139571,128,0,142149:0:0:0:0:
256,192,139805,128,0,140040:0:0:0:0:
329,192,139805,1,0,0:0:0:0:
329,192,140040,128,0,140274:0:0:0:0:
109,192,140040,1,0,0:0:0:0:
36,192,140040,1,0,0:0:0:0:
256,192,140274,128,0,141446:0:0:0:0:
402,192,140274,1,0,0:0:0:0:
36,192,140509,128,0,142149:0:0:0:0:
109,192,140743,1,0,0:0:0:0:
402,192,140977,1,0,0:0:0:0:
182,192,140977,1,0,0:0:0:0:
109,192,141212,1,0,0:0:0:0:
329,192,141212,1,0,0:0:0:0:
182,192,141446,128,0,141680:0:0:0:0:
256,192,141680,128,0,143321:0:0:0:0:
402,192,141680,1,0,0:0:0:0:
182,192,141915,1,0,0:0:0:0:
402,192,141915,1,0,0:0:0:0:
109,192,142032,1,0,0:0:0:0:
402,192,142149,128,0,142618:0:0:0:0:
182,192,142149,1,0,0:0:0:0:
329,192,142149,128,0,142559:0:0:0:0:
329,192,142618,128,0,142852:0:0:0:0:
182,192,142618,128,0,142794:0:0:0:0:
475,192,142618,1,0,0:0:0:0:
182,192,142852,128,0,146075:0:0:0:0:
475,192,142852,1,0,0:0:0:0:
109,192,142852,128,0,146075:0:0:0:0:
36,192,142852,1,0,0:0:0:0:
36,192,143087,1,0,0:0:0:0:
402,192,143087,1,0,0:0:0:0:
402,192,143321,128,0,143555:0:0:0:0:
329,192,143555,128,0,145196:0:0:0:0:
475,192,143555,1,0,0:0:0:0:
36,192,143790,1,0,0:0:0:0:
475,192,143790,1,0,0:0:0:0:
402,192,144024,1,0,0:0:0:0:
256,192,144259,1,0,0:0:0:0:
36,192,144493,1,0,0:0:0:0:
402,192,144727,1,0,0:0:0:0:
256,192,144727,1,0,0:0:0:0:
36,192,144962,1,0,0:0:0:0:
475,192,144962,1,0,0:0:0:0:
402,192,145196,128,0,145430:0:0:0:0:
256,192,145430,128,0,145665:0:0:0:0:
475,192,145430,1,0,0:0:0:0:
36,192,145665,128,0,146485:0:0:0:0:
402,192,145665,1,0,0:0:0:0:
475,192,145665,1,0,0:0:0:0:
329,192,145782,1,0,0:0:0:0:
402,192,145899,1,0,0:0:0:0:
475,192,145899,1,0,0:0:0:0:
182,192,146134,128,0,148360:0:0:0:0:
109,192,146134,128,0,146719:0:0:0:0:
329,192,146134,128,0,146485:0:0:0:0:
256,192,146134,128,0,147188:0:0:0:0:
402,192,146134,128,0,146719:0:0:0:0:
475,192,146134,128,0,146954:0:0:0:0:
329,192,146602,128,0,147188:0:0:0:0:
36,192,146602,128,0,147423:0:0:0:0:
109,192,146837,128,0,147423:0:0:0:0:
402,192,146837,128,0,146954:0:0:0:0:
475,192,147071,128,0,149532:0:0:0:0:
402,192,147071,128,0,147657:0:0:0:0:
256,192,147305,128,0,147657:0:0:0:0:
329,192,147305,128,0,147423:0:0:0:0:
329,192,147540,128,0,148360:0:0:0:0:
109,192,147540,128,0,148126:0:0:0:0:
36,192,147540,128,0,147891:0:0:0:0:
256,192,147774,128,0,149063:0:0:0:0:
402,192,147774,128,0,148594:0:0:0:0:
36,192,148009,128,0,150235:0:0:0:0:
109,192,148243,128,0,148594:0:0:0:0:
329,192,148477,128,0,149063:0:0:0:0:
182,192,148477,128,0,148829:0:0:0:0:
109,192,148712,128,0,149415:0:0:0:0:
402,192,148712,128,0,149532:0:0:0:0:
182,192,148946,128,0,149298:0:0:0:0:
256,192,149180,128,0,151407:0:0:0:0:
329,192,149180,128,0,149298:0:0:0:0:
182,192,149415,128,0,149532:0:0:0:0:
329,192,149415,128,0,149532:0:0:0:0:
109,192,149532,128,0,150235:0:0:0:0:
402,192,149649,128,0,150235:0:0:0:0:
329,192,149649,128,0,150001:0:0:0:0:
182,192,149649,128,0,150001:0:0:0:0:
475,192,149649,128,0,150001:0:0:0:0:
329,192,150118,128,0,150469:0:0:0:0:
182,192,150118,128,0,150235:0:0:0:0:
475,192,150118,128,0,150938:0:0:0:0:
182,192,150352,128,0,153516:0:0:0:0:
109,192,150352,128,0,151173:0:0:0:0:
402,192,150352,128,0,150704:0:0:0:0:
36,192,150352,128,0,150469:0:0:0:0:
36,192,150587,128,0,151876:0:0:0:0:
329,192,150587,128,0,150938:0:0:0:0:
402,192,150821,128,0,151173:0:0:0:0:
329,192,151055,128,0,153165:0:0:0:0:
475,192,151055,128,0,152344:0:0:0:0:
109,192,151290,128,0,151641:0:0:0:0:
402,192,151290,128,0,152110:0:0:0:0:
256,192,151524,128,0,152110:0:0:0:0:
109,192,151759,128,0,152344:0:0:0:0:
36,192,151993,128,0,153048:0:0:0:0:
402,192,152227,128,0,153048:0:0:0:0:
256,192,152227,128,0,152579:0:0:0:0:
109,192,152462,128,0,152813:0:0:0:0:
475,192,152462,128,0,152813:0:0:0:0:
256,192,152696,128,0,153516:0:0:0:0:
109,192,152930,128,0,153516:0:0:0:0:
475,192,152930,128,0,153516:0:0:0:0:
36,192,153165,128,0,153516:0:0:0:0:
402,192,153165,128,0,153282:0:0:0:0:
329,192,153282,128,0,153516:0:0:0:0:
402,192,153399,128,0,153516:0:0:0:0:
256,192,153634,128,0,154454:0:0:0:0:
182,192,153634,128,0,153985:0:0:0:0:
329,192,153634,128,0,153985:0:0:0:0:
402,192,153634,128,0,153751:0:0:0:0:
475,192,153634,128,0,153868:0:0:0:0:
36,192,153634,128,0,153868:0:0:0:0:
109,192,153634,128,0,153751:0:0:0:0:
109,192,153868,1,0,0:0:0:0:
402,192,153868,1,0,0:0:0:0:
109,192,154102,128,0,154454:0:0:0:0:
402,192,154102,128,0,154454:0:0:0:0:
182,192,154102,128,0,154219:0:0:0:0:
329,192,154102,128,0,154219:0:0:0:0:
475,192,154102,128,0,154337:0:0:0:0:
36,192,154102,128,0,154337:0:0:0:0:
182,192,154337,1,0,0:0:0:0:
329,192,154337,1,0,0:0:0:0:
256,192,154571,128,0,155391:0:0:0:0:
109,192,154571,128,0,154923:0:0:0:0:
475,192,154571,128,0,154923:0:0:0:0:
402,192,154571,128,0,154805:0:0:0:0:
182,192,154571,128,0,154688:0:0:0:0:
36,192,154571,128,0,154805:0:0:0:0:
329,192,154571,128,0,154688:0:0:0:0:
182,192,154805,1,0,0:0:0:0:
329,192,154805,1,0,0:0:0:0:
475,192,155040,128,0,155391:0:0:0:0:
402,192,155040,128,0,155274:0:0:0:0:
329,192,155040,128,0,155157:0:0:0:0:
182,192,155040,128,0,155391:0:0:0:0:
109,192,155040,128,0,155274:0:0:0:0:
36,192,155040,128,0,155157:0:0:0:0:
36,192,155274,1,0,0:0:0:0:
329,192,155274,1,0,0:0:0:0:
256,192,155509,128,0,156329:0:0:0:0:
402,192,155509,128,0,155860:0:0:0:0:
182,192,155509,128,0,155860:0:0:0:0:
329,192,155509,128,0,155626:0:0:0:0:
475,192,155509,128,0,155626:0:0:0:0:
109,192,155509,128,0,155743:0:0:0:0:
36,192,155509,128,0,155743:0:0:0:0:
475,192,155743,1,0,0:0:0:0:
329,192,155743,1,0,0:0:0:0:
182,192,155977,128,0,156094:0:0:0:0:
109,192,155977,128,0,156329:0:0:0:0:
36,192,155977,128,0,156094:0:0:0:0:
402,192,155977,128,0,156329:0:0:0:0:
329,192,155977,128,0,156212:0:0:0:0:
475,192,155977,128,0,156212:0:0:0:0:
36,192,156212,1,0,0:0:0:0:
182,192,156212,1,0,0:0:0:0:
256,192,156446,128,0,157266:0:0:0:0:
475,192,156446,128,0,156798:0:0:0:0:
329,192,156446,128,0,156680:0:0:0:0:
402,192,156446,128,0,156563:0:0:0:0:
182,192,156446,128,0,156680:0:0:0:0:
109,192,156446,128,0,156563:0:0:0:0:
36,192,156446,128,0,156798:0:0:0:0:
402,192,156680,1,0,0:0:0:0:
109,192,156680,1,0,0:0:0:0:
182,192,156915,128,0,157032:0:0:0:0:
329,192,156915,128,0,157032:0:0:0:0:
402,192,156915,128,0,157149:0:0:0:0:
475,192,156915,128,0,157266:0:0:0:0:
109,192,156915,128,0,157149:0:0:0:0:
36,192,156915,128,0,157266:0:0:0:0:
182,192,157149,1,0,0:0:0:0:
329,192,157149,1,0,0:0:0:0:
329,192,157384,128,0,158204:0:0:0:0:
402,192,157384,128,0,157501:0:0:0:0:
475,192,157384,128,0,157735:0:0:0:0:
182,192,157384,128,0,157735:0:0:0:0:
256,192,157384,128,0,157501:0:0:0:0:
109,192,157384,128,0,157618:0:0:0:0:
36,192,157384,128,0,157618:0:0:0:0:
402,192,157618,1,0,0:0:0:0:
256,192,157618,1,0,0:0:0:0:
402,192,157852,128,0,157969:0:0:0:0:
109,192,157852,128,0,157969:0:0:0:0:
182,192,157852,128,0,158204:0:0:0:0:
36,192,157852,128,0,158204:0:0:0:0:
475,192,157852,128,0,158087:0:0:0:0:
256,192,157852,128,0,158087:0:0:0:0:
109,192,158087,1,0,0:0:0:0:
402,192,158087,1,0,0:0:0:0:
109,192,158321,128,0,159141:0:0:0:0:
36,192,158321,128,0,158673:0:0:0:0:
182,192,158321,128,0,158555:0:0:0:0:
475,192,158321,128,0,158438:0:0:0:0:
256,192,158321,128,0,158438:0:0:0:0:
329,192,158321,128,0,158673:0:0:0:0:
402,192,158321,128,0,158555:0:0:0:0:
256,192,158555,1,0,0:0:0:0:
475,192,158555,1,0,0:0:0:0:
475,192,158790,128,0,159141:0:0:0:0:
256,192,158790,128,0,159024:0:0:0:0:
402,192,158790,128,0,158907:0:0:0:0:
36,192,158790,128,0,158907:0:0:0:0:
329,192,158790,128,0,159024:0:0:0:0:
182,192,158790,128,0,159141:0:0:0:0:
402,192,159024,1,0,0:0:0:0:
36,192,159024,1,0,0:0:0:0:
182,192,159259,128,0,160079:0:0:0:0:
329,192,159259,128,0,159610:0:0:0:0:
36,192,159259,128,0,159610:0:0:0:0:
256,192,159259,128,0,159376:0:0:0:0:
475,192,159259,128,0,159376:0:0:0:0:
109,192,159259,128,0,159493:0:0:0:0:
402,192,159259,128,0,159493:0:0:0:0:
475,192,159493,1,0,0:0:0:0:
256,192,159493,1,0,0:0:0:0:
475,192,159727,128,0,160079:0:0:0:0:
109,192,159727,128,0,160079:0:0:0:0:
36,192,159727,128,0,159844:0:0:0:0:
329,192,159727,128,0,159844:0:0:0:0:
256,192,159727,128,0,159962:0:0:0:0:
402,192,159727,128,0,159962:0:0:0:0:
36,192,159962,1,0,0:0:0:0:
329,192,159962,1,0,0:0:0:0:
402,192,160196,128,0,161016:0:0:0:0:
475,192,160196,128,0,160548:0:0:0:0:
256,192,160196,128,0,160313:0:0:0:0:
109,192,160196,128,0,160313:0:0:0:0:
36,192,160196,128,0,160548:0:0:0:0:
329,192,160196,128,0,160430:0:0:0:0:
182,192,160196,128,0,160430:0:0:0:0:
256,192,160430,1,0,0:0:0:0:
109,192,160430,1,0,0:0:0:0:
329,192,160665,128,0,161016:0:0:0:0:
109,192,160665,128,0,161016:0:0:0:0:
182,192,160665,128,0,160782:0:0:0:0:
475,192,160665,128,0,160782:0:0:0:0:
256,192,160665,128,0,160899:0:0:0:0:
36,192,160665,128,0,160899:0:0:0:0:
475,192,160899,1,0,0:0:0:0:
182,192,160899,1,0,0:0:0:0:
182,192,161134,128,0,161954:0:0:0:0:
256,192,161134,128,0,161485:0:0:0:0:
475,192,161134,128,0,161485:0:0:0:0:
329,192,161134,128,0,161251:0:0:0:0:
36,192,161134,128,0,161251:0:0:0:0:
109,192,161134,128,0,161368:0:0:0:0:
402,192,161134,128,0,161368:0:0:0:0:
329,192,161368,1,0,0:0:0:0:
36,192,161368,1,0,0:0:0:0:
402,192,161602,128,0,162423:0:0:0:0:
329,192,161602,128,0,161837:0:0:0:0:
36,192,161602,128,0,161719:0:0:0:0:
256,192,161602,128,0,161719:0:0:0:0:
109,192,161602,128,0,161837:0:0:0:0:
475,192,161602,128,0,161954:0:0:0:0:
36,192,161837,1,0,0:0:0:0:
256,192,161837,1,0,0:0:0:0:
109,192,162071,128,0,162891:0:0:0:0:
329,192,162071,128,0,162188:0:0:0:0:
36,192,162071,128,0,162188:0:0:0:0:
182,192,162071,128,0,162305:0:0:0:0:
475,192,162071,128,0,162305:0:0:0:0:
256,192,162071,128,0,162423:0:0:0:0:
329,192,162305,1,0,0:0:0:0:
36,192,162305,1,0,0:0:0:0:
475,192,162540,128,0,163360:0:0:0:0:
402,192,162540,128,0,162657:0:0:0:0:
182,192,162540,128,0,162657:0:0:0:0:
329,192,162540,128,0,162774:0:0:0:0:
36,192,162540,128,0,162774:0:0:0:0:
256,192,162540,128,0,162891:0:0:0:0:
402,192,162774,1,0,0:0:0:0:
182,192,162774,1,0,0:0:0:0:
182,192,163009,128,0,163829:0:0:0:0:
402,192,163009,128,0,163126:0:0:0:0:
36,192,163009,128,0,163126:0:0:0:0:
329,192,163009,128,0,163243:0:0:0:0:
109,192,163009,128,0,163243:0:0:0:0:
256,192,163009,128,0,163360:0:0:0:0:
402,192,163243,1,0,0:0:0:0:
36,192,163243,1,0,0:0:0:0:
36,192,163477,128,0,164298:0:0:0:0:
109,192,163477,128,0,163594:0:0:0:0:
402,192,163477,128,0,163594:0:0:0:0:
256,192,163477,128,0,163712:0:0:0:0:
475,192,163477,128,0,163712:0:0:0:0:
329,192,163477,128,0,163829:0:0:0:0:
109,192,163712,1,0,0:0:0:0:
402,192,163712,1,0,0:0:0:0:
329,192,163946,128,0,164766:0:0:0:0:
256,192,163946,128,0,164063:0:0:0:0:
475,192,163946,128,0,164063:0:0:0:0:
402,192,163946,128,0,164180:0:0:0:0:
109,192,163946,128,0,164180:0:0:0:0:
182,192,163946,128,0,164298:0:0:0:0:
256,192,164180,1,0,0:0:0:0:
475,192,164180,1,0,0:0:0:0:
475,192,164415,128,0,164532:0:0:0:0:
109,192,164415,128,0,164532:0:0:0:0:
256,192,164415,128,0,164649:0:0:0:0:
36,192,164415,128,0,164649:0:0:0:0:
182,192,164415,128,0,164766:0:0:0:0:
402,192,164415,128,0,165001:0:0:0:0:
475,192,164649,1,0,0:0:0:0:
109,192,164649,1,0,0:0:0:0:
109,192,164884,128,0,165235:0:0:0:0:
182,192,164884,128,0,165001:0:0:0:0:
475,192,164884,128,0,165001:0:0:0:0:
36,192,164884,128,0,165001:0:0:0:0:
256,192,164884,128,0,165001:0:0:0:0:
329,192,164884,128,0,165235:0:0:0:0:
256,192,165118,128,0,165235:0:0:0:0:
36,192,165118,128,0,165235:0:0:0:0:
475,192,165118,128,0,165469:0:0:0:0:
182,192,165118,128,0,165469:0:0:0:0:
402,192,165118,128,0,165235:0:0:0:0:
109,192,165352,128,0,165469:0:0:0:0:
36,192,165352,128,0,165704:0:0:0:0:
329,192,165352,128,0,165469:0:0:0:0:
256,192,165352,128,0,165704:0:0:0:0:
402,192,165352,128,0,165469:0:0:0:0:
402,192,165587,128,0,165938:0:0:0:0:
182,192,165587,128,0,165938:0:0:0:0:
475,192,165587,128,0,165704:0:0:0:0:
109,192,165587,128,0,165704:0:0:0:0:
329,192,165587,128,0,165704:0:0:0:0:
109,192,165821,128,0,166173:0:0:0:0:
36,192,165821,128,0,165938:0:0:0:0:
475,192,165821,128,0,165938:0:0:0:0:
256,192,165821,128,0,165938:0:0:0:0:
329,192,165821,128,0,166173:0:0:0:0:
475,192,166055,128,0,166407:0:0:0:0:
402,192,166055,128,0,166173:0:0:0:0:
36,192,166055,128,0,166173:0:0:0:0:
256,192,166055,128,0,166407:0:0:0:0:
182,192,166055,128,0,166173:0:0:0:0:
182,192,166290,128,0,166407:0:0:0:0:
402,192,166290,128,0,166407:0:0:0:0:
329,192,166290,128,0,166641:0:0:0:0:
109,192,166290,128,0,166407:0:0:0:0:
36,192,166290,128,0,166641:0:0:0:0:
182,192,166524,128,0,166876:0:0:0:0:
402,192,166524,128,0,166876:0:0:0:0:
475,192,166524,128,0,166641:0:0:0:0:
256,192,166524,128,0,166641:0:0:0:0:
109,192,166524,128,0,166641:0:0:0:0:
256,192,166759,128,0,167110:0:0:0:0:
475,192,166759,128,0,167110:0:0:0:0:
109,192,166759,128,0,166876:0:0:0:0:
36,192,166759,128,0,166876:0:0:0:0:
329,192,166759,128,0,166876:0:0:0:0:
329,192,166993,128,0,167344:0:0:0:0:
36,192,166993,128,0,167344:0:0:0:0:
402,192,166993,128,0,167110:0:0:0:0:
109,192,166993,128,0,167110:0:0:0:0:
182,192,166993,128,0,167110:0:0:0:0:
109,192,167227,128,0,167579:0:0:0:0:
402,192,167227,128,0,167579:0:0:0:0:
182,192,167227,128,0,167344:0:0:0:0:
256,192,167227,128,0,167344:0:0:0:0:
475,192,167227,128,0,167344:0:0:0:0:
182,192,167462,128,0,167579:0:0:0:0:
256,192,167462,128,0,167579:0:0:0:0:
329,192,167462,128,0,167579:0:0:0:0:
36,192,167462,128,0,167579:0:0:0:0:
475,192,167462,128,0,167579:0:0:0:0:
36,192,167696,128,0,168634:0:0:0:0:
475,192,167696,128,0,168634:0:0:0:0:
109,192,167813,128,0,168516:0:0:0:0:
402,192,167813,128,0,168516:0:0:0:0:
182,192,167930,128,0,168399:0:0:0:0:
329,192,167930,128,0,168399:0:0:0:0:
256,192,168048,128,0,168282:0:0:0:0:
256,192,168634,128,0,169454:0:0:0:0:
182,192,168634,128,0,168868:0:0:0:0:
329,192,168634,128,0,168868:0:0:0:0:
109,192,168634,1,0,0:0:0:0:
402,192,168634,1,0,0:0:0:0:
36,192,168868,1,0,0:0:0:0:
475,192,168868,1,0,0:0:0:0:
182,192,168985,128,0,169102:0:0:0:0:
329,192,168985,128,0,169102:0:0:0:0:
36,192,168985,128,0,169102:0:0:0:0:
475,192,168985,128,0,169102:0:0:0:0:
109,192,169102,1,0,0:0:0:0:
402,192,169102,1,0,0:0:0:0:
182,192,169219,128,0,169454:0:0:0:0:
329,192,169219,128,0,169454:0:0:0:0:
109,192,169219,128,0,169454:0:0:0:0:
402,192,169219,128,0,169454:0:0:0:0:
36,192,169337,1,0,0:0:0:0:
475,192,169337,1,0,0:0:0:0:
182,192,169571,128,0,169688:0:0:0:0:
329,192,169571,128,0,169688:0:0:0:0:
475,192,169571,128,0,169688:0:0:0:0:
36,192,169571,1,0,0:0:0:0:
109,192,169571,1,0,0:0:0:0:
256,192,169571,1,0,0:0:0:0:
402,192,169571,1,0,0:0:0:0:
36,192,169805,128,0,169923:0:0:0:0:
182,192,169805,128,0,169923:0:0:0:0:
329,192,169805,128,0,169923:0:0:0:0:
109,192,169805,1,0,0:0:0:0:
256,192,169805,1,0,0:0:0:0:
402,192,169805,1,0,0:0:0:0:
475,192,169805,1,0,0:0:0:0:
182,192,170040,1,0,0:0:0:0:
36,192,170040,1,0,0:0:0:0:
256,192,170040,1,0,0:0:0:0:
329,192,170040,1,0,0:0:0:0:
475,192,170040,1,0,0:0:0:0:
182,192,170157,128,0,170391:0:0:0:0:
329,192,170157,128,0,170391:0:0:0:0:
109,192,170274,1,0,0:0:0:0:
402,192,170274,1,0,0:0:0:0:
36,192,170509,128,0,170626:0:0:0:0:
109,192,170509,128,0,170665:0:0:0:0:
182,192,170509,128,0,170704:0:0:0:0:
329,192,170509,128,0,170782:0:0:0:0:
402,192,170509,128,0,170821:0:0:0:0:
475,192,170509,128,0,170860:0:0:0:0:
256,192,170509,128,0,170743:0:0:0:0:
402,192,170977,128,0,171134:0:0:0:0:
475,192,170977,128,0,171094:0:0:0:0:
182,192,170977,128,0,171251:0:0:0:0:
109,192,170977,128,0,171290:0:0:0:0:
256,192,170977,128,0,171212:0:0:0:0:
36,192,170977,128,0,171329:0:0:0:0:
329,192,170977,128,0,171173:0:0:0:0:
109,192,171446,128,0,171602:0:0:0:0:
475,192,171446,128,0,171798:0:0:0:0:
402,192,171446,128,0,171759:0:0:0:0:
36,192,171446,128,0,171563:0:0:0:0:
329,192,171446,128,0,171719:0:0:0:0:
182,192,171446,128,0,171641:0:0:0:0:
256,192,171446,128,0,171680:0:0:0:0:
36,192,171915,128,0,172266:0:0:0:0:
182,192,171915,128,0,172188:0:0:0:0:
109,192,171915,128,0,172227:0:0:0:0:
256,192,171915,128,0,172149:0:0:0:0:
402,192,171915,128,0,172071:0:0:0:0:
475,192,171915,128,0,172032:0:0:0:0:
329,192,171915,128,0,172110:0:0:0:0:
182,192,172384,128,0,172735:0:0:0:0:
402,192,172384,128,0,172735:0:0:0:0:
256,192,172384,1,0,0:0:0:0:
475,192,172384,1,0,0:0:0:0:
329,192,172618,128,0,172969:0:0:0:0:
109,192,172618,128,0,172969:0:0:0:0:
475,192,172618,1,0,0:0:0:0:
402,192,172852,128,0,173204:0:0:0:0:
256,192,172852,1,0,0:0:0:0:
36,192,172852,1,0,0:0:0:0:
182,192,172852,128,0,173204:0:0:0:0:
109,192,173087,128,0,173204:0:0:0:0:
329,192,173087,128,0,173204:0:0:0:0:
475,192,173087,1,0,0:0:0:0:
182,192,173321,128,0,173673:0:0:0:0:
36,192,173321,1,0,0:0:0:0:
256,192,173321,1,0,0:0:0:0:
402,192,173321,128,0,173673:0:0:0:0:
329,192,173321,1,0,0:0:0:0:
256,192,173555,128,0,173673:0:0:0:0:
475,192,173555,128,0,173673:0:0:0:0:
109,192,173555,1,0,0:0:0:0:
402,192,173790,128,0,173907:0:0:0:0:
182,192,173790,128,0,173907:0:0:0:0:
256,192,173790,128,0,174141:0:0:0:0:
36,192,173790,128,0,174141:0:0:0:0:
329,192,173790,1,0,0:0:0:0:
109,192,173790,1,0,0:0:0:0:
109,192,174024,128,0,174141:0:0:0:0:
329,192,174024,128,0,174141:0:0:0:0:
475,192,174024,1,0,0:0:0:0:
329,192,174259,128,0,174610:0:0:0:0:
182,192,174259,1,0,0:0:0:0:
256,192,174259,1,0,0:0:0:0:
475,192,174259,1,0,0:0:0:0:
36,192,174259,1,0,0:0:0:0:
402,192,174493,128,0,174610:0:0:0:0:
109,192,174493,1,0,0:0:0:0:
182,192,174727,128,0,175079:0:0:0:0:
36,192,174727,1,0,0:0:0:0:
256,192,174727,1,0,0:0:0:0:
402,192,174727,1,0,0:0:0:0:
475,192,174727,1,0,0:0:0:0:
329,192,174962,128,0,175079:0:0:0:0:
109,192,174962,128,0,175079:0:0:0:0:
402,192,174962,1,0,0:0:0:0:
475,192,174962,1,0,0:0:0:0:
256,192,175079,128,0,175196:0:0:0:0:
402,192,175196,128,0,175548:0:0:0:0:
475,192,175196,128,0,175313:0:0:0:0:
36,192,175196,1,0,0:0:0:0:
109,192,175196,1,0,0:0:0:0:
182,192,175196,1,0,0:0:0:0:
329,192,175313,128,0,175430:0:0:0:0:
256,192,175313,1,0,0:0:0:0:
36,192,175430,128,0,175548:0:0:0:0:
109,192,175430,1,0,0:0:0:0:
475,192,175430,1,0,0:0:0:0:
182,192,175548,128,0,175665:0:0:0:0:
256,192,175548,1,0,0:0:0:0:
109,192,175665,128,0,176016:0:0:0:0:
475,192,175665,128,0,175782:0:0:0:0:
329,192,175665,1,0,0:0:0:0:
36,192,175665,1,0,0:0:0:0:
402,192,175782,128,0,175899:0:0:0:0:
256,192,175782,1,0,0:0:0:0:
329,192,175899,128,0,176016:0:0:0:0:
36,192,175899,1,0,0:0:0:0:
182,192,175899,1,0,0:0:0:0:
256,192,176016,128,0,176134:0:0:0:0:
475,192,176016,1,0,0:0:0:0:
402,192,176134,128,0,176368:0:0:0:0:
109,192,176134,128,0,176368:0:0:0:0:
36,192,176134,128,0,176368:0:0:0:0:
182,192,176134,128,0,176368:0:0:0:0:
329,192,176134,1,0,0:0:0:0:
475,192,176134,128,0,176954:0:0:0:0:
329,192,176368,1,0,0:0:0:0:
109,192,176485,128,0,176602:0:0:0:0:
402,192,176485,128,0,176602:0:0:0:0:
329,192,176485,128,0,176602:0:0:0:0:
256,192,176485,128,0,176602:0:0:0:0:
36,192,176602,1,0,0:0:0:0:
182,192,176602,1,0,0:0:0:0:
402,192,176719,128,0,176954:0:0:0:0:
109,192,176719,128,0,176954:0:0:0:0:
182,192,176719,128,0,176954:0:0:0:0:
329,192,176719,128,0,176954:0:0:0:0:
36,192,176837,1,0,0:0:0:0:
475,192,177071,128,0,177188:0:0:0:0:
182,192,177071,128,0,177188:0:0:0:0:
109,192,177071,1,0,0:0:0:0:
256,192,177071,1,0,0:0:0:0:
329,192,177071,128,0,177188:0:0:0:0:
402,192,177071,1,0,0:0:0:0:
36,192,177305,128,0,177423:0:0:0:0:
109,192,177305,128,0,177423:0:0:0:0:
402,192,177305,128,0,177423:0:0:0:0:
182,192,177305,1,0,0:0:0:0:
256,192,177305,1,0,0:0:0:0:
475,192,177305,1,0,0:0:0:0:
36,192,177540,1,0,0:0:0:0:
182,192,177540,1,0,0:0:0:0:
256,192,177540,1,0,0:0:0:0:
475,192,177540,1,0,0:0:0:0:
329,192,177657,128,0,177891:0:0:0:0:
402,192,177657,128,0,177891:0:0:0:0:
109,192,177774,1,0,0:0:0:0:
475,192,178009,128,0,178594:0:0:0:0:
182,192,178009,128,0,178594:0:0:0:0:
256,192,178009,128,0,178360:0:0:0:0:
402,192,178126,128,0,178477:0:0:0:0:
109,192,178126,128,0,178477:0:0:0:0:
329,192,178243,128,0,178360:0:0:0:0:
36,192,178243,128,0,178360:0:0:0:0:
36,192,178477,1,0,0:0:0:0:
329,192,178477,1,0,0:0:0:0:
256,192,178477,128,0,178829:0:0:0:0:
109,192,178594,1,0,0:0:0:0:
402,192,178594,1,0,0:0:0:0:
182,192,178712,1,0,0:0:0:0:
475,192,178712,1,0,0:0:0:0:
36,192,178946,128,0,179532:0:0:0:0:
329,192,178946,128,0,179532:0:0:0:0:
256,192,178946,128,0,179298:0:0:0:0:
109,192,179063,128,0,179415:0:0:0:0:
402,192,179063,128,0,179415:0:0:0:0:
182,192,179180,128,0,179298:0:0:0:0:
475,192,179180,128,0,179298:0:0:0:0:
182,192,179415,1,0,0:0:0:0:
475,192,179415,1,0,0:0:0:0:
256,192,179415,128,0,179766:0:0:0:0:
109,192,179532,1,0,0:0:0:0:
402,192,179532,1,0,0:0:0:0:
36,192,179649,1,0,0:0:0:0:
329,192,179649,1,0,0:0:0:0:
256,192,179884,128,0,180704:0:0:0:0:
182,192,179884,128,0,180235:0:0:0:0:
402,192,179884,128,0,180118:0:0:0:0:
329,192,179884,128,0,180001:0:0:0:0:
475,192,179884,128,0,180001:0:0:0:0:
36,192,179884,128,0,180235:0:0:0:0:
109,192,179884,128,0,180001:0:0:0:0:
109,192,180118,1,0,0:0:0:0:
329,192,180118,1,0,0:0:0:0:
475,192,180118,1,0,0:0:0:0:
329,192,180352,128,0,180704:0:0:0:0:
475,192,180352,128,0,180704:0:0:0:0:
402,192,180352,128,0,180469:0:0:0:0:
109,192,180352,128,0,180469:0:0:0:0:
36,192,180352,128,0,180469:0:0:0:0:
182,192,180352,128,0,180587:0:0:0:0:
36,192,180587,1,0,0:0:0:0:
109,192,180587,1,0,0:0:0:0:
402,192,180587,1,0,0:0:0:0:
256,192,180821,128,0,181173:0:0:0:0:
329,192,180821,128,0,181641:0:0:0:0:
36,192,180821,1,0,0:0:0:0:
109,192,180821,1,0,0:0:0:0:
475,192,180821,1,0,0:0:0:0:
402,192,181055,128,0,181641:0:0:0:0:
475,192,181055,128,0,181641:0:0:0:0:
109,192,181055,1,0,0:0:0:0:
256,192,181290,128,0,181641:0:0:0:0:
36,192,181290,1,0,0:0:0:0:
109,192,181290,1,0,0:0:0:0:
182,192,181290,128,0,182579:0:0:0:0:
109,192,181524,128,0,181876:0:0:0:0:
36,192,181524,128,0,181876:0:0:0:0:
256,192,181759,128,0,182110:0:0:0:0:
329,192,181759,128,0,182110:0:0:0:0:
402,192,181759,128,0,182110:0:0:0:0:
475,192,181759,128,0,182110:0:0:0:0:
36,192,181993,128,0,182462:0:0:0:0:
109,192,181993,128,0,182344:0:0:0:0:
256,192,182227,128,0,182696:0:0:0:0:
329,192,182227,128,0,182579:0:0:0:0:
402,192,182227,128,0,182579:0:0:0:0:
475,192,182227,128,0,182579:0:0:0:0:
109,192,182462,128,0,182696:0:0:0:0:
36,192,182579,128,0,182813:0:0:0:0:
329,192,182696,128,0,183048:0:0:0:0:
182,192,182696,128,0,182813:0:0:0:0:
402,192,182696,128,0,183165:0:0:0:0:
475,192,182696,128,0,183048:0:0:0:0:
256,192,182813,128,0,182930:0:0:0:0:
109,192,182813,128,0,182930:0:0:0:0:
182,192,182930,128,0,183282:0:0:0:0:
36,192,182930,128,0,183634:0:0:0:0:
109,192,183048,128,0,183399:0:0:0:0:
256,192,183048,128,0,183165:0:0:0:0:
329,192,183165,128,0,183282:0:0:0:0:
475,192,183165,1,0,0:0:0:0:
256,192,183282,128,0,183399:0:0:0:0:
402,192,183282,1,0,0:0:0:0:
182,192,183399,128,0,183516:0:0:0:0:
329,192,183399,1,0,0:0:0:0:
109,192,183516,128,0,183634:0:0:0:0:
256,192,183516,1,0,0:0:0:0:
402,192,183634,1,0,0:0:0:0:
475,192,183634,1,0,0:0:0:0:
182,192,183634,128,0,183809:0:0:0:0:
329,192,183634,128,0,183809:0:0:0:0:
182,192,183868,1,0,0:0:0:0:
329,192,183868,1,0,0:0:0:0:
256,192,183985,128,0,184102:0:0:0:0:
475,192,183985,128,0,184102:0:0:0:0:
402,192,183985,128,0,184102:0:0:0:0:
36,192,184102,1,0,0:0:0:0:
109,192,184102,1,0,0:0:0:0:
182,192,184219,128,0,184454:0:0:0:0:
329,192,184219,128,0,184454:0:0:0:0:
109,192,184337,1,0,0:0:0:0:
475,192,184337,1,0,0:0:0:0:
475,192,184571,128,0,184688:0:0:0:0:
256,192,184571,128,0,184688:0:0:0:0:
109,192,184571,128,0,184688:0:0:0:0:
402,192,184571,1,0,0:0:0:0:
329,192,184571,1,0,0:0:0:0:
36,192,184571,1,0,0:0:0:0:
36,192,184805,128,0,184923:0:0:0:0:
182,192,184805,128,0,184923:0:0:0:0:
402,192,184805,128,0,184923:0:0:0:0:
329,192,184805,1,0,0:0:0:0:
256,192,184805,1,0,0:0:0:0:
109,192,184805,1,0,0:0:0:0:
256,192,185040,1,0,0:0:0:0:
475,192,185040,1,0,0:0:0:0:
109,192,185040,1,0,0:0:0:0:
182,192,185040,1,0,0:0:0:0:
329,192,185157,128,0,185391:0:0:0:0:
402,192,185157,128,0,185391:0:0:0:0:
109,192,185274,1,0,0:0:0:0:
256,192,185509,128,0,185860:0:0:0:0:
182,192,185509,128,0,185743:0:0:0:0:
329,192,185509,128,0,185743:0:0:0:0:
402,192,185509,128,0,185626:0:0:0:0:
109,192,185509,128,0,185626:0:0:0:0:
36,192,185509,1,0,0:0:0:0:
475,192,185509,1,0,0:0:0:0:
36,192,185743,1,0,0:0:0:0:
402,192,185743,1,0,0:0:0:0:
475,192,185743,1,0,0:0:0:0:
109,192,185743,1,0,0:0:0:0:
182,192,185977,128,0,186329:0:0:0:0:
329,192,185977,128,0,186329:0:0:0:0:
256,192,185977,128,0,186212:0:0:0:0:
109,192,185977,128,0,186212:0:0:0:0:
36,192,185977,128,0,186094:0:0:0:0:
402,192,185977,128,0,186212:0:0:0:0:
475,192,185977,128,0,186094:0:0:0:0:
36,192,186212,1,0,0:0:0:0:
475,192,186212,1,0,0:0:0:0:
109,192,186446,128,0,186798:0:0:0:0:
402,192,186446,128,0,186798:0:0:0:0:
182,192,186446,128,0,186680:0:0:0:0:
329,192,186446,128,0,186680:0:0:0:0:
256,192,186446,128,0,186563:0:0:0:0:
36,192,186446,128,0,186680:0:0:0:0:
475,192,186446,128,0,186680:0:0:0:0:
256,192,186680,1,0,0:0:0:0:
36,192,186915,128,0,187266:0:0:0:0:
475,192,186915,128,0,187266:0:0:0:0:
402,192,186915,128,0,187149:0:0:0:0:
109,192,186915,128,0,187149:0:0:0:0:
182,192,186915,128,0,187032:0:0:0:0:
329,192,186915,128,0,187032:0:0:0:0:
256,192,186915,1,0,0:0:0:0:
182,192,187149,1,0,0:0:0:0:
256,192,187149,1,0,0:0:0:0:
329,192,187149,1,0,0:0:0:0:
36,192,187384,128,0,187794:0:0:0:0:
475,192,187384,128,0,187794:0:0:0:0:
182,192,187384,128,0,187794:0:0:0:0:
329,192,187384,128,0,187794:0:0:0:0:
109,192,187384,1,0,0:0:0:0:
256,192,187384,1,0,0:0:0:0:
402,192,187384,1,0,0:0:0:0:
402,192,187618,128,0,187852:0:0:0:0:
256,192,187618,128,0,187852:0:0:0:0:
109,192,187618,128,0,187852:0:0:0:0:
36,192,187852,128,0,188262:0:0:0:0:
475,192,187852,128,0,188262:0:0:0:0:
182,192,187852,128,0,188321:0:0:0:0:
329,192,187852,128,0,188321:0:0:0:0:
402,192,187911,128,0,188262:0:0:0:0:
109,192,187911,128,0,188262:0:0:0:0:
256,192,187911,128,0,188262:0:0:0:0:
36,192,188321,128,0,188438:0:0:0:0:
256,192,188321,128,0,188438:0:0:0:0:
475,192,188321,128,0,188438:0:0:0:0:
109,192,188321,128,0,188673:0:0:0:0:
402,192,188321,128,0,188673:0:0:0:0:
182,192,188555,128,0,188907:0:0:0:0:
329,192,188555,128,0,188907:0:0:0:0:
256,192,188555,128,0,188673:0:0:0:0:
36,192,188555,128,0,188673:0:0:0:0:
475,192,188555,128,0,188673:0:0:0:0:
36,192,188790,128,0,189141:0:0:0:0:
475,192,188790,128,0,189141:0:0:0:0:
109,192,188790,128,0,188907:0:0:0:0:
256,192,188790,128,0,188907:0:0:0:0:
402,192,188790,128,0,188907:0:0:0:0:
256,192,189024,128,0,189259:0:0:0:0:
402,192,189024,128,0,189141:0:0:0:0:
329,192,189024,128,0,189141:0:0:0:0:
182,192,189024,128,0,189141:0:0:0:0:
109,192,189024,128,0,189141:0:0:0:0:
182,192,189259,128,0,189962:0:0:0:0:
329,192,189259,128,0,189727:0:0:0:0:
109,192,189259,1,0,0:0:0:0:
36,192,189259,128,0,189493:0:0:0:0:
402,192,189259,1,0,0:0:0:0:
475,192,189259,1,0,0:0:0:0:
475,192,189493,128,0,190196:0:0:0:0:
402,192,189493,1,0,0:0:0:0:
36,192,189727,128,0,190430:0:0:0:0:
256,192,189727,1,0,0:0:0:0:
109,192,189727,1,0,0:0:0:0:
402,192,189727,1,0,0:0:0:0:
402,192,189962,128,0,190665:0:0:0:0:
256,192,189962,128,0,190079:0:0:0:0:
329,192,189962,1,0,0:0:0:0:
109,192,190079,128,0,190196:0:0:0:0:
329,192,190196,128,0,190313:0:0:0:0:
182,192,190196,1,0,0:0:0:0:
256,192,190196,1,0,0:0:0:0:
182,192,190313,128,0,190430:0:0:0:0:
256,192,190430,128,0,191134:0:0:0:0:
109,192,190430,128,0,190548:0:0:0:0:
475,192,190430,1,0,0:0:0:0:
329,192,190548,128,0,190665:0:0:0:0:
109,192,190665,128,0,191134:0:0:0:0:
475,192,190665,128,0,190782:0:0:0:0:
36,192,190665,1,0,0:0:0:0:
182,192,190665,1,0,0:0:0:0:
329,192,190782,128,0,190899:0:0:0:0:
475,192,190899,128,0,191134:0:0:0:0:
182,192,190899,128,0,191016:0:0:0:0:
402,192,190899,1,0,0:0:0:0:
36,192,191016,128,0,191134:0:0:0:0:
182,192,191134,1,0,0:0:0:0:
329,192,191134,128,0,191368:0:0:0:0:
402,192,191134,128,0,191368:0:0:0:0:
36,192,191368,1,0,0:0:0:0:
475,192,191368,1,0,0:0:0:0:
109,192,191485,1,0,0:0:0:0:
182,192,191485,1,0,0:0:0:0:
256,192,191485,1,0,0:0:0:0:
329,192,191602,1,0,0:0:0:0:
402,192,191602,1,0,0:0:0:0:
475,192,191602,1,0,0:0:0:0:
36,192,191719,1,0,0:0:0:0:
256,192,191719,1,0,0:0:0:0:
109,192,191837,1,0,0:0:0:0:
182,192,191837,1,0,0:0:0:0:
402,192,191837,1,0,0:0:0:0:
36,192,192071,128,0,192481:0:0:0:0:
182,192,192071,128,0,192481:0:0:0:0:
329,192,192071,128,0,192481:0:0:0:0:
475,192,192071,128,0,192247:0:0:0:0:
402,192,192071,128,0,192247:0:0:0:0:
109,192,192071,1,0,0:0:0:0:
256,192,192071,1,0,0:0:0:0:
109,192,192305,128,0,192481:0:0:0:0:
256,192,192305,128,0,192481:0:0:0:0:
402,192,192305,128,0,192481:0:0:0:0:
475,192,192305,128,0,192481:0:0:0:0:
475,192,192540,128,0,192657:0:0:0:0:
402,192,192540,128,0,192696:0:0:0:0:
329,192,192540,128,0,192735:0:0:0:0:
256,192,192540,128,0,192774:0:0:0:0:
182,192,192540,128,0,192813:0:0:0:0:
109,192,192540,128,0,192852:0:0:0:0:
36,192,192540,128,0,192891:0:0:0:0:
402,192,193009,128,0,194063:0:0:0:0:
329,192,193009,128,0,193594:0:0:0:0:
182,192,193009,1,0,0:0:0:0:
256,192,193009,1,0,0:0:0:0:
475,192,193009,1,0,0:0:0:0:
109,192,193009,1,0,0:0:0:0:
256,192,193243,1,0,0:0:0:0:
36,192,193360,128,0,193829:0:0:0:0:
109,192,193360,128,0,194063:0:0:0:0:
182,192,193477,1,0,0:0:0:0:
475,192,193477,1,0,0:0:0:0:
256,192,193477,1,0,0:0:0:0:
256,192,193712,128,0,194063:0:0:0:0:
329,192,193712,128,0,193829:0:0:0:0:
475,192,193712,1,0,0:0:0:0:
475,192,193946,128,0,194298:0:0:0:0:
329,192,193946,128,0,194298:0:0:0:0:
182,192,193946,128,0,194298:0:0:0:0:
36,192,193946,128,0,194298:0:0:0:0:
109,192,194180,128,0,194532:0:0:0:0:
256,192,194180,128,0,194532:0:0:0:0:
402,192,194180,128,0,194532:0:0:0:0:
36,192,194415,1,0,0:0:0:0:
182,192,194415,1,0,0:0:0:0:
329,192,194415,1,0,0:0:0:0:
475,192,194415,1,0,0:0:0:0:
402,192,194649,1,0,0:0:0:0:
256,192,194649,1,0,0:0:0:0:
109,192,194649,1,0,0:0:0:0:
36,192,194884,1,0,0:0:0:0:
182,192,194884,1,0,0:0:0:0:
329,192,194884,1,0,0:0:0:0:
475,192,194884,1,0,0:0:0:0:
256,192,194884,1,0,0:0:0:0:
36,192,195118,1,0,0:0:0:0:
182,192,195118,1,0,0:0:0:0:
329,192,195118,1,0,0:0:0:0:
475,192,195118,1,0,0:0:0:0:
109,192,195235,1,0,0:0:0:0:
402,192,195235,1,0,0:0:0:0:
256,192,195235,1,0,0:0:0:0:
329,192,195469,1,0,0:0:0:0:
182,192,195469,1,0,0:0:0:0:
36,192,195469,1,0,0:0:0:0:
109,192,195587,1,0,0:0:0:0:
256,192,195587,1,0,0:0:0:0:
402,192,195587,1,0,0:0:0:0:
475,192,195587,1,0,0:0:0:0:
36,192,195821,128,0,195938:0:0:0:0:
182,192,195821,128,0,195938:0:0:0:0:
329,192,195821,128,0,195938:0:0:0:0:
329,192,196055,128,0,196173:0:0:0:0:
182,192,196055,128,0,196173:0:0:0:0:
475,192,196055,128,0,196173:0:0:0:0:
402,192,196290,128,0,196641:0:0:0:0:
256,192,196290,128,0,196641:0:0:0:0:
109,192,196290,128,0,196641:0:0:0:0:
36,192,196290,1,0,0:0:0:0:
182,192,196290,1,0,0:0:0:0:
329,192,196290,1,0,0:0:0:0:
475,192,196290,1,0,0:0:0:0:
475,192,196524,1,0,0:0:0:0:
182,192,196524,1,0,0:0:0:0:
475,192,196759,128,0,196993:0:0:0:0:
329,192,196759,128,0,196993:0:0:0:0:
182,192,196759,128,0,196993:0:0:0:0:
36,192,196759,1,0,0:0:0:0:
109,192,196759,1,0,0:0:0:0:
256,192,196759,1,0,0:0:0:0:
402,192,196759,1,0,0:0:0:0:
109,192,196993,1,0,0:0:0:0:
402,192,196993,1,0,0:0:0:0:
109,192,197110,128,0,197344:0:0:0:0:
256,192,197110,128,0,197344:0:0:0:0:
402,192,197110,128,0,197344:0:0:0:0:
475,192,197227,1,0,0:0:0:0:
329,192,197227,1,0,0:0:0:0:
182,192,197227,1,0,0:0:0:0:
36,192,197227,1,0,0:0:0:0:
329,192,197462,128,0,197579:0:0:0:0:
182,192,197462,128,0,197579:0:0:0:0:
36,192,197462,128,0,197579:0:0:0:0:
109,192,197462,1,0,0:0:0:0:
475,192,197462,1,0,0:0:0:0:
109,192,197696,1,0,0:0:0:0:
329,192,197696,1,0,0:0:0:0:
402,192,197696,1,0,0:0:0:0:
475,192,197696,1,0,0:0:0:0:
36,192,197696,1,0,0:0:0:0:
182,192,197696,1,0,0:0:0:0:
36,192,197930,1,0,0:0:0:0:
182,192,197930,1,0,0:0:0:0:
256,192,197930,1,0,0:0:0:0:
329,192,197930,1,0,0:0:0:0:
475,192,197930,1,0,0:0:0:0:
402,192,198165,1,0,0:0:0:0:
475,192,198165,1,0,0:0:0:0:
256,192,198165,1,0,0:0:0:0:
109,192,198165,1,0,0:0:0:0:
36,192,198165,1,0,0:0:0:0:
182,192,198399,1,0,0:0:0:0:
329,192,198399,1,0,0:0:0:0:
256,192,198634,128,0,198673:0:0:0:0:
256,192,199102,128,0,199141:0:0:0:0:
256,192,199571,128,0,199610:0:0:0:0:
36,192,200040,128,0,200079:0:0:0:0:
109,192,200079,128,0,200118:0:0:0:0:
182,192,200118,128,0,200157:0:0:0:0:
329,192,200157,128,0,200196:0:0:0:0:
256,192,200157,1,0,0:0:0:0:
402,192,200196,128,0,200235:0:0:0:0:
475,192,200235,128,0,200274:0:0:0:0:
109,192,200509,128,0,200860:0:0:0:0:
329,192,200509,128,0,200860:0:0:0:0:
475,192,200509,128,0,200626:0:0:0:0:
402,192,200509,128,0,200626:0:0:0:0:
256,192,200509,128,0,200626:0:0:0:0:
182,192,200509,128,0,200626:0:0:0:0:
36,192,200509,128,0,200626:0:0:0:0:
475,192,200743,128,0,200977:0:0:0:0:
256,192,200743,128,0,200977:0:0:0:0:
402,192,200743,128,0,200860:0:0:0:0:
182,192,200743,128,0,200860:0:0:0:0:
36,192,200743,128,0,200860:0:0:0:0:
36,192,200977,1,0,0:0:0:0:
109,192,200977,1,0,0:0:0:0:
182,192,200977,1,0,0:0:0:0:
329,192,200977,1,0,0:0:0:0:
402,192,200977,1,0,0:0:0:0:
475,192,201212,128,0,201329:0:0:0:0:
329,192,201212,128,0,201329:0:0:0:0:
182,192,201212,128,0,201329:0:0:0:0:
109,192,201212,1,0,0:0:0:0:
402,192,201212,1,0,0:0:0:0:
36,192,201446,128,0,201798:0:0:0:0:
256,192,201446,128,0,201798:0:0:0:0:
109,192,201446,128,0,201563:0:0:0:0:
182,192,201446,128,0,201563:0:0:0:0:
329,192,201446,128,0,201563:0:0:0:0:
402,192,201446,128,0,201563:0:0:0:0:
475,192,201446,128,0,201563:0:0:0:0:
329,192,201680,128,0,201915:0:0:0:0:
182,192,201680,128,0,201798:0:0:0:0:
109,192,201680,128,0,201915:0:0:0:0:
402,192,201680,128,0,201798:0:0:0:0:
475,192,201680,128,0,201798:0:0:0:0:
475,192,201915,1,0,0:0:0:0:
402,192,201915,1,0,0:0:0:0:
256,192,201915,1,0,0:0:0:0:
182,192,201915,1,0,0:0:0:0:
36,192,201915,1,0,0:0:0:0:
182,192,202149,128,0,202911:0:0:0:0:
329,192,202149,128,0,203028:0:0:0:0:
475,192,202149,128,0,203145:0:0:0:0:
402,192,202384,1,0,0:0:0:0:
256,192,202384,1,0,0:0:0:0:
36,192,202384,1,0,0:0:0:0:
109,192,202384,1,0,0:0:0:0:
36,192,202852,128,0,203673:0:0:0:0:
256,192,202852,1,0,0:0:0:0:
402,192,202852,1,0,0:0:0:0:
109,192,202911,128,0,203262:0:0:0:0:
182,192,202969,128,0,203438:0:0:0:0:
256,192,203028,128,0,203262:0:0:0:0:
329,192,203087,128,0,203438:0:0:0:0:
402,192,203145,128,0,203262:0:0:0:0:
475,192,203204,128,0,203438:0:0:0:0:
109,192,203321,128,0,203907:0:0:0:0:
256,192,203321,128,0,203907:0:0:0:0:
402,192,203321,128,0,203907:0:0:0:0:
182,192,203555,128,0,203673:0:0:0:0:
329,192,203555,128,0,203673:0:0:0:0:
475,192,203555,1,0,0:0:0:0:
36,192,203790,1,0,0:0:0:0:
182,192,203790,1,0,0:0:0:0:
329,192,203790,1,0,0:0:0:0:
109,192,204024,1,0,0:0:0:0:
256,192,204024,1,0,0:0:0:0:
402,192,204024,1,0,0:0:0:0:
109,192,204259,128,0,204610:0:0:0:0:
329,192,204259,128,0,204610:0:0:0:0:
402,192,204259,128,0,204376:0:0:0:0:
36,192,204259,128,0,204376:0:0:0:0:
182,192,204259,128,0,204376:0:0:0:0:
256,192,204259,1,0,0:0:0:0:
475,192,204259,1,0,0:0:0:0:
475,192,204493,128,0,204727:0:0:0:0:
256,192,204493,128,0,204727:0:0:0:0:
402,192,204493,128,0,204610:0:0:0:0:
182,192,204493,1,0,0:0:0:0:
36,192,204493,128,0,204610:0:0:0:0:
36,192,204727,1,0,0:0:0:0:
109,192,204727,1,0,0:0:0:0:
182,192,204727,1,0,0:0:0:0:
329,192,204727,1,0,0:0:0:0:
402,192,204727,1,0,0:0:0:0:
329,192,204962,128,0,205665:0:0:0:0:
402,192,205020,128,0,205079:0:0:0:0:
475,192,205079,128,0,205665:0:0:0:0:
256,192,205196,128,0,205313:0:0:0:0:
182,192,205196,128,0,205548:0:0:0:0:
109,192,205196,128,0,205313:0:0:0:0:
36,192,205196,128,0,205548:0:0:0:0:
402,192,205430,128,0,205665:0:0:0:0:
256,192,205430,128,0,205665:0:0:0:0:
109,192,205430,128,0,205548:0:0:0:0:
36,192,205665,1,0,0:0:0:0:
109,192,205665,1,0,0:0:0:0:
182,192,205665,1,0,0:0:0:0:
36,192,205899,128,0,207012:0:0:0:0:
182,192,205899,128,0,207012:0:0:0:0:
475,192,205899,128,0,207012:0:0:0:0:
329,192,205899,128,0,207012:0:0:0:0:
109,192,206368,1,0,0:0:0:0:
256,192,206426,1,0,0:0:0:0:
402,192,206485,1,0,0:0:0:0:
109,192,206544,1,0,0:0:0:0:
256,192,206602,1,0,0:0:0:0:
402,192,206661,1,0,0:0:0:0:
109,192,206719,1,0,0:0:0:0:
256,192,206778,1,0,0:0:0:0:
402,192,206837,1,0,0:0:0:0:
109,192,206895,1,0,0:0:0:0:
256,192,206954,1,0,0:0:0:0:
402,192,207012,1,0,0:0:0:0:
182,192,207071,1,0,0:0:0:0:
329,192,207071,1,0,0:0:0:0:
475,192,207071,1,0,0:0:0:0:
36,192,207071,128,0,207891:0:0:0:0:
109,192,207149,1,0,0:0:0:0:
256,192,207149,1,0,0:0:0:0:
182,192,207227,1,0,0:0:0:0:
402,192,207227,1,0,0:0:0:0:
329,192,207305,1,0,0:0:0:0:
475,192,207305,1,0,0:0:0:0:
109,192,207305,1,0,0:0:0:0:
182,192,207540,128,0,207891:0:0:0:0:
402,192,207540,128,0,207891:0:0:0:0:
109,192,207540,128,0,207657:0:0:0:0:
256,192,207540,128,0,207657:0:0:0:0:
329,192,207540,128,0,207657:0:0:0:0:
475,192,207540,128,0,207657:0:0:0:0:
475,192,207774,128,0,207891:0:0:0:0:
329,192,207774,128,0,207891:0:0:0:0:
256,192,207774,128,0,207891:0:0:0:0:
109,192,207774,128,0,207891:0:0:0:0:
182,192,208009,128,0,208360:0:0:0:0:
402,192,208009,128,0,208360:0:0:0:0:
36,192,208009,128,0,208360:0:0:0:0:
109,192,208009,128,0,208126:0:0:0:0:
329,192,208009,128,0,208126:0:0:0:0:
256,192,208009,128,0,208126:0:0:0:0:
475,192,208009,128,0,208126:0:0:0:0:
475,192,208243,1,0,0:0:0:0:
256,192,208243,1,0,0:0:0:0:
109,192,208243,128,0,208360:0:0:0:0:
329,192,208243,128,0,208360:0:0:0:0:
109,192,208477,1,0,0:0:0:0:
36,192,208477,1,0,0:0:0:0:
475,192,208477,1,0,0:0:0:0:
402,192,208477,1,0,0:0:0:0:
329,192,208477,1,0,0:0:0:0:
256,192,208477,1,0,0:0:0:0:
182,192,208477,1,0,0:0:0:0:
329,192,208712,128,0,208829:0:0:0:0:
475,192,208712,128,0,208829:0:0:0:0:
182,192,208712,128,0,208829:0:0:0:0:
402,192,208712,1,0,0:0:0:0:
109,192,208712,1,0,0:0:0:0:
256,192,208946,128,0,209298:0:0:0:0:
109,192,208946,128,0,209298:0:0:0:0:
329,192,208946,128,0,209298:0:0:0:0:
475,192,208946,128,0,209063:0:0:0:0:
36,192,208946,128,0,209063:0:0:0:0:
182,192,208946,128,0,209063:0:0:0:0:
402,192,208946,128,0,209063:0:0:0:0:
36,192,209180,1,0,0:0:0:0:
475,192,209180,1,0,0:0:0:0:
182,192,209180,128,0,209298:0:0:0:0:
402,192,209180,128,0,209298:0:0:0:0:
36,192,209415,1,0,0:0:0:0:
109,192,209415,1,0,0:0:0:0:
182,192,209415,1,0,0:0:0:0:
256,192,209415,1,0,0:0:0:0:
402,192,209415,1,0,0:0:0:0:
475,192,209415,1,0,0:0:0:0:
329,192,209415,1,0,0:0:0:0:
109,192,209649,128,0,210352:0:0:0:0:
256,192,209649,128,0,210352:0:0:0:0:
402,192,209649,128,0,210352:0:0:0:0:
475,192,209884,1,0,0:0:0:0:
329,192,209884,1,0,0:0:0:0:
182,192,209884,1,0,0:0:0:0:
36,192,209884,1,0,0:0:0:0:
475,192,210352,128,0,210938:0:0:0:0:
36,192,210352,1,0,0:0:0:0:
182,192,210352,1,0,0:0:0:0:
402,192,210411,128,0,210762:0:0:0:0:
329,192,210469,128,0,211173:0:0:0:0:
256,192,210528,128,0,210938:0:0:0:0:
182,192,210587,128,0,210762:0:0:0:0:
109,192,210645,128,0,210938:0:0:0:0:
36,192,210704,128,0,210762:0:0:0:0:
182,192,210821,128,0,211173:0:0:0:0:
402,192,210821,128,0,211407:0:0:0:0:
36,192,210821,128,0,211173:0:0:0:0:
256,192,211055,128,0,211407:0:0:0:0:
475,192,211055,128,0,211407:0:0:0:0:
109,192,211055,128,0,211407:0:0:0:0:
329,192,211290,1,0,0:0:0:0:
36,192,211290,1,0,0:0:0:0:
182,192,211290,1,0,0:0:0:0:
256,192,211524,1,0,0:0:0:0:
475,192,211524,1,0,0:0:0:0:
109,192,211524,1,0,0:0:0:0:
402,192,211524,1,0,0:0:0:0:
256,192,211759,128,0,211993:0:0:0:0:
109,192,211759,128,0,211993:0:0:0:0:
475,192,211759,128,0,211993:0:0:0:0:
36,192,211759,128,0,211934:0:0:0:0:
182,192,211759,128,0,211934:0:0:0:0:
329,192,211759,128,0,211934:0:0:0:0:
402,192,211759,128,0,211934:0:0:0:0:
402,192,211993,128,0,212169:0:0:0:0:
182,192,211993,128,0,212169:0:0:0:0:
329,192,211993,128,0,212169:0:0:0:0:
36,192,211993,128,0,212169:0:0:0:0:
475,192,212051,128,0,212169:0:0:0:0:
256,192,212051,128,0,212169:0:0:0:0:
109,192,212051,128,0,212169:0:0:0:0:
36,192,212227,1,0,0:0:0:0:
109,192,212227,1,0,0:0:0:0:
182,192,212227,1,0,0:0:0:0:
256,192,212227,1,0,0:0:0:0:
329,192,212227,1,0,0:0:0:0:
475,192,212227,1,0,0:0:0:0:
402,192,212227,1,0,0:0:0:0:
182,192,212462,128,0,213165:0:0:0:0:
256,192,212520,128,0,212579:0:0:0:0:
329,192,212579,128,0,213165:0:0:0:0:
475,192,212696,128,0,212872:0:0:0:0:
402,192,212696,128,0,212930:0:0:0:0:
109,192,212696,128,0,212872:0:0:0:0:
36,192,212696,128,0,212930:0:0:0:0:
475,192,212930,128,0,213106:0:0:0:0:
256,192,212930,128,0,213106:0:0:0:0:
109,192,212930,128,0,213106:0:0:0:0:
402,192,212989,128,0,213106:0:0:0:0:
36,192,212989,128,0,213106:0:0:0:0:
36,192,213165,1,0,0:0:0:0:
109,192,213165,1,0,0:0:0:0:
256,192,213165,1,0,0:0:0:0:
402,192,213165,1,0,0:0:0:0:
475,192,213165,1,0,0:0:0:0:
109,192,213399,128,0,214512:0:0:0:0:
256,192,213399,128,0,214512:0:0:0:0:
402,192,213399,128,0,214512:0:0:0:0:
36,192,213399,128,0,214512:0:0:0:0:
182,192,213634,1,0,0:0:0:0:
329,192,213634,1,0,0:0:0:0:
475,192,213634,1,0,0:0:0:0:
182,192,213868,128,0,213926:0:0:0:0:
329,192,213926,128,0,213985:0:0:0:0:
475,192,213985,128,0,214044:0:0:0:0:
182,192,214044,128,0,214102:0:0:0:0:
329,192,214102,128,0,214161:0:0:0:0:
475,192,214161,128,0,214219:0:0:0:0:
182,192,214219,128,0,214278:0:0:0:0:
329,192,214278,128,0,214337:0:0:0:0:
475,192,214337,128,0,214395:0:0:0:0:
182,192,214395,128,0,214454:0:0:0:0:
329,192,214454,128,0,214512:0:0:0:0:
475,192,214571,1,0,0:0:0:0:
256,192,214571,1,0,0:0:0:0:
109,192,214571,1,0,0:0:0:0:
182,192,214571,128,0,215274:0:0:0:0:
36,192,214649,1,0,0:0:0:0:
402,192,214649,1,0,0:0:0:0:
329,192,214727,1,0,0:0:0:0:
475,192,214727,1,0,0:0:0:0:
256,192,214805,1,0,0:0:0:0:
109,192,214805,1,0,0:0:0:0:
402,192,214805,1,0,0:0:0:0:
475,192,215040,128,0,215274:0:0:0:0:
402,192,215040,1,0,0:0:0:0:
329,192,215040,1,0,0:0:0:0:
36,192,215040,128,0,215274:0:0:0:0:
109,192,215040,1,0,0:0:0:0:
256,192,215040,128,0,215274:0:0:0:0:
109,192,215274,1,0,0:0:0:0:
329,192,215274,1,0,0:0:0:0:
402,192,215274,1,0,0:0:0:0:
256,192,215509,128,0,215860:0:0:0:0:
182,192,215509,128,0,215743:0:0:0:0:
402,192,215509,128,0,215743:0:0:0:0:
329,192,215509,128,0,215626:0:0:0:0:
36,192,215509,128,0,215626:0:0:0:0:
109,192,215509,1,0,0:0:0:0:
475,192,215509,128,0,215860:0:0:0:0:
36,192,215743,1,0,0:0:0:0:
329,192,215743,1,0,0:0:0:0:
109,192,215743,128,0,215977:0:0:0:0:
182,192,215977,1,0,0:0:0:0:
256,192,215977,1,0,0:0:0:0:
329,192,215977,1,0,0:0:0:0:
402,192,215977,1,0,0:0:0:0:
36,192,215977,1,0,0:0:0:0:
475,192,215977,1,0,0:0:0:0:
475,192,216212,128,0,216329:0:0:0:0:
329,192,216212,128,0,216329:0:0:0:0:
182,192,216212,128,0,216329:0:0:0:0:
402,192,216212,1,0,0:0:0:0:
256,192,216212,1,0,0:0:0:0:
182,192,216446,128,0,216563:0:0:0:0:
256,192,216446,128,0,216798:0:0:0:0:
329,192,216446,128,0,216563:0:0:0:0:
109,192,216446,1,0,0:0:0:0:
475,192,216446,1,0,0:0:0:0:
36,192,216446,128,0,216798:0:0:0:0:
402,192,216446,128,0,216798:0:0:0:0:
329,192,216680,1,0,0:0:0:0:
182,192,216680,1,0,0:0:0:0:
109,192,216680,128,0,216915:0:0:0:0:
475,192,216680,128,0,216915:0:0:0:0:
402,192,216915,1,0,0:0:0:0:
329,192,216915,1,0,0:0:0:0:
256,192,216915,1,0,0:0:0:0:
182,192,216915,1,0,0:0:0:0:
36,192,216915,1,0,0:0:0:0:
256,192,217149,128,0,217969:0:0:0:0:
109,192,217149,128,0,218087:0:0:0:0:
475,192,217149,128,0,217794:0:0:0:0:
402,192,217384,1,0,0:0:0:0:
329,192,217384,1,0,0:0:0:0:
182,192,217384,1,0,0:0:0:0:
36,192,217384,1,0,0:0:0:0:
475,192,217852,128,0,218438:0:0:0:0:
36,192,217852,1,0,0:0:0:0:
182,192,217852,1,0,0:0:0:0:
402,192,217911,128,0,218262:0:0:0:0:
329,192,217969,128,0,218438:0:0:0:0:
256,192,218028,128,0,218262:0:0:0:0:
182,192,218087,128,0,218438:0:0:0:0:
109,192,218145,128,0,218262:0:0:0:0:
36,192,218204,128,0,218673:0:0:0:0:
109,192,218321,128,0,218907:0:0:0:0:
256,192,218321,128,0,218907:0:0:0:0:
402,192,218321,128,0,218907:0:0:0:0:
329,192,218555,128,0,218673:0:0:0:0:
475,192,218555,128,0,218907:0:0:0:0:
182,192,218555,128,0,218673:0:0:0:0:
36,192,218790,1,0,0:0:0:0:
182,192,218790,1,0,0:0:0:0:
329,192,218790,1,0,0:0:0:0:
109,192,219024,1,0,0:0:0:0:
256,192,219024,1,0,0:0:0:0:
402,192,219024,1,0,0:0:0:0:
475,192,219024,1,0,0:0:0:0:
256,192,219259,128,0,219727:0:0:0:0:
329,192,219259,128,0,219376:0:0:0:0:
182,192,219259,128,0,219376:0:0:0:0:
475,192,219259,128,0,219493:0:0:0:0:
36,192,219259,1,0,0:0:0:0:
109,192,219259,1,0,0:0:0:0:
182,192,219493,128,0,219727:0:0:0:0:
329,192,219493,128,0,219727:0:0:0:0:
402,192,219493,1,0,0:0:0:0:
36,192,219493,128,0,219727:0:0:0:0:
109,192,219493,1,0,0:0:0:0:
402,192,219727,1,0,0:0:0:0:
475,192,219727,1,0,0:0:0:0:
36,192,219962,128,0,220665:0:0:0:0:
256,192,220020,128,0,220079:0:0:0:0:
475,192,220079,128,0,220665:0:0:0:0:
329,192,220196,128,0,220665:0:0:0:0:
402,192,220196,128,0,220313:0:0:0:0:
182,192,220196,128,0,220313:0:0:0:0:
109,192,220196,1,0,0:0:0:0:
182,192,220430,128,0,220665:0:0:0:0:
402,192,220430,128,0,220665:0:0:0:0:
256,192,220430,1,0,0:0:0:0:
109,192,220430,1,0,0:0:0:0:
109,192,220665,1,0,0:0:0:0:
256,192,220665,1,0,0:0:0:0:
182,192,220899,128,0,221309:0:0:0:0:
329,192,220899,128,0,221544:0:0:0:0:
475,192,220899,128,0,221778:0:0:0:0:
402,192,221134,1,0,0:0:0:0:
256,192,221134,1,0,0:0:0:0:
109,192,221134,1,0,0:0:0:0:
36,192,221134,1,0,0:0:0:0:
182,192,221368,128,0,221661:0:0:0:0:
109,192,221426,128,0,222012:0:0:0:0:
36,192,221485,128,0,222071:0:0:0:0:
329,192,221602,128,0,221895:0:0:0:0:
402,192,221602,1,0,0:0:0:0:
256,192,221661,128,0,222012:0:0:0:0:
182,192,221719,128,0,222071:0:0:0:0:
475,192,221837,128,0,222071:0:0:0:0:
402,192,221895,128,0,222012:0:0:0:0:
329,192,221954,128,0,222071:0:0:0:0:
109,192,222071,1,0,0:0:0:0:
402,192,222071,1,0,0:0:0:0:
256,192,222071,128,0,222774:0:0:0:0:
36,192,222149,1,0,0:0:0:0:
182,192,222149,1,0,0:0:0:0:
329,192,222149,1,0,0:0:0:0:
475,192,222149,1,0,0:0:0:0:
109,192,222227,1,0,0:0:0:0:
402,192,222227,1,0,0:0:0:0:
475,192,222305,1,0,0:0:0:0:
329,192,222305,1,0,0:0:0:0:
182,192,222305,1,0,0:0:0:0:
36,192,222305,1,0,0:0:0:0:
182,192,222540,128,0,222774:0:0:0:0:
329,192,222540,128,0,222774:0:0:0:0:
475,192,222540,128,0,222774:0:0:0:0:
402,192,222540,1,0,0:0:0:0:
36,192,222540,128,0,222774:0:0:0:0:
109,192,222540,1,0,0:0:0:0:
402,192,222774,1,0,0:0:0:0:
109,192,222774,1,0,0:0:0:0:
475,192,223009,128,0,223477:0:0:0:0:
329,192,223009,128,0,223360:0:0:0:0:
402,192,223009,128,0,223126:0:0:0:0:
36,192,223009,128,0,223126:0:0:0:0:
182,192,223009,128,0,223360:0:0:0:0:
256,192,223009,1,0,0:0:0:0:
109,192,223009,128,0,223126:0:0:0:0:
402,192,223243,128,0,223360:0:0:0:0:
109,192,223243,1,0,0:0:0:0:
36,192,223243,128,0,223360:0:0:0:0:
256,192,223243,128,0,223477:0:0:0:0:
36,192,223477,1,0,0:0:0:0:
109,192,223477,1,0,0:0:0:0:
182,192,223477,1,0,0:0:0:0:
329,192,223477,1,0,0:0:0:0:
402,192,223477,1,0,0:0:0:0:
475,192,223712,128,0,223829:0:0:0:0:
329,192,223712,128,0,223829:0:0:0:0:
402,192,223712,1,0,0:0:0:0:
256,192,223712,1,0,0:0:0:0:
182,192,223712,128,0,223829:0:0:0:0:
109,192,223946,128,0,224180:0:0:0:0:
256,192,223946,128,0,224180:0:0:0:0:
402,192,223946,128,0,224180:0:0:0:0:
36,192,223946,1,0,0:0:0:0:
182,192,223946,1,0,0:0:0:0:
329,192,223946,1,0,0:0:0:0:
475,192,223946,1,0,0:0:0:0:
475,192,224180,128,0,224356:0:0:0:0:
329,192,224180,128,0,224356:0:0:0:0:
182,192,224180,128,0,224356:0:0:0:0:
36,192,224180,128,0,224356:0:0:0:0:
256,192,224239,128,0,224415:0:0:0:0:
109,192,224239,128,0,224415:0:0:0:0:
402,192,224239,128,0,224415:0:0:0:0:
475,192,224415,1,0,0:0:0:0:
329,192,224415,1,0,0:0:0:0:
182,192,224415,1,0,0:0:0:0:
36,192,224415,1,0,0:0:0:0:
475,192,224649,128,0,225469:0:0:0:0:
329,192,224649,128,0,225352:0:0:0:0:
109,192,224649,128,0,225469:0:0:0:0:
36,192,224884,1,0,0:0:0:0:
182,192,224884,1,0,0:0:0:0:
256,192,224884,1,0,0:0:0:0:
402,192,224884,1,0,0:0:0:0:
256,192,225352,128,0,225762:0:0:0:0:
329,192,225411,128,0,225704:0:0:0:0:
402,192,225469,128,0,225645:0:0:0:0:
182,192,225469,128,0,225762:0:0:0:0:
475,192,225528,128,0,225587:0:0:0:0:
109,192,225528,128,0,225704:0:0:0:0:
36,192,225587,128,0,225645:0:0:0:0:
475,192,225645,1,0,0:0:0:0:
402,192,225704,1,0,0:0:0:0:
36,192,225704,1,0,0:0:0:0:
329,192,225762,1,0,0:0:0:0:
109,192,225762,1,0,0:0:0:0:
182,192,225821,1,0,0:0:0:0:
256,192,225821,128,0,225997:0:0:0:0:
402,192,225821,128,0,226055:0:0:0:0:
475,192,225821,128,0,226055:0:0:0:0:
36,192,225821,1,0,0:0:0:0:
256,192,226055,128,0,226231:0:0:0:0:
36,192,226055,1,0,0:0:0:0:
329,192,226055,1,0,0:0:0:0:
182,192,226055,128,0,226290:0:0:0:0:
109,192,226055,128,0,226290:0:0:0:0:
475,192,226290,128,0,226524:0:0:0:0:
329,192,226290,128,0,226466:0:0:0:0:
256,192,226290,128,0,226524:0:0:0:0:
402,192,226290,1,0,0:0:0:0:
329,192,226524,1,0,0:0:0:0:
402,192,226524,1,0,0:0:0:0:
109,192,226524,1,0,0:0:0:0:
36,192,226524,1,0,0:0:0:0:
36,192,226759,1,0,0:0:0:0:
182,192,226759,1,0,0:0:0:0:
402,192,226759,1,0,0:0:0:0:
475,192,226759,1,0,0:0:0:0:
329,192,226759,128,0,226934:0:0:0:0:
256,192,226759,128,0,226934:0:0:0:0:
109,192,226759,128,0,226934:0:0:0:0:
182,192,226993,128,0,227169:0:0:0:0:
475,192,226993,128,0,227169:0:0:0:0:
402,192,226993,128,0,227169:0:0:0:0:
329,192,226993,1,0,0:0:0:0:
256,192,226993,1,0,0:0:0:0:
109,192,226993,1,0,0:0:0:0:
36,192,226993,1,0,0:0:0:0:
36,192,227227,1,0,0:0:0:0:
109,192,227227,1,0,0:0:0:0:
182,192,227227,1,0,0:0:0:0:
329,192,227227,1,0,0:0:0:0:
402,192,227227,1,0,0:0:0:0:
475,192,227227,1,0,0:0:0:0:
182,192,227462,128,0,228165:0:0:0:0:
256,192,227520,128,0,227579:0:0:0:0:
329,192,227579,128,0,228165:0:0:0:0:
475,192,227696,1,0,0:0:0:0:
109,192,227696,1,0,0:0:0:0:
402,192,227696,128,0,227872:0:0:0:0:
36,192,227696,128,0,227872:0:0:0:0:
109,192,227930,128,0,228106:0:0:0:0:
256,192,227930,128,0,228106:0:0:0:0:
402,192,227930,128,0,228106:0:0:0:0:
475,192,227930,1,0,0:0:0:0:
36,192,227930,1,0,0:0:0:0:
256,192,228165,1,0,0:0:0:0:
109,192,228165,1,0,0:0:0:0:
402,192,228165,1,0,0:0:0:0:
475,192,228165,1,0,0:0:0:0:
36,192,228165,1,0,0:0:0:0:
475,192,228399,128,0,229571:0:0:0:0:
36,192,228399,128,0,229571:0:0:0:0:
109,192,228458,128,0,228575:0:0:0:0:
402,192,228458,128,0,228575:0:0:0:0:
329,192,228516,128,0,228809:0:0:0:0:
182,192,228516,128,0,228809:0:0:0:0:
256,192,228575,128,0,228809:0:0:0:0:
109,192,228634,1,0,0:0:0:0:
402,192,228634,1,0,0:0:0:0:
256,192,228868,128,0,228926:0:0:0:0:
182,192,228868,128,0,228985:0:0:0:0:
109,192,228868,128,0,229044:0:0:0:0:
329,192,228868,128,0,228985:0:0:0:0:
402,192,228868,128,0,229044:0:0:0:0:
256,192,229102,128,0,229161:0:0:0:0:
182,192,229102,128,0,229219:0:0:0:0:
109,192,229102,128,0,229278:0:0:0:0:
329,192,229102,128,0,229219:0:0:0:0:
402,192,229102,128,0,229278:0:0:0:0:
256,192,229337,128,0,229512:0:0:0:0:
329,192,229337,128,0,229454:0:0:0:0:
402,192,229337,128,0,229395:0:0:0:0:
182,192,229337,128,0,229454:0:0:0:0:
109,192,229337,128,0,229395:0:0:0:0:
329,192,229571,128,0,229649:0:0:0:0:
109,192,229571,128,0,230274:0:0:0:0:
402,192,229649,128,0,229727:0:0:0:0:
256,192,229649,128,0,229727:0:0:0:0:
475,192,229727,128,0,229805:0:0:0:0:
182,192,229727,128,0,229805:0:0:0:0:
36,192,229727,128,0,229805:0:0:0:0:
182,192,230040,128,0,230274:0:0:0:0:
329,192,230040,128,0,230274:0:0:0:0:
475,192,230040,128,0,230274:0:0:0:0:
402,192,230040,1,0,0:0:0:0:
256,192,230040,1,0,0:0:0:0:
36,192,230040,1,0,0:0:0:0:
256,192,230274,1,0,0:0:0:0:
402,192,230274,1,0,0:0:0:0:
36,192,230274,1,0,0:0:0:0:
402,192,230509,128,0,230743:0:0:0:0:
256,192,230743,128,0,230977:0:0:0:0:
475,192,230977,1,0,0:0:0:0:
402,192,230977,1,0,0:0:0:0:
329,192,230977,1,0,0:0:0:0:
182,192,230977,1,0,0:0:0:0:
36,192,230977,1,0,0:0:0:0:
109,192,230977,1,0,0:0:0:0:
475,192,231212,128,0,231329:0:0:0:0:
402,192,231212,128,0,231329:0:0:0:0:
329,192,231212,128,0,231300:0:0:0:0:
256,192,231212,128,0,231270:0:0:0:0:
182,192,231212,128,0,231270:0:0:0:0:
475,192,231446,128,0,231680:0:0:0:0:
402,192,231446,128,0,231680:0:0:0:0:
256,192,231446,128,0,231680:0:0:0:0:
109,192,231446,128,0,231680:0:0:0:0:
36,192,231446,1,0,0:0:0:0:
182,192,231446,1,0,0:0:0:0:
329,192,231680,128,0,231856:0:0:0:0:
182,192,231680,128,0,231856:0:0:0:0:
36,192,231680,128,0,231856:0:0:0:0:
402,192,231739,128,0,231856:0:0:0:0:
475,192,231739,128,0,231856:0:0:0:0:
256,192,231739,128,0,231856:0:0:0:0:
109,192,231739,128,0,231856:0:0:0:0:
36,192,231915,1,0,0:0:0:0:
109,192,231915,1,0,0:0:0:0:
256,192,231915,1,0,0:0:0:0:
329,192,231915,1,0,0:0:0:0:
475,192,231915,1,0,0:0:0:0:
475,192,232149,128,0,232325:0:0:0:0:
329,192,232149,128,0,232325:0:0:0:0:
182,192,232149,128,0,232325:0:0:0:0:
36,192,232384,1,0,0:0:0:0:
109,192,232384,1,0,0:0:0:0:
182,192,232384,128,0,232852:0:0:0:0:
329,192,232384,128,0,232852:0:0:0:0:
475,192,232384,128,0,232969:0:0:0:0:
256,192,232384,1,0,0:0:0:0:
402,192,232384,1,0,0:0:0:0:
256,192,232852,128,0,233028:0:0:0:0:
182,192,232911,128,0,233087:0:0:0:0:
329,192,232911,128,0,233087:0:0:0:0:
109,192,232969,128,0,233145:0:0:0:0:
402,192,232969,128,0,233145:0:0:0:0:
36,192,233028,128,0,233204:0:0:0:0:
475,192,233028,128,0,233204:0:0:0:0:
256,192,233087,1,0,0:0:0:0:
182,192,233145,1,0,0:0:0:0:
329,192,233145,1,0,0:0:0:0:
109,192,233204,1,0,0:0:0:0:
402,192,233204,1,0,0:0:0:0:
36,192,233262,1,0,0:0:0:0:
475,192,233262,1,0,0:0:0:0:
182,192,233321,128,0,233673:0:0:0:0:
329,192,233321,128,0,233673:0:0:0:0:
402,192,233321,128,0,233673:0:0:0:0:
109,192,233321,128,0,233438:0:0:0:0:
256,192,233321,128,0,233438:0:0:0:0:
475,192,233555,128,0,233907:0:0:0:0:
256,192,233555,128,0,233907:0:0:0:0:
36,192,233555,128,0,233907:0:0:0:0:
109,192,233555,128,0,233673:0:0:0:0:
109,192,233790,128,0,234024:0:0:0:0:
329,192,233790,128,0,234024:0:0:0:0:
402,192,233790,128,0,234024:0:0:0:0:
182,192,233790,128,0,233907:0:0:0:0:
36,192,234024,1,0,0:0:0:0:
182,192,234024,1,0,0:0:0:0:
256,192,234024,1,0,0:0:0:0:
475,192,234024,1,0,0:0:0:0:
256,192,234259,128,0,234727:0:0:0:0:
329,192,234259,128,0,234669:0:0:0:0:
36,192,234259,128,0,234669:0:0:0:0:
475,192,234259,128,0,234493:0:0:0:0:
109,192,234259,128,0,234493:0:0:0:0:
182,192,234259,128,0,234434:0:0:0:0:
402,192,234259,128,0,234434:0:0:0:0:
182,192,234493,1,0,0:0:0:0:
402,192,234493,1,0,0:0:0:0:
475,192,234551,128,0,234727:0:0:0:0:
109,192,234551,128,0,234727:0:0:0:0:
329,192,234727,1,0,0:0:0:0:
402,192,234727,1,0,0:0:0:0:
182,192,234727,1,0,0:0:0:0:
36,192,234727,1,0,0:0:0:0:
182,192,234962,128,0,235665:0:0:0:0:
256,192,234991,128,0,235020:0:0:0:0:
329,192,235020,128,0,235050:0:0:0:0:
402,192,235050,128,0,235079:0:0:0:0:
475,192,235079,128,0,235665:0:0:0:0:
256,192,235196,128,0,235430:0:0:0:0:
402,192,235196,128,0,235430:0:0:0:0:
329,192,235196,128,0,235372:0:0:0:0:
36,192,235196,128,0,235372:0:0:0:0:
109,192,235196,128,0,235606:0:0:0:0:
36,192,235430,1,0,0:0:0:0:
329,192,235430,1,0,0:0:0:0:
256,192,235489,128,0,235606:0:0:0:0:
402,192,235489,128,0,235606:0:0:0:0:
36,192,235665,1,0,0:0:0:0:
109,192,235665,1,0,0:0:0:0:
256,192,235665,1,0,0:0:0:0:
329,192,235665,1,0,0:0:0:0:
402,192,235665,1,0,0:0:0:0:
402,192,235899,128,0,236075:0:0:0:0:
256,192,235899,128,0,236075:0:0:0:0:
109,192,235899,128,0,236075:0:0:0:0:
402,192,236134,128,0,236837:0:0:0:0:
256,192,236134,128,0,236602:0:0:0:0:
109,192,236134,128,0,236368:0:0:0:0:
36,192,236134,1,0,0:0:0:0:
182,192,236134,1,0,0:0:0:0:
329,192,236134,1,0,0:0:0:0:
475,192,236134,1,0,0:0:0:0:
36,192,236368,128,0,236993:0:0:0:0:
109,192,236446,128,0,237071:0:0:0:0:
182,192,236524,1,0,0:0:0:0:
182,192,236602,128,0,237149:0:0:0:0:
475,192,236602,1,0,0:0:0:0:
256,192,236680,128,0,236993:0:0:0:0:
329,192,236759,1,0,0:0:0:0:
329,192,236837,128,0,237071:0:0:0:0:
402,192,236915,128,0,237149:0:0:0:0:
475,192,236993,128,0,237227:0:0:0:0:
256,192,237071,128,0,237774:0:0:0:0:
36,192,237071,1,0,0:0:0:0:
109,192,237149,1,0,0:0:0:0:
329,192,237149,1,0,0:0:0:0:
182,192,237227,1,0,0:0:0:0:
402,192,237227,1,0,0:0:0:0:
475,192,237305,1,0,0:0:0:0:
182,192,237540,128,0,237774:0:0:0:0:
402,192,237540,128,0,237774:0:0:0:0:
36,192,237540,128,0,237774:0:0:0:0:
109,192,237540,1,0,0:0:0:0:
329,192,237540,1,0,0:0:0:0:
475,192,237540,1,0,0:0:0:0:
109,192,237774,1,0,0:0:0:0:
475,192,237774,1,0,0:0:0:0:
329,192,237774,1,0,0:0:0:0:
402,192,238009,128,0,238243:0:0:0:0:
256,192,238009,128,0,238243:0:0:0:0:
36,192,238009,128,0,238243:0:0:0:0:
109,192,238009,128,0,238243:0:0:0:0:
182,192,238009,1,0,0:0:0:0:
329,192,238009,1,0,0:0:0:0:
475,192,238009,1,0,0:0:0:0:
182,192,238243,128,0,238477:0:0:0:0:
329,192,238243,128,0,238477:0:0:0:0:
475,192,238243,128,0,238419:0:0:0:0:
36,192,238301,128,0,238419:0:0:0:0:
109,192,238301,128,0,238419:0:0:0:0:
256,192,238301,128,0,238419:0:0:0:0:
402,192,238301,128,0,238419:0:0:0:0:
36,192,238477,1,0,0:0:0:0:
109,192,238477,1,0,0:0:0:0:
256,192,238477,1,0,0:0:0:0:
402,192,238477,1,0,0:0:0:0:
475,192,238477,1,0,0:0:0:0:
475,192,238712,128,0,238829:0:0:0:0:
402,192,238712,128,0,238800:0:0:0:0:
329,192,238712,128,0,238770:0:0:0:0:
256,192,238712,128,0,238741:0:0:0:0:
182,192,238712,1,0,0:0:0:0:
256,192,238946,128,0,239415:0:0:0:0:
36,192,238946,128,0,239298:0:0:0:0:
402,192,238946,128,0,239298:0:0:0:0:
329,192,238946,128,0,239063:0:0:0:0:
475,192,238946,128,0,239063:0:0:0:0:
182,192,238946,128,0,239063:0:0:0:0:
109,192,238946,128,0,239180:0:0:0:0:
475,192,239180,1,0,0:0:0:0:
329,192,239180,1,0,0:0:0:0:
182,192,239180,1,0,0:0:0:0:
36,192,239415,1,0,0:0:0:0:
109,192,239415,1,0,0:0:0:0:
182,192,239415,1,0,0:0:0:0:
329,192,239415,1,0,0:0:0:0:
402,192,239415,1,0,0:0:0:0:
475,192,239415,1,0,0:0:0:0:
475,192,239649,128,0,239825:0:0:0:0:
256,192,239649,128,0,239825:0:0:0:0:
109,192,239649,128,0,239825:0:0:0:0:
36,192,239884,1,0,0:0:0:0:
182,192,239884,1,0,0:0:0:0:
329,192,239884,1,0,0:0:0:0:
402,192,239884,1,0,0:0:0:0:
475,192,239884,128,0,240411:0:0:0:0:
256,192,239884,128,0,240528:0:0:0:0:
109,192,239884,128,0,240411:0:0:0:0:
329,192,240352,128,0,240587:0:0:0:0:
402,192,240411,128,0,240645:0:0:0:0:
36,192,240411,128,0,240645:0:0:0:0:
475,192,240469,128,0,240704:0:0:0:0:
109,192,240469,128,0,240704:0:0:0:0:
182,192,240528,128,0,240938:0:0:0:0:
256,192,240587,128,0,240762:0:0:0:0:
329,192,240645,128,0,240762:0:0:0:0:
36,192,240704,128,0,240938:0:0:0:0:
402,192,240704,128,0,240762:0:0:0:0:
475,192,240762,128,0,241173:0:0:0:0:
109,192,240762,128,0,240938:0:0:0:0:
256,192,240821,128,0,241407:0:0:0:0:
329,192,240821,128,0,241173:0:0:0:0:
402,192,240821,128,0,241173:0:0:0:0:
36,192,241055,128,0,241407:0:0:0:0:
109,192,241055,128,0,241407:0:0:0:0:
182,192,241055,128,0,241407:0:0:0:0:
329,192,241290,1,0,0:0:0:0:
402,192,241290,1,0,0:0:0:0:
475,192,241290,1,0,0:0:0:0:
256,192,241524,1,0,0:0:0:0:
182,192,241524,1,0,0:0:0:0:
109,192,241524,1,0,0:0:0:0:
36,192,241524,1,0,0:0:0:0:
36,192,241759,128,0,241934:0:0:0:0:
182,192,241759,128,0,241993:0:0:0:0:
256,192,241759,128,0,241934:0:0:0:0:
402,192,241759,128,0,241993:0:0:0:0:
109,192,241759,128,0,241993:0:0:0:0:
329,192,241759,1,0,0:0:0:0:
475,192,241759,1,0,0:0:0:0:
329,192,241993,128,0,242169:0:0:0:0:
475,192,241993,128,0,242169:0:0:0:0:
36,192,241993,128,0,242169:0:0:0:0:
256,192,241993,128,0,242169:0:0:0:0:
109,192,242051,128,0,242227:0:0:0:0:
182,192,242051,128,0,242227:0:0:0:0:
402,192,242051,128,0,242227:0:0:0:0:
36,192,242227,1,0,0:0:0:0:
256,192,242227,1,0,0:0:0:0:
329,192,242227,1,0,0:0:0:0:
475,192,242227,1,0,0:0:0:0:
109,192,242462,128,0,243165:0:0:0:0:
182,192,242491,128,0,242520:0:0:0:0:
256,192,242520,128,0,242550:0:0:0:0:
329,192,242550,128,0,242579:0:0:0:0:
402,192,242579,128,0,243165:0:0:0:0:
475,192,242696,128,0,242930:0:0:0:0:
182,192,242696,128,0,242930:0:0:0:0:
256,192,242696,128,0,243165:0:0:0:0:
329,192,242696,128,0,242872:0:0:0:0:
36,192,242696,128,0,242872:0:0:0:0:
329,192,242930,128,0,243106:0:0:0:0:
36,192,242930,128,0,243106:0:0:0:0:
182,192,242989,128,0,243106:0:0:0:0:
475,192,242989,128,0,243106:0:0:0:0:
36,192,243165,1,0,0:0:0:0:
182,192,243165,1,0,0:0:0:0:
329,192,243165,1,0,0:0:0:0:
475,192,243165,1,0,0:0:0:0:
475,192,243399,128,0,243575:0:0:0:0:
402,192,243399,128,0,243575:0:0:0:0:
109,192,243399,128,0,243575:0:0:0:0:
256,192,243399,128,0,243575:0:0:0:0:
36,192,243634,1,0,0:0:0:0:
109,192,243634,128,0,243868:0:0:0:0:
256,192,243634,128,0,243868:0:0:0:0:
402,192,243634,128,0,243809:0:0:0:0:
475,192,243634,128,0,243809:0:0:0:0:
329,192,243634,1,0,0:0:0:0:
182,192,243634,1,0,0:0:0:0:
402,192,243868,128,0,244102:0:0:0:0:
182,192,243868,128,0,244044:0:0:0:0:
329,192,243868,128,0,244044:0:0:0:0:
36,192,243868,128,0,244102:0:0:0:0:
475,192,243868,128,0,244044:0:0:0:0:
182,192,244102,128,0,244337:0:0:0:0:
329,192,244102,128,0,244337:0:0:0:0:
256,192,244102,128,0,244278:0:0:0:0:
475,192,244102,128,0,244278:0:0:0:0:
109,192,244102,128,0,244278:0:0:0:0:
36,192,244337,128,0,244512:0:0:0:0:
256,192,244337,128,0,244512:0:0:0:0:
109,192,244337,128,0,244512:0:0:0:0:
475,192,244337,128,0,244512:0:0:0:0:
402,192,244337,128,0,244512:0:0:0:0:
36,192,244571,1,0,0:0:0:0:
182,192,244571,1,0,0:0:0:0:
475,192,244571,1,0,0:0:0:0:
329,192,244571,1,0,0:0:0:0:
256,192,244571,128,0,245274:0:0:0:0:
109,192,244649,1,0,0:0:0:0:
402,192,244649,1,0,0:0:0:0:
36,192,244727,1,0,0:0:0:0:
182,192,244727,1,0,0:0:0:0:
329,192,244727,1,0,0:0:0:0:
475,192,244727,1,0,0:0:0:0:
109,192,244805,1,0,0:0:0:0:
402,192,244805,1,0,0:0:0:0:
109,192,245040,128,0,245274:0:0:0:0:
329,192,245040,128,0,245274:0:0:0:0:
475,192,245040,128,0,245274:0:0:0:0:
402,192,245040,1,0,0:0:0:0:
182,192,245040,1,0,0:0:0:0:
36,192,245040,1,0,0:0:0:0:
402,192,245274,1,0,0:0:0:0:
36,192,245274,1,0,0:0:0:0:
182,192,245274,1,0,0:0:0:0:
36,192,245509,1,0,0:0:0:0:
109,192,245509,1,0,0:0:0:0:
182,192,245509,1,0,0:0:0:0:
256,192,245509,1,0,0:0:0:0:
329,192,245509,1,0,0:0:0:0:
475,192,245509,1,0,0:0:0:0:
402,192,245509,128,0,245626:0:0:0:0:
475,192,245743,1,0,0:0:0:0:
329,192,245743,1,0,0:0:0:0:
475,192,245977,1,0,0:0:0:0:
402,192,245977,1,0,0:0:0:0:
329,192,245977,1,0,0:0:0:0:
182,192,245977,1,0,0:0:0:0:
36,192,245977,1,0,0:0:0:0:
109,192,245977,1,0,0:0:0:0:
256,192,245977,1,0,0:0:0:0:
36,192,246212,1,0,0:0:0:0:
182,192,246212,1,0,0:0:0:0:
256,192,246212,128,0,246329:0:0:0:0:
36,192,246446,1,0,0:0:0:0:
109,192,246446,1,0,0:0:0:0:
329,192,246446,1,0,0:0:0:0:
475,192,246446,1,0,0:0:0:0:
182,192,246446,1,0,0:0:0:0:
402,192,246446,1,0,0:0:0:0:
256,192,246446,128,0,246563:0:0:0:0:
256,192,246680,1,0,0:0:0:0:
402,192,246680,1,0,0:0:0:0:
36,192,246915,1,0,0:0:0:0:
109,192,246915,1,0,0:0:0:0:
182,192,246915,1,0,0:0:0:0:
256,192,246915,1,0,0:0:0:0:
329,192,246915,1,0,0:0:0:0:
402,192,246915,1,0,0:0:0:0:
475,192,246915,1,0,0:0:0:0:
109,192,247149,1,0,0:0:0:0:
329,192,247149,1,0,0:0:0:0:
475,192,247384,128,0,247501:0:0:0:0:
329,192,247384,128,0,247501:0:0:0:0:
256,192,247384,128,0,247735:0:0:0:0:
182,192,247384,128,0,247735:0:0:0:0:
109,192,247384,128,0,247735:0:0:0:0:
36,192,247384,128,0,247735:0:0:0:0:
402,192,247384,1,0,0:0:0:0:
475,192,247618,128,0,247735:0:0:0:0:
329,192,247618,128,0,247735:0:0:0:0:
475,192,247852,128,0,248204:0:0:0:0:
402,192,247852,128,0,248204:0:0:0:0:
329,192,247852,128,0,248204:0:0:0:0:
256,192,247852,128,0,247969:0:0:0:0:
182,192,247852,128,0,247969:0:0:0:0:
109,192,247852,128,0,248204:0:0:0:0:
36,192,247852,128,0,247969:0:0:0:0:
36,192,248087,128,0,248204:0:0:0:0:
182,192,248087,128,0,248204:0:0:0:0:
256,192,248087,1,0,0:0:0:0:
36,192,248321,128,0,248673:0:0:0:0:
109,192,248321,128,0,248673:0:0:0:0:
182,192,248321,128,0,248673:0:0:0:0:
329,192,248321,128,0,248673:0:0:0:0:
402,192,248321,128,0,248438:0:0:0:0:
475,192,248321,128,0,248673:0:0:0:0:
256,192,248321,1,0,0:0:0:0:
402,192,248555,128,0,248673:0:0:0:0:
256,192,248555,128,0,248673:0:0:0:0:
36,192,248790,128,0,249141:0:0:0:0:
109,192,248790,128,0,248907:0:0:0:0:
182,192,248790,128,0,249141:0:0:0:0:
256,192,248790,128,0,249141:0:0:0:0:
329,192,248790,128,0,248907:0:0:0:0:
402,192,248790,128,0,249141:0:0:0:0:
475,192,248790,128,0,249141:0:0:0:0:
329,192,249024,128,0,249141:0:0:0:0:
109,192,249024,128,0,249141:0:0:0:0:
475,192,249259,1,0,0:0:0:0:
402,192,249259,128,0,249376:0:0:0:0:
329,192,249259,1,0,0:0:0:0:
256,192,249259,1,0,0:0:0:0:
182,192,249259,1,0,0:0:0:0:
109,192,249259,1,0,0:0:0:0:
36,192,249259,1,0,0:0:0:0:
329,192,249493,1,0,0:0:0:0:
475,192,249493,1,0,0:0:0:0:
475,192,249727,1,0,0:0:0:0:
402,192,249727,1,0,0:0:0:0:
329,192,249727,1,0,0:0:0:0:
256,192,249727,1,0,0:0:0:0:
182,192,249727,1,0,0:0:0:0:
109,192,249727,1,0,0:0:0:0:
36,192,249727,1,0,0:0:0:0:
36,192,249962,1,0,0:0:0:0:
182,192,249962,1,0,0:0:0:0:
256,192,249962,128,0,250079:0:0:0:0:
256,192,250196,128,0,250313:0:0:0:0:
329,192,250196,1,0,0:0:0:0:
402,192,250196,1,0,0:0:0:0:
475,192,250196,1,0,0:0:0:0:
182,192,250196,1,0,0:0:0:0:
109,192,250196,1,0,0:0:0:0:
36,192,250196,1,0,0:0:0:0:
402,192,250430,1,0,0:0:0:0:
256,192,250430,1,0,0:0:0:0:
475,192,250665,1,0,0:0:0:0:
402,192,250665,1,0,0:0:0:0:
329,192,250665,1,0,0:0:0:0:
256,192,250665,1,0,0:0:0:0:
182,192,250665,1,0,0:0:0:0:
109,192,250665,1,0,0:0:0:0:
36,192,250665,1,0,0:0:0:0:
329,192,250899,1,0,0:0:0:0:
109,192,250899,1,0,0:0:0:0:
475,192,251134,128,0,251251:0:0:0:0:
329,192,251134,128,0,251251:0:0:0:0:
256,192,251134,128,0,251485:0:0:0:0:
182,192,251134,128,0,251485:0:0:0:0:
109,192,251134,128,0,251485:0:0:0:0:
36,192,251134,128,0,251485:0:0:0:0:
402,192,251134,1,0,0:0:0:0:
329,192,251368,128,0,251485:0:0:0:0:
475,192,251368,128,0,251485:0:0:0:0:
475,192,251602,128,0,251719:0:0:0:0:
402,192,251602,128,0,251719:0:0:0:0:
329,192,251602,128,0,251719:0:0:0:0:
256,192,251602,128,0,251719:0:0:0:0:
182,192,251602,128,0,251719:0:0:0:0:
109,192,251602,128,0,251719:0:0:0:0:
36,192,251602,128,0,251719:0:0:0:0:
36,192,251837,128,0,251954:0:0:0:0:
182,192,251837,128,0,251954:0:0:0:0:
256,192,251837,1,0,0:0:0:0:
256,192,252071,1,0,0:0:0:0:
