osu file format v8

[General]
AudioFilename: 03-Cosmic Castaway - Electrasy.mp3
AudioLeadIn: 0
PreviewTime: -1
Countdown: 1
SampleSet: Normal
StackLeniency: 0.7
Mode: 0
LetterboxInBreaks: 1

[Editor]
Bookmarks: 16886,17355,17825,18529,18998,20406,20876,21345,22284,25335,26274,31919,32858,33785,34736,35675,36613,37540,38491,39430,40486,41308,42246,50684,52327,52796,54439,54686,56211,61246,61950,65705,66644,67583,68522,69461,70399,71338,72277,73216,76032,76971,77910,78849,79084,80023,80727,82604,84482,85421,86360,87298,88237,89176,90115,91054,94340,95279,110769,114055,114994,115464,115933,116402,116872,117341,117811,118280,121331,122974,123913,125791,126730,127668,128607,129546,130485,130954,131189,131893,132363,133301,134240,135179,136118,137057,137996,139404,140343,141751,143159,144098,144333,144567,145037,145506,145976,146445,147853,148323,148792,152078
DistanceSpacing: 1.5
BeatDivisor: 4
GridSize: 8

[Metadata]
Title:Cosmic Castaway
Artist:Electrasy
Creator:lizzehb
Version:Cosmic
Source:Titan A.E.
Tags:SapphireGhost

[Difficulty]
HPDrainRate:3
CircleSize:3
OverallDifficulty:3
ApproachRate:3
SliderMultiplier:0.99999990463257
SliderTickRate:1

[Events]
//Background and Video events
0,0,"TitanAE_12.jpg"
//Break Periods
2,45016,49244
2,61244,64031
2,103459,109095
//Storyboard Layer 0 (Background)
//Storyboard Layer 1 (Fail)
//Storyboard Layer 2 (Pass)
//Storyboard Layer 3 (Foreground)
//Storyboard Sound Samples
//Background Colour Transformations
3,100,128,0,255

[TimingPoints]
1838,468.75,4,1,0,80,1,0
31907,-100,4,1,0,80,0,1
44816,-100,4,1,0,80,0,0

[Colours]
Combo1 : 0,0,255
Combo2 : 255,128,0
Combo3 : 217,0,217
Combo4 : 255,23,139
Combo5 : 128,0,64

[HitObjects]
88,80,16886,2,8,B|152:80,2,49.9999952316285
96,232,17825,2,0,B|152:232,2,49.9999952316285
96,232,18529,1,8
440,96,18998,6,0,B|376:96,1,49.9999952316285
352,240,19702,2,2,B|288:240,3,49.9999952316285
144,240,20876,2,0,B|144:296,2,49.9999952316285
144,88,21815,2,8,B|144:144,1,49.9999952316285
256,192,22519,12,4,24631
384,80,26274,5,0
352,120,26509,1,0
320,160,26744,1,0
104,64,28621,5,8
128,104,28856,2,0,B|168:176,1,49.9999952316285
184,200,29325,1,0
216,168,29560,2,2,B|264:120,1,49.9999952316285
256,40,31673,5,8
256,40,31907,2,0,B|168:112|256:224,1,199.999980926514
256,40,33785,2,0,B|344:112|256:224,1,199.999980926514
168,80,35428,21,8
168,80,35663,2,0,B|112:104|144:184|208:224|120:256,1,199.999980926514
344,80,37540,2,0,B|400:104|368:184|304:224|392:256,1,199.999980926514
152,80,39183,5,8
152,80,39418,2,0,B|128:184|192:248|216:312,1,199.999980926514
360,80,41296,2,0,B|384:184|320:248|296:312,1,199.999980926514
96,64,43173,5,0
152,112,43408,1,0
208,160,43643,1,0
328,248,44112,1,8
448,336,44581,1,8
448,336,44816,1,8
464,328,50684,5,0
408,280,50919,1,0
352,232,51153,1,8
304,176,51388,2,2,B|248:176,1,49.9999952316285
304,176,51857,2,2,B|304:120,1,49.9999952316285
304,128,52327,1,4
456,128,52796,6,0,B|506:128,5,49.9999952316285
272,120,54674,5,0
208,168,54909,1,0
144,216,55143,1,0
88,272,55378,1,0
160,304,55613,5,0
216,248,55848,1,0
280,200,56082,1,2
256,192,56317,12,0,58194
80,64,58899,5,0
160,64,59133,1,8
160,144,59368,1,0
80,144,59603,1,8
184,216,60072,1,8
264,216,60307,1,0
184,296,60542,1,8
264,296,60776,1,0
264,296,61044,1,10
96,48,65471,5,8
96,48,65705,2,0,B|96:160|96:160|192:160,1,199.999980926514
96,336,67583,2,0,B|96:224|96:224|192:224,1,199.999980926514
416,336,69226,5,8
416,336,69461,2,0,B|416:224|416:224|288:224,1,199.999980926514
416,48,71338,2,0,B|416:160|416:160|288:160,1,199.999980926514
216,248,72981,5,8
216,248,73216,2,0,B|224:200|264:216|336:296|400:216,1,199.999980926514
320,104,75094,2,0,B|312:152|272:136|200:56|136:136,1,199.999980926514
264,184,76971,5,8
256,80,77910,2,0,B|168:152|168:208|184:256|256:232,1,199.999980926514
295,237,79318,2,0,B|328:256|344:208|344:152|256:80,1,199.999980926514
104,48,80727,5,0
168,96,80961,1,0
232,144,81196,1,0
296,192,81431,1,0
360,240,81665,1,8
128,288,82604,5,0
192,240,82838,1,0
256,192,83073,1,0
320,144,83308,1,0
384,96,83542,1,8
136,264,84482,6,0,B|176:344|224:328|264:320|280:288|296:272,1,199.999980926514
240,96,86360,6,0,B|280:16|328:32|368:40|384:72|400:88,1,199.999980926514
192,216,88003,5,0
120,184,88237,1,0
408,104,89176,2,2,B|368:136|376:160|440:216|440:224|368:280,2,199.999980926514
256,120,91758,1,0
312,176,91993,1,0
120,288,92462,2,0,B|224:288,2,99.999990463257
48,288,93636,1,0
192,120,94340,6,0,B|272:120,5,49.9999952316285
256,192,95748,12,0,97391
192,120,98095,6,0,B|272:120,5,49.9999952316285
256,192,99503,12,0,103259
32,32,110535,5,8
32,32,110769,2,8,B|32:136|32:136|168:136|168:136|168:232|168:232|32:232|32:232|32:328|32:328|176:328,1,699.999933242799
256,224,114525,6,8,B|360:224,1,99.999990463257
256,224,115464,2,8,B|144:224,1,99.999990463257
256,224,116402,2,2,B|256:344,1,99.999990463257
256,224,117341,2,2,B|256:104,1,99.999990463257
480,32,118280,2,8,B|480:136|480:136|344:136|344:136|344:232|344:232|480:232|480:232|480:328|480:328|336:328,1,699.999933242799
376,216,122035,6,8,B|480:216,1,99.999990463257
376,216,122974,2,8,B|264:216,1,99.999990463257
376,216,123913,2,2,B|376:116,1,99.999990463257
376,216,124852,2,2,B|376:315,1,99.999990463257
368,144,125791,5,8
304,96,126025,2,8,B|360:64|384:64|400:80|424:96|440:120|448:160|448:144,1,149.999985694885
184,176,127668,1,8
128,128,127903,2,8,B|184:96|208:96|224:112|248:128|264:152|272:192|272:176,1,149.999985694885
128,80,129546,5,8
72,32,129781,2,8,B|128:0|152:0|168:16|192:32|208:56|216:96|216:80,1,149.999985694885
344,96,130954,1,8
288,48,131189,2,8,B|344:16|368:16|384:32|408:48|424:72|432:112|432:96,1,149.999985694885
416,72,132128,1,8
128,80,133067,5,0
128,80,133301,1,0
192,128,133536,1,0
120,160,133771,1,0
184,208,134006,1,0
112,240,134240,1,8
384,304,134944,5,0
384,304,135179,1,0
320,256,135414,1,0
392,224,135649,1,0
328,176,135884,1,0
400,144,136118,1,8
184,72,136822,5,0
120,112,137057,2,0,B|112:24|120:16|136:16|232:16|232:16|256:56,1,199.999980926514
224,168,138465,1,8
296,192,138700,1,8
176,304,139404,6,2,B|180:287|196:287|204:287|308:351|316:351|324:351|348:303,1,199.999980926514
280,176,140812,2,0,B|248:192|224:192|184:168,1,99.999990463257
248,32,141751,1,8
368,120,142220,2,8,B|320:88|352:32,1,99.999990463257
256,224,144333,5,8
256,144,144567,1,8
128,64,145037,1,8
144,216,145506,2,0,B|192:272|192:272|264:216,1,149.999985694885
312,288,146445,2,2,B|256:280|248:272|376:184|384:168|232:128|224:120|336:56,1,299.999971389771
176,88,148323,6,0,B|184:136|240:152,2,49.9999952316285
272,208,149262,1,8
408,280,149731,2,0,B|341:280|349:216,1,99.999990463257
