osu file format v9

[General]
AudioFilename: Elanne - Dream a good day.mp3
AudioLeadIn: 0
PreviewTime: 129767
Countdown: 0
SampleSet: Soft
StackLeniency: 0.7
Mode: 0
LetterboxInBreaks: 1

[Editor]
Bookmarks: 15651,88680,161723
DistanceSpacing: 1
BeatDivisor: 4
GridSize: 8

[Metadata]
Title:Mung Ging Yat Wo (Dream a good day)
Artist:Elanne Kong
Creator:KingsAL2
Version:Alarmabal
Source:Doraemon : Nobita in the Wan-Nyan Spacetime Odyssey
Tags:Chinese Vocal Animation Nobita no Wan nyan Jikuuden

[Difficulty]
HPDrainRate:7
CircleSize:4
OverallDifficulty:7
ApproachRate:7
SliderMultiplier:1.8
SliderTickRate:2

[Events]
//Background and Video events
0,0,"Doraemon-27.jpg"
//Break Periods
2,80737,87789
2,154106,160180
//Storyboard Layer 0 (Background)
//Storyboard Layer 1 (Fail)
//Storyboard Layer 2 (Pass)
//Storyboard Layer 3 (Foreground)
Sprite,Foreground,Centre,"SB\LIGHT02.png",320,240 M,0,15636,,501,132 F,0,15636,16125,1 V,0,15636,16289,0.1,0.1,0.6631998,0.57104 F,0,16125,16289,1,0
Sprite,Foreground,Centre,"SB\LIGHT02.png",320,240 M,0,58028,,509,303 F,0,58028,58517,1 V,0,58028,58680,0.1,0.1,0.5505597,0.55056 F,0,58517,58680,1,0
Sprite,Foreground,Centre,"SB\LIGHT02.png",320,240 M,0,58354,,394,367 F,0,58354,58843,1 V,0,58354,59006,0.1,0.1,0.4584,0.4891199 F,0,58843,59006,1,0
Sprite,Foreground,Centre,"SB\LIGHT02.png",320,240 M,0,73028,,183,220 F,0,73028,73680,1 V,0,73028,74006,0.1,0.1,0.62224,0.5812799 F,0,73680,74006,1,0
Sprite,Foreground,Centre,"SB\LIGHT02.png",320,240 M,0,75636,,198,355 F,0,75636,76125,1 V,0,75636,76615,0.1,0.1,0.5505598,0.5812796 F,0,76125,76615,1,0
Sprite,Foreground,Centre,"SB\LIGHT02.png",320,240 M,0,148680,,223,309 F,0,148680,149169,1 V,0,148680,149332,0.1,0.1,0.5812801,0.6324798 F,0,149169,149332,1,0
Sprite,Foreground,Centre,"SB\LIGHT02.png",320,240 M,0,183082,,196,307 F,0,183082,183408,1,0 V,0,183082,183408,0.1,0.1,0.42768,0.53008
Sprite,Foreground,Centre,"SB\LIGHT02.png",320,240 M,0,183571,,396,305 F,0,183571,,1 V,0,183571,183897,0.1,0.1,0.5812805,0.6324796
Sprite,Foreground,Centre,"SB\LIGHT02.png",320,240 M,0,109549,,301,106 F,0,109549,109875,1 V,0,109549,110202,0.1,0.1,0.5096002,0.5608 F,0,109875,110202,1,0
//Storyboard Sound Samples
//Background Colour Transformations
3,100,255,255,255

[TimingPoints]
15646,652.173913043478,4,2,0,100,1,0
36358,-100,4,2,1,71,0,0
57390,-100,4,2,1,71,0,1
73369,-100,4,2,0,100,0,1
75814,-100,4,2,1,79,0,1
80380,-100,4,2,1,0,0,1
80706,-100,4,2,0,69,0,0
109069,-100,4,2,0,50,0,0
109395,-100,4,2,0,80,0,0
109727,-100,4,2,1,69,0,0
130428,-100,4,2,1,69,0,1
130597,-100,4,1,1,69,0,0
153423,-100,4,2,1,5,0,0
160908,-100,4,2,0,50,0,0
185039,-100,4,1,1,50,0,0
185202,-100,4,1,1,50,0,1
194495,-100,4,2,0,100,0,1
194821,-100,4,1,0,50,0,1
208191,-100,4,1,1,5,0,1
208517,-100,4,1,1,5,0,0

[Colours]
Combo1 : 249,254,186
Combo2 : 171,252,203
Combo3 : 175,221,254

[HitObjects]
432,80,15646,1,2
368,120,15972,2,0,B|328:224,1,90
272,176,16624,2,0,B|248:288|160:336,1,180
160,336,17439,1,0
136,344,17602,1,2
48,248,17928,5,0
80,184,18254,2,0,B|32:72|160:24,1,180,0|2
160,152,19232,1,0
184,104,19396,1,0
208,56,19559,1,0
256,136,19885,2,0,B|256:240,1,90,0|2
440,192,20537,5,0
488,256,20863,2,0,B|480:352|352:344,1,180
328,280,21841,2,0,B|248:328,1,90
216,264,22493,2,0,B|112:296,1,90,0|2
112,224,23145,1,0
176,80,23798,5,0
216,80,23961,1,0
256,80,24124,1,0
296,80,24287,1,0
336,80,24450,1,0
256,192,24776,1,0
336,304,25102,1,0
296,304,25265,1,0
256,304,25428,1,2
216,304,25591,1,0
176,304,25754,1,0
176,192,26080,6,0,B|160:96,1,90
336,192,26732,2,0,B|352:96,1,90
256,48,27385,1,0
200,336,28037,6,0,B|112:296,1,90,2|0
312,336,28689,2,0,B|400:296,1,90
360,272,29178,2,0,B|472:224,1,90
416,216,29667,2,0,B|512:176,1,90
416,56,30482,1,0
296,136,30972,1,0
256,360,31298,6,0,B|256:176,1,180
192,104,32276,2,0,B|160:144,1,45
320,104,32765,2,0,B|352:144,1,45
376,256,33254,5,0
256,288,33580,1,0
136,256,33906,1,2
168,184,34124,6,0,B|208:120,1,60
232,96,34559,2,0,B|296:96,1,60
320,136,34993,2,0,B|352:192,1,60,0|2
256,192,35374,12,8,36515
128,88,36841,5,0
96,136,37004,1,8
128,184,37167,1,2
256,136,37493,1,0
256,136,37819,1,8
384,88,38145,1,0
416,136,38309,1,8
384,184,38472,1,2
256,224,38798,5,0
112,272,39124,2,0,B|152:360,1,90,8|0
400,272,39776,2,0,B|360:360,1,90,2|0
192,264,40428,2,0,B|168:168,1,90,8|0
320,264,41080,2,0,B|344:168,1,90,2|4
192,104,41732,5,8
192,104,42059,1,0
256,88,42222,1,8
320,104,42385,1,8
320,104,42711,1,0
368,192,43037,2,0,B|392:248|352:304,1,90,8|0
256,240,43689,1,0
168,160,44015,2,0,B|96:240|176:360,1,180
200,336,44830,5,0
240,320,44993,1,0
272,288,45156,1,0
280,248,45319,1,0
248,168,45646,1,0
216,80,45972,1,8
248,48,46135,1,0
296,40,46298,1,2
336,56,46461,1,0
368,88,46624,1,8
176,200,46950,5,8
256,264,47276,2,0,B|256:320,1,45
256,344,47602,1,2
328,200,47928,1,0
200,128,48254,1,0
304,128,48580,2,0,B|264:72,1,45,8|0
256,64,48906,1,2
48,80,49232,5,0
112,144,49559,2,0,B|64:240,1,90,8|0
168,224,50211,2,0,B|168:336,1,90,2|0
248,280,50863,2,0,B|304:360,1,90,8|0
360,304,51515,2,0,B|408:336,2,45,2|0|0
392,192,52167,5,8
256,160,52493,2,0,B|256:112,1,45
256,64,52819,1,2
120,192,53146,1,0
56,224,53472,5,8
256,224,53798,2,0,B|256:272,1,45
256,320,54124,1,2
456,224,54450,1,8
416,160,54776,5,8
376,224,55102,1,0
320,120,55428,1,0
272,272,55754,1,0
192,96,56080,1,0
168,296,56406,2,0,B|160:336,2,22.5
64,192,56732,5,0
160,192,57059,1,0
256,192,57385,1,4
440,136,57711,5,8
456,192,57874,1,0
440,248,58037,1,2
344,296,58363,1,2
240,240,58689,1,8
184,264,58852,1,0
160,320,59015,1,8
152,192,59341,5,2
256,152,59667,1,0
360,200,59993,2,0,B|392:152,1,45,4|0
408,112,60319,1,2
440,64,60482,2,0,B|496:96,1,45,0|8
464,192,60972,1,0
424,280,61298,1,8
456,328,61461,1,2
400,336,61624,1,0
256,312,61950,5,2
160,344,62276,1,0
128,256,62602,2,0,B|24:256,1,90,8|0
96,176,63254,2,0,B|192:176,1,90,2|0
128,96,63906,2,0,B|32:96,1,90,8|0
96,16,64559,2,0,B|208:16,1,90,2|0
256,136,65211,5,8
304,192,65537,1,0
256,248,65863,1,2
208,192,66189,1,0
256,64,66515,5,4
376,192,66841,1,4
256,320,67167,1,8
136,192,67493,1,8
152,88,67819,5,6
360,88,68146,1,0
304,80,68309,1,0
256,96,68472,1,8
336,184,68798,1,0
256,272,69124,6,0,B|256:368,1,90,2|0
304,352,69613,2,0,B|304:256,1,90,8|8
352,248,70102,2,0,B|352:352,1,90,8|0
448,336,70754,1,8
472,216,71080,1,2
352,248,71406,1,0
384,128,71732,2,0,B|296:80|208:128,1,180
160,192,72711,5,0
160,192,73037,1,8
256,80,73363,1,0
256,112,73526,2,2,B|256:256,1,135
352,192,74341,5,0
256,112,74667,1,2
256,144,74830,2,2,B|256:288,1,135
160,320,75646,5,0
256,320,75972,1,8
288,320,76135,1,0
320,320,76298,1,2
352,320,76461,1,0
384,320,76624,1,8
176,256,77276,5,8
112,88,77602,1,2
336,256,77928,1,2
400,88,78254,1,4
256,192,78417,12,0,80537
256,72,88689,5,4
360,128,89015,1,0
368,176,89178,1,0
360,224,89341,1,8
256,192,89667,2,0,B|256:304,1,90
152,128,90319,1,0
144,176,90482,1,0
152,224,90645,1,8
256,344,90972,5,0
184,256,91298,2,0,B|128:336,1,90,2|0
328,256,91950,2,0,B|384:336,1,90,8|0
256,216,92602,2,0,B|256:152,2,45,8|2|8
256,104,93254,1,8
192,64,93580,5,0
320,64,93906,2,0,B|424:64,1,90,2|0
392,104,94395,2,0,B|488:104,1,90,8|2
472,152,94885,2,0,B|496:248|472:336,1,180
376,232,95863,5,8
344,352,96189,2,2,B|256:320|160:352,1,180
128,336,97004,1,0
112,296,97167,1,8
136,256,97330,1,0
184,256,97493,1,2
144,152,98145,5,0
200,152,98309,1,0
256,152,98472,1,8
312,152,98635,1,2
368,152,98798,1,0
256,64,99124,5,0
160,80,99450,2,0,B|104:80,2,45,0|0|8
144,176,100102,1,0
48,200,100428,1,2
368,176,101080,5,8
464,200,101406,1,0
432,296,101732,2,0,B|464:368,2,45,0|0|0
336,272,102385,1,8
256,216,102711,2,0,B|256:312,1,90,0|2
176,272,103363,5,0
136,232,103526,1,2
176,192,103689,1,8
256,120,104015,2,2,B|344:48|424:128,2,180
344,192,105645,1,0
344,280,105972,5,0
256,320,106298,1,8
168,280,106624,1,0
128,240,106787,1,0
88,280,106950,1,2
48,192,107276,2,0,B|32:96,1,90,2|8
200,192,107928,2,0,B|216:144,1,45,2|0
176,240,108417,2,0,B|160:288,1,45,2|0
256,280,108906,5,2
256,112,109232,1,6
256,112,109559,1,4
184,80,109885,5,0
168,176,110211,1,8
80,160,110537,2,0,B|40:256,1,90,0|8
136,272,111189,2,0,B|88:368,1,90,0|2
208,336,111841,5,0
256,296,112004,1,0
304,336,112167,1,8
336,256,112493,2,0,B|360:160,1,90,0|2
176,256,113145,2,0,B|152:160,1,90,0|8
312,96,113798,1,0
256,120,113961,1,0
200,96,114124,1,2
256,32,114450,5,0
312,96,114776,2,0,B|368:176,1,90,8|0
256,192,115428,1,2
200,96,115754,2,0,B|144:176,1,90,0|8
341,257,116406,2,0,B|256:320|176:256,2,180,8|0|0
328,224,117874,6,0,B|304:152,1,45,0|2
312,144,118200,2,0,B|296:80,1,45,0|4
400,336,119015,2,0,B|416:272,1,45,4|0
416,240,119341,2,0,B|432:176,1,45
424,144,119667,1,0
256,56,119993,5,8
312,144,120319,2,0,B|256:240,1,90,0|2
200,144,120972,2,0,B|256:240,1,90,0|8
192,320,121624,1,8
320,320,121950,1,2
256,352,122276,5,0
352,256,122602,2,0,B|456:256,1,90,8|0
160,256,123254,2,0,B|56:256,1,90,2|0
312,184,123906,2,0,B|416:184,1,90,8|8
200,184,124559,2,0,B|96:184,1,90,2|0
256,56,125211,5,8
256,56,125537,1,0
256,56,125700,1,0
184,328,126189,5,0
256,248,126515,1,8
328,328,126841,1,0
328,328,127004,1,0
432,280,127330,2,0,B|456:200|432:128,1,135,0|4
256,272,128145,5,0
224,200,128472,1,0
320,160,128798,1,0
192,128,129124,1,0
344,88,129450,1,0
160,56,129776,2,0,B|136:8,2,45,8|0|8
256,192,130428,5,4
256,288,130754,1,0
256,288,130917,1,0
256,288,131080,1,8
168,336,131406,2,0,B|64:336,2,90,8|0|0
344,336,132385,5,8
336,240,132711,1,0
392,160,133037,1,2
432,56,133363,2,0,B|360:72,1,45
336,80,133689,1,8
280,160,134015,1,0
184,136,134341,1,0
136,144,134504,1,8
88,152,134667,1,0
56,248,134993,5,8
88,336,135319,1,0
184,336,135645,2,0,B|296:336,1,90,2|0
216,248,136298,2,0,B|312:248,1,90,8|0
184,160,136950,2,2,B|288:160,1,90
216,72,137602,2,0,B|312:72,1,90,8|0
384,56,138254,5,2
440,112,138580,1,0
448,192,138906,1,8
440,264,139232,1,0
392,320,139559,1,2
392,320,139885,2,0,B|368:344,2,22.5
352,280,140211,5,8
256,312,140537,1,0
160,280,140863,1,4
208,200,141189,1,0
256,168,141352,1,0
304,200,141515,1,8
256,112,141841,1,8
192,64,142167,6,0,B|128:96,2,45,2|0|0
320,64,142819,2,0,B|384:96,2,45,2|0|0
256,144,143472,1,4
256,248,143798,1,0
256,296,143961,1,0
256,344,144124,1,8
176,304,144450,5,0
336,304,144776,1,2
256,192,145102,2,0,B|296:192,2,22.5
256,240,145428,1,8
256,144,145754,1,0
256,56,146080,1,4
256,192,146406,12,0,148037
256,192,148363,5,0
256,192,148689,1,2
360,112,149015,1,0
360,144,149178,2,0,B|360:272,1,90,2|2
360,264,149667,1,0
224,224,149993,1,4
192,104,150319,5,0
136,280,150645,1,0
320,104,150972,1,0
376,280,151298,1,4
256,192,151461,12,0,153906
248,80,161080,5,0
368,88,161406,1,2
448,184,161732,1,4
424,304,162059,2,2,B|424:336,4,22.5
264,224,162711,5,0
208,208,162874,1,0
152,192,163037,2,2,B|152:232,2,22.5
144,88,163526,1,0
192,64,163689,1,2
320,64,164015,5,0
320,64,164341,2,2,B|416:64,1,90
376,144,164993,2,2,B|488:144,1,90
480,176,165482,2,0,B|496:264|480:336,1,135,2|0
256,320,166298,5,0
208,288,166461,1,2
160,256,166624,1,0
208,224,166787,1,2
256,192,166950,1,0
256,72,167276,2,2,B|256:128,2,45
160,112,167928,2,2,B|160:64,2,45
72,144,168580,1,0
112,224,168906,1,2
192,192,169232,5,2
224,192,169395,1,2
256,192,169559,1,2
256,104,169885,1,0
344,104,170211,1,0
352,192,170537,6,0,B|384:240,1,45,0|2
352,264,170863,2,0,B|384:312,1,45,0|2
368,352,171189,1,0
192,336,171515,2,2,B|160:288,1,45
176,256,171841,2,0,B|152:216,1,45
160,168,172167,5,4
256,64,172493,1,0
256,64,172656,2,0,B|416:64,1,135
424,144,173472,5,0
328,192,173798,2,0,B|304:280|328:376,1,180
248,336,174776,2,0,B|144:336,1,90,2|0
224,256,175428,2,0,B|128:224,1,90,8|0
240,168,176080,1,0
272,80,176406,2,2,B|224:32,2,45,2|2|8
112,64,177059,6,2,B|144:16,2,45
48,144,177711,2,0,B|88:232|48:328,1,180
144,296,178689,1,8
232,336,179015,1,0
312,288,179341,2,0,B|304:240,2,45
400,320,179993,1,4
368,192,180319,5,0
144,192,180645,1,0
368,192,180972,1,0
144,192,181298,1,0
256,64,181624,2,0,B|256:32,2,22.5
256,112,181950,2,0,B|256:224,1,90
72,336,182602,5,4
192,312,182928,1,2
192,280,183091,1,4
320,336,183417,1,2
320,304,183580,1,4
432,296,183906,1,4
256,64,184559,5,0
256,64,184885,1,0
256,64,185211,1,4
80,192,185537,5,0
80,192,185700,1,0
80,192,185863,1,8
112,104,186189,1,8
200,136,186515,2,0,B|264:56,1,90,2|2
336,128,187167,2,0,B|400:32,1,90,8|0
384,192,187819,5,4
288,296,188145,1,2
208,184,188472,1,8
160,208,188635,1,0
112,192,188798,2,0,B|80:96,1,90,2|0
112,64,189287,1,8
168,72,189450,1,0
216,48,189613,1,8
256,72,189776,6,0,B|352:72,1,90,8|0
320,160,190428,2,0,B|432:160,1,90
392,256,191080,2,0,B|496:256,1,90,8|0
336,352,191732,2,0,B|440:352,3,90,0|0|8|0
448,272,193037,5,2
328,272,193363,1,0
200,272,193689,1,8
80,272,194015,1,0
80,272,194341,1,2
80,168,194667,2,2,B|80:128,2,22.5,2|2|0
128,168,194993,5,8
232,168,195319,1,8
280,272,195645,1,4
232,360,195972,1,0
128,360,196298,1,8
80,272,196624,1,0
184,174,196950,6,0,B|184:264,1,90,0|8
214,264,197439,2,0,B|304:264,1,90,2|8
286,224,197928,2,0,B|216:168,1,90,2|8
336,136,198580,5,0
384,128,198743,1,0
432,136,198906,1,8
384,240,199232,1,0
384,336,199559,1,2
272,336,199885,1,2
248,288,200048,1,0
264,240,200211,1,2
256,96,200537,5,0
256,96,200863,1,4
144,120,201189,1,0
144,120,201352,2,0,B|88:184|104:272,1,135
256,96,202167,1,2
368,120,202493,1,0
368,120,202656,2,0,B|424:184|408:272,1,135
256,288,203472,5,2
144,264,203798,1,0
144,264,203961,2,0,B|88:200|104:112,1,135
256,192,204776,1,4
368,296,205102,2,0,B|432:272|480:192|432:112|368:88,1,270,0|4
256,192,206243,12,0,208689
