osu file format v13

[General]
AudioFilename: Elakelaiset - Hulluna humpasta.mp3
AudioLeadIn: 2504
PreviewTime: 8616
Countdown: 0
SampleSet: Soft
StackLeniency: 0.6
Mode: 0
LetterboxInBreaks: 1
WidescreenStoryboard: 0

[Editor]
DistanceSpacing: 1
BeatDivisor: 2
GridSize: 8
TimelineZoom: 1

[Metadata]
Title:Hulluna Humpasta
TitleUnicode:Hulluna Humpasta
Artist:Elakelaiset
ArtistUnicode:Eläkeläiset
Creator:Jako87
Version:Nuorison Humppa
Source:
Tags:Humppa Finnish lepidopodus lepidon
BeatmapID:70563
BeatmapSetID:19937

[Difficulty]
HPDrainRate:5
CircleSize:5
OverallDifficulty:5
ApproachRate:5
SliderMultiplier:0.999999999999999
SliderTickRate:1

[Events]
//Background and Video events
Video,-1400,"humppa.AVI"
0,0,"humppa02.png",0,0
//Break Periods
2,65491,70410
2,114464,124122
//Storyboard Layer 0 (Background)
//Storyboard Layer 1 (Fail)
//Storyboard Layer 2 (Pass)
//Storyboard Layer 3 (Foreground)
//Storyboard Sound Samples

[TimingPoints]
520,394.944707740916,4,2,0,70,1,0
54232,-100,4,2,0,100,0,1
65290,-100,4,2,0,100,0,0
103205,-100,4,2,0,100,0,1
114264,-100,4,2,0,100,0,0
141120,-100,4,2,0,100,0,1
176270,-100,4,2,0,100,0,0

[Colours]
Combo1 : 153,255,255
Combo2 : 0,102,153
Combo3 : 255,204,255
Combo4 : 255,204,0
Combo5 : 255,51,51

[HitObjects]
48,48,2100,5,4,0:0:0:0:
104,64,2494,1,0,0:0:0:0:
160,80,2889,1,4,0:0:0:0:
216,96,3284,1,0,0:0:0:0:
168,136,3679,2,8,B|368:288|512:120|512:120|376:344|168:216,1,799.999999999999
256,192,7036,12,12,8418,0:0:0:0:
48,80,9998,5,4,0:0:0:0:
112,80,10196,1,0,0:0:0:0:
176,80,10393,1,0,0:0:0:0:
128,192,10986,5,0,0:0:0:0:
192,192,11183,1,0,0:0:0:0:
256,192,11381,1,0,0:0:0:0:
176,304,11776,5,0,0:0:0:0:
240,304,11973,1,0,0:0:0:0:
176,224,12368,5,8,0:0:0:0:
112,160,12763,1,8,0:0:0:0:
48,80,13158,5,4,0:0:0:0:
112,80,13355,1,0,0:0:0:0:
176,80,13553,1,0,0:0:0:0:
128,192,14145,5,0,0:0:0:0:
192,192,14343,1,0,0:0:0:0:
256,192,14540,1,0,0:0:0:0:
176,304,14935,5,0,0:0:0:0:
240,304,15133,1,0,0:0:0:0:
176,224,15528,5,8,0:0:0:0:
112,160,15923,1,8,0:0:0:0:
48,80,16318,5,4,0:0:0:0:
112,80,16515,1,0,0:0:0:0:
176,80,16712,1,0,0:0:0:0:
128,192,17305,5,0,0:0:0:0:
192,192,17502,1,0,0:0:0:0:
256,192,17700,1,0,0:0:0:0:
176,304,18095,5,0,0:0:0:0:
240,304,18292,1,0,0:0:0:0:
384,240,18687,6,8,B|288:128|128:128|32:240|32:240|112:64|304:64|384:160,1,799.999999999999
440,192,22241,1,8,0:0:0:0:
448,96,22637,5,12,0:0:0:0:
352,112,23032,1,0,0:0:0:0:
264,168,23427,1,0,0:0:0:0:
192,240,23821,1,0,0:0:0:0:
184,336,24216,1,8,0:0:0:0:
96,48,25796,5,8,0:0:0:0:
192,80,26191,1,0,0:0:0:0:
280,136,26586,1,0,0:0:0:0:
344,216,26981,1,0,0:0:0:0:
360,312,27376,1,8,0:0:0:0:
32,352,28956,5,8,0:0:0:0:
120,312,29350,1,0,0:0:0:0:
200,256,29745,1,0,0:0:0:0:
272,184,30140,1,0,0:0:0:0:
336,104,30536,1,8,0:0:0:0:
360,8,30930,2,0,B|328:8|272:40|280:88,1,99.9999999999999
256,160,31720,5,0,0:0:0:0:
256,160,32510,1,0,0:0:0:0:
256,160,33300,1,0,0:0:0:0:
256,160,33695,1,0,0:0:0:0:
168,216,34090,2,4,B|96:248|80:168|80:168,1,99.9999999999999
152,72,35275,5,4,0:0:0:0:
128,168,35670,1,0,0:0:0:0:
208,240,36065,1,0,0:0:0:0:
304,264,36459,1,0,0:0:0:0:
336,360,36854,1,8,0:0:0:0:
408,288,37249,2,0,B|408:232|376:208|312:200,1,99.9999999999999
160,192,38434,5,8,0:0:0:0:
216,104,38829,1,0,0:0:0:0:
312,72,39224,1,0,0:0:0:0:
400,120,39619,1,0,0:0:0:0:
384,216,40014,2,0,B|360:240|312:240|288:216,2,99.9999999999999,8|0|0,0:0|0:0|0:0,0:0:0:0:
400,344,41594,5,8,0:0:0:0:
304,312,41989,1,0,0:0:0:0:
216,272,42384,1,8,0:0:0:0:
136,208,42779,1,0,0:0:0:0:
112,112,43174,1,8,0:0:0:0:
296,200,43963,5,8,0:0:0:0:
296,200,44754,1,8,0:0:0:0:
296,200,45543,1,8,0:0:0:0:
296,200,45938,1,4,0:0:0:0:
200,232,46333,2,12,B|64:240|0:128,1,200,8|4,0:0|0:0,0:0:0:0:
136,200,47913,5,4,0:0:0:0:
176,168,48111,1,0,0:0:0:0:
216,200,48308,1,0,0:0:0:0:
256,168,48506,1,0,0:0:0:0:
296,200,48703,1,0,0:0:0:0:
336,168,48900,1,0,0:0:0:0:
376,200,49098,1,0,0:0:0:0:
352,296,49493,5,8,0:0:0:0:
160,296,50283,1,8,0:0:0:0:
136,96,51073,5,4,0:0:0:0:
176,128,51270,1,0,0:0:0:0:
216,160,51468,1,0,0:0:0:0:
256,128,51665,1,0,0:0:0:0:
296,160,51863,1,0,0:0:0:0:
336,128,52060,1,0,0:0:0:0:
376,96,52257,1,0,0:0:0:0:
352,192,52652,5,8,0:0:0:0:
160,192,53442,1,8,0:0:0:0:
336,272,54232,5,12,0:0:0:0:
336,368,54627,1,0,0:0:0:0:
432,368,55022,1,8,0:0:0:0:
432,272,55417,1,0,0:0:0:0:
432,176,55812,2,4,B|340:105|240:162,1,200
240,256,56997,1,0,0:0:0:0:
192,208,57392,5,8,0:0:0:0:
144,160,57787,1,0,0:0:0:0:
240,160,58182,1,8,0:0:0:0:
240,256,58577,1,0,0:0:0:0:
144,256,58972,2,4,B|120:304|120:304|96:352|160:352|160:352|240:352,1,200
304,304,60551,5,8,0:0:0:0:
256,288,60749,1,0,0:0:0:0:
288,256,60946,1,8,0:0:0:0:
336,272,61144,1,0,0:0:0:0:
320,224,61341,1,8,0:0:0:0:
272,208,61539,1,0,0:0:0:0:
240,240,61736,1,12,0:0:0:0:
128,144,62131,5,8,0:0:0:0:
160,104,62329,1,0,0:0:0:0:
112,96,62526,1,8,0:0:0:0:
144,56,62724,1,0,0:0:0:0:
96,48,62921,1,8,0:0:0:0:
64,80,63118,1,0,0:0:0:0:
80,128,63316,1,12,0:0:0:0:
256,192,63711,12,12,65291,0:0:0:0:
128,128,71610,5,4,0:0:0:0:
176,216,72004,1,0,0:0:0:0:
256,280,72400,1,0,0:0:0:0:
352,280,72795,1,0,0:0:0:0:
432,216,73189,1,8,0:0:0:0:
432,216,73979,1,0,0:0:0:0:
288,240,74769,6,8,B|400:256|320:128|320:128|192:128|192:128|112:256|256:240|256:240|256:320|256:320|200:320|184:336|184:336|344:336,1,799.999999999999,12|12,0:0|0:0,0:0:0:0:
416,280,78324,5,0,0:0:0:0:
392,184,78719,1,0,0:0:0:0:
320,120,79113,1,0,0:0:0:0:
328,216,79508,1,8,0:0:0:0:
328,216,80298,1,0,0:0:0:0:
208,304,81088,5,8,0:0:0:0:
240,264,81286,1,0,0:0:0:0:
272,304,81483,1,8,0:0:0:0:
304,264,81681,1,0,0:0:0:0:
336,304,81878,1,8,0:0:0:0:
368,264,82076,1,0,0:0:0:0:
432,192,82471,2,4,B|320:96|200:192|200:192,1,250,8|12,0:0|0:0,0:0:0:0:
112,160,84248,5,12,0:0:0:0:
176,80,84643,1,0,0:0:0:0:
280,80,85038,1,0,0:0:0:0:
344,160,85433,1,0,0:0:0:0:
264,224,85828,2,8,B|232:80|392:40|456:168,1,300,8|0,0:0|0:0,0:0:0:0:
384,224,87407,5,8,0:0:0:0:
352,256,87604,1,0,0:0:0:0:
304,272,87801,1,0,0:0:0:0:
256,272,87999,1,0,0:0:0:0:
208,264,88196,1,0,0:0:0:0:
160,248,88395,1,0,0:0:0:0:
80,184,88790,2,12,B|80:40|248:40,1,250,12|12,0:0|0:0,0:0:0:0:
24,120,90567,5,12,0:0:0:0:
72,136,90765,1,0,0:0:0:0:
112,160,90962,1,0,0:0:0:0:
144,200,91160,1,0,0:0:0:0:
152,248,91357,1,0,0:0:0:0:
216,320,91752,1,0,0:0:0:0:
280,248,92147,2,0,B|368:104|312:48|312:48,1,200,8|0,0:0|0:0,0:0:0:0:
128,96,93727,5,8,0:0:0:0:
160,128,93924,1,0,0:0:0:0:
192,160,94122,1,8,0:0:0:0:
232,192,94319,1,0,0:0:0:0:
280,208,94517,1,8,0:0:0:0:
360,264,94912,1,8,0:0:0:0:
264,280,95306,2,4,B|392:232|328:120,1,200
208,144,96886,5,12,0:0:0:0:
240,112,97084,1,0,0:0:0:0:
272,80,97281,1,0,0:0:0:0:
304,48,97479,1,0,0:0:0:0:
352,32,97676,1,8,0:0:0:0:
400,32,97874,1,0,0:0:0:0:
448,48,98071,1,0,0:0:0:0:
464,96,98269,1,0,0:0:0:0:
424,120,98466,2,0,P|352:144|424:168,1,200,8|8,0:0|0:0,0:0:0:0:
352,272,100046,5,8,0:0:0:0:
304,256,100243,1,0,0:0:0:0:
256,240,100441,1,0,0:0:0:0:
208,240,100638,1,0,0:0:0:0:
160,240,100836,1,8,0:0:0:0:
120,208,101033,1,0,0:0:0:0:
88,176,101231,1,0,0:0:0:0:
64,128,101428,1,0,0:0:0:0:
72,80,101625,2,0,P|208:24|344:80,1,300,8|4,0:0|0:0,0:0:0:0:
408,160,103205,5,12,0:0:0:0:
352,240,103600,1,0,0:0:0:0:
248,240,103995,1,8,0:0:0:0:
192,152,104390,1,0,0:0:0:0:
192,48,104785,2,4,B|256:48|256:48|312:48|288:96|288:96|240:176,1,200
400,208,106365,5,12,0:0:0:0:
360,296,106760,1,0,0:0:0:0:
256,296,107155,1,8,0:0:0:0:
152,296,107550,1,0,0:0:0:0:
152,200,107945,2,0,B|152:136|152:136|152:80|200:104|200:104|264:136,1,200,4|4,0:0|0:0,0:0:0:0:
256,192,109524,12,0,112289,0:0:0:0:
208,240,112684,5,12,0:0:0:0:
208,144,113079,1,8,0:0:0:0:
304,144,113474,1,12,0:0:0:0:
304,240,113869,1,8,0:0:0:0:
256,192,114264,1,12,0:0:0:0:
256,192,125322,12,0,126507,0:0:0:0:
200,176,126902,6,2,B|32:344|304:312,1,300,10|10,0:0|0:0,0:0:0:0:
368,256,128482,2,2,B|240:312|256:48|104:104,1,300,10|10,0:0|0:0,0:0:0:0:
128,192,130061,2,2,B|288:336|400:176,1,300,10|10,0:0|0:0,0:0:0:0:
344,104,131641,2,2,B|192:104|336:296|104:296,1,300,10|10,0:0|0:0,0:0:0:0:
96,208,133221,2,2,B|272:40|328:264,1,300,10|10,0:0|0:0,0:0:0:0:
416,264,134801,2,2,C|448:192|384:192|400:112|304:112,1,300,10|10,0:0|0:0,0:0:0:0:
240,64,136381,2,2,L|192:64|192:144|256:144|256:216|328:216,1,300,10|10,0:0|0:0,0:0:0:0:
392,216,137960,2,2,B|328:216|328:280|328:280|328:328|280:328|280:328|248:328|248:328|208:328|208:280|208:280|208:256,1,300,10|10,0:0|0:0,0:0:0:0:
208,184,139540,5,0,0:0:0:0:
136,184,139935,1,0,0:0:0:0:
64,184,140330,1,0,0:0:0:0:
64,112,140725,1,12,0:0:0:0:
136,112,141120,6,8,B|288:-24|504:112,1,400,8|8,0:0|0:0,0:0:0:0:
464,208,143095,1,0,0:0:0:0:
384,264,143489,1,0,0:0:0:0:
288,280,143884,1,0,0:0:0:0:
192,240,144279,6,0,P|280:96|328:256,1,400,8|8,0:0|0:0,0:0:0:0:
268,187,146254,1,0,0:0:0:0:
268,187,146649,1,0,0:0:0:0:
268,187,147044,1,0,0:0:0:0:
168,192,147439,6,0,L|96:112,1,99.9999999999999,8|0,0:0|0:0,0:0:0:0:
160,40,148229,2,0,L|232:136,1,99.9999999999999,0|0,0:0|0:0,0:0:0:0:
264,32,149019,2,0,L|208:136,1,99.9999999999999,8|0,0:0|0:0,0:0:0:0:
288,192,149809,1,0,0:0:0:0:
320,192,150006,1,0,0:0:0:0:
352,192,150204,1,0,0:0:0:0:
352,224,150401,1,0,0:0:0:0:
352,256,150599,6,0,B|384:256|384:256|424:256|416:200|416:200|408:144|408:144|400:88|352:88|352:88|296:88,1,300,8|0,0:0|0:0,0:0:0:0:
248,8,152178,6,0,B|225:30|225:30|157:98|225:166|225:166|248:189|248:189|315:256|248:324|248:324|225:347,1,400,8|12,0:0|0:0,0:0:0:0:
136,344,154153,1,0,0:0:0:0:
40,344,154548,1,8,0:0:0:0:
40,248,154943,1,0,0:0:0:0:
64,152,155338,6,4,B|152:-80|240:152,1,300
256,248,156918,5,8,0:0:0:0:
256,144,157313,1,0,0:0:0:0:
344,200,157708,1,8,0:0:0:0:
440,200,158103,1,0,0:0:0:0:
352,152,158497,6,4,B|264:-80|176:152,1,300
256,192,160077,12,4,161262,0:0:0:0:
160,192,161657,6,4,B|112:320|272:304,1,200
256,192,163237,12,4,164422,0:0:0:0:
336,192,164817,6,4,B|448:112|336:16,1,200
272,96,166396,5,8,0:0:0:0:
256,48,166594,1,0,0:0:0:0:
208,48,166791,1,8,0:0:0:0:
224,96,166989,1,0,0:0:0:0:
176,80,167186,1,8,0:0:0:0:
192,128,167384,1,0,0:0:0:0:
240,144,167581,1,12,0:0:0:0:
176,256,167976,5,8,0:0:0:0:
144,288,168174,1,0,0:0:0:0:
128,240,168371,1,8,0:0:0:0:
160,208,168569,1,0,0:0:0:0:
112,192,168766,1,8,0:0:0:0:
80,224,168964,1,0,0:0:0:0:
96,272,169161,1,12,0:0:0:0:
160,352,169556,6,12,B|408:320|216:136,1,300
144,152,171136,2,12,B|32:208|96:320|264:264,1,300
240,352,172715,2,12,B|192:352|192:352|160:352|160:320|160:320|160:192|160:192|160:96|224:176|224:16|224:16|288:16|288:16|288:176|352:96|352:192|352:192|352:320|352:320|352:352|320:352|320:352|272:352,1,899.999999999999
