osu file format v14

[General]
AudioFilename: optc.mp3
AudioLeadIn: 0
PreviewTime: 54998
Countdown: 0
SampleSet: Soft
StackLeniency: 0.4
Mode: 0
LetterboxInBreaks: 0
WidescreenStoryboard: 0

[Editor]
Bookmarks: 9637,15420,26986,38553,55902,67468,81926
DistanceSpacing: 1.3
BeatDivisor: 4
GridSize: 32
TimelineZoom: 1.6

[Metadata]
Title:Cynthia No Hikari
TitleUnicode:シンシアの光
Artist:Eir Aoi
ArtistUnicode:藍井エイル
Creator:Shad0w1and
Version:Pata-Mon's Hyper
Source:ソードアート・オンライン -ロスト・ソング-
Tags:Sword Art Online Lost Song SAO Lami intoon Kencho Doormat Misure Pata-Mon
BeatmapID:1324563
BeatmapSetID:504005

[Difficulty]
HPDrainRate:5
CircleSize:3.6
OverallDifficulty:6.5
ApproachRate:8
SliderMultiplier:1.6
SliderTickRate:1

[Events]
//Background and Video events
0,0,"BG6.jpg",0,0
Video,0,"optc.flv"
//Break Periods
//Storyboard Layer 0 (Background)
//Storyboard Layer 1 (Fail)
//Storyboard Layer 2 (Pass)
//Storyboard Layer 3 (Foreground)
//Storyboard Sound Samples

[TimingPoints]
-483,361.44578313253,4,2,1,40,1,0
962,-166.666666666667,4,2,1,40,0,0
8010,-166.666666666667,4,2,1,5,0,0
8191,-166.666666666667,4,2,1,20,0,0
9276,-125,4,2,1,50,0,0
9637,-100,4,2,1,80,0,0
14697,-100,4,2,1,60,0,0
15420,-125,4,2,1,60,0,0
26986,-111.111111111111,4,2,1,70,0,0
37649,-111.111111111111,4,2,1,60,0,0
38553,-100,4,2,1,80,0,0
39456,-100,4,2,1,60,0,0
39818,-100,4,2,1,80,0,0
43432,-100,4,2,1,60,0,0
44336,-100,4,2,1,80,0,0
51745,-100,4,2,1,60,0,0
52649,-100,4,2,1,80,0,0
55902,-100,4,2,1,80,0,1
66745,-100,4,2,1,60,0,1
67468,-100,4,2,1,80,0,1
80480,-100,4,2,1,80,0,0
81926,-100,4,2,1,80,0,1
86806,-100,4,2,1,60,0,1
87709,-100,4,2,1,80,0,0
93492,-100,4,2,1,5,0,0

[Colours]
Combo1 : 255,238,119
Combo2 : 60,247,153
Combo3 : 79,109,255
Combo4 : 245,82,106

[HitObjects]
172,300,962,6,0,P|182:254|216:221,1,95.9999970703126,2|0,0:0|0:0,0:0:0:0:
302,221,1504,2,0,P|344:279|318:359,1,95.9999970703126,2|0,0:0|0:0,0:0:0:0:
259,296,2047,2,0,L|259:344,1,47.9999985351563,2|0,0:0|0:0,0:0:0:0:
216,221,2408,6,0,P|207:170|218:97,1,95.9999970703126,2|0,0:0|0:0,0:0:0:0:
243,46,2950,1,0,0:0:0:0:
325,20,3131,2,0,L|406:25,1,47.9999985351563,2|0,0:0|0:0,0:0:0:0:
443,73,3492,2,0,L|524:68,1,47.9999985351563,2|0,0:0|0:0,0:0:0:0:
373,23,3854,6,0,P|359:71|376:127,1,95.9999970703126,2|0,0:0|0:0,0:0:0:0:
443,160,4396,2,0,P|452:206|438:251,2,95.9999970703126,2|2|0,0:0|0:0|0:0,0:0:0:0:
271,198,5300,6,0,L|367:201,1,95.9999970703126,2|0,0:0|0:0,0:0:0:0:
219,128,5842,2,0,L|123:131,1,95.9999970703126,2|0,0:0|0:0,0:0:0:0:
271,58,6384,2,0,L|319:59,1,47.9999985351563,2|0,0:0|0:0,0:0:0:0:
219,128,6745,6,0,P|339:193|318:59,1,335.999989746094,2|0,0:0|0:0,0:0:0:0:
234,42,8191,2,0,L|226:2,8,23.9999992675781,2|2|2|2|2|2|2|2|2,0:0|0:0|0:0|0:0|0:0|0:0|0:0|0:0|0:0,0:0:0:0:
197,204,9276,6,0,L|236:200,1,32,2|0,0:0|0:0,0:0:0:0:
264,228,9456,2,0,L|303:232,1,32,2|0,0:0|0:0,0:0:0:0:
331,204,9637,6,0,P|339:167|340:98,1,80,6|4,0:0|0:0,0:0:0:0:
287,55,9998,2,0,L|152:61,1,120,10|0,0:0|0:0,0:0:0:0:
132,88,10360,2,0,P|124:125|123:194,1,80,6|4,0:0|0:0,0:0:0:0:
207,141,10721,1,10,0:0:0:0:
57,35,10902,6,0,P|40:113|35:192,1,160,6|4,0:0|0:0,0:0:0:0:
141,338,11444,2,0,P|141:293|131:248,1,80,10|0,0:0|0:0,0:0:0:0:
119,216,11715,1,8,0:0:0:0:
119,216,11806,1,6,0:0:0:0:
59,381,11986,1,6,0:0:0:0:
232,351,12167,1,10,0:0:0:0:
232,351,12529,6,0,L|324:355,1,80,6|4,0:0|0:0,0:0:0:0:
512,255,12890,2,0,L|389:261,1,120,10|8,0:0|0:0,0:0:0:0:
351,276,13251,1,6,0:0:0:0:
400,349,13432,1,6,0:0:0:0:
302,203,13613,1,10,0:0:0:0:
246,369,13794,6,0,P|324:377|400:349,1,160,6|4,0:0|0:0,0:0:0:0:
342,203,14336,2,0,P|303:203|264:212,1,80,10|0,0:0|0:0,0:0:0:0:
215,286,14697,2,0,L|171:281,3,40,6|8|8|8,0:0|0:0|0:0|0:0,0:0:0:0:
145,314,15059,2,0,L|101:319,3,40,6|8|8|8,0:0|0:0|0:0|0:0,0:0:0:0:
97,277,15420,6,0,P|80:234|79:137,1,128,4|4,0:0|0:0,0:0:0:0:
100,73,15962,1,0,0:0:0:0:
177,103,16143,2,0,P|221:112|318:98,1,128,4|4,0:0|0:0,0:0:0:0:
381,73,16685,1,0,0:0:0:0:
405,153,16866,6,0,P|404:216|383:276,1,128,4|4,0:0|0:0,0:0:0:0:
325,337,17408,1,0,0:0:0:0:
268,276,17589,2,0,P|251:233|250:136,1,128,4|4,0:0|0:0,0:0:0:0:
437,87,18312,6,0,L|281:101,1,128,4|4,0:0|0:0,0:0:0:0:
246,152,18854,1,0,0:0:0:0:
182,98,19035,2,0,L|26:84,1,128,4|4,0:0|0:0,0:0:0:0:
4,20,19577,1,0,0:0:0:0:
54,87,19757,6,0,P|56:168|29:219,2,128,4|4|4,0:0|0:0|0:0,0:0:0:0:
4,20,20661,1,0,0:0:0:0:
4,20,20842,1,4,0:0:0:0:
36,209,21203,6,0,P|99:208|161:193,1,128,4|4,0:0|0:0,0:0:0:0:
230,145,21745,1,0,0:0:0:0:
298,192,21926,2,0,P|360:207|423:208,1,128,4|4,0:0|0:0,0:0:0:0:
505,188,22468,1,0,0:0:0:0:
424,208,22649,6,0,P|408:266|413:376,2,128,4|4|4,0:0|0:0|0:0,0:0:0:0:
505,188,23553,1,0,0:0:0:0:
505,188,23733,1,4,0:0:0:0:
302,33,24095,6,4,P|238:22|146:20,2,128
442,123,25179,2,0,L|528:114,1,64,4|0,0:0|0:0,0:0:0:0:
372,78,25541,6,0,P|366:157|392:190,1,64,4|0,0:0|0:0,0:0:0:0:
301,270,25902,2,0,P|307:191|281:158,1,64,8|8,0:0|0:0,0:0:0:0:
284,177,26173,1,8,0:0:0:0:
284,177,26263,2,0,L|232:172,3,32,8|8|8|8,0:0|0:0|0:0|0:0,0:0:0:0:
217,151,26625,2,0,L|165:156,3,32,8|8|8|8,0:0|0:0|0:0|0:0,0:0:0:0:
154,184,26986,6,0,L|161:285,1,71.9999978027344,6|0,0:0|0:0,0:0:0:0:
83,129,27348,2,0,L|90:28,1,71.9999978027344,10|0,0:0|0:0,0:0:0:0:
163,14,27709,2,0,P|202:14|267:32,1,71.9999978027344,6|0,0:0|0:0,0:0:0:0:
361,83,28071,1,10,0:0:0:0:
276,96,28251,6,0,P|258:126|251:163,1,71.9999978027344,2|4,0:0|0:0,0:0:0:0:
305,230,28613,2,0,P|340:230|376:218,1,71.9999978027344,2|8,0:0|0:0,0:0:0:0:
405,138,28974,2,0,P|387:107|359:82,1,71.9999978027344,2|4,0:0|0:0,0:0:0:0:
276,96,29336,1,2,0:0:0:0:
405,8,29516,1,8,0:0:0:0:
405,8,29878,6,0,L|505:3,1,71.9999978027344,6|0,0:0|0:0,0:0:0:0:
360,83,30239,2,0,L|260:78,1,71.9999978027344,10|0,0:0|0:0,0:0:0:0:
221,23,30601,2,0,L|121:28,1,71.9999978027344,6|0,0:0|0:0,0:0:0:0:
8,34,30962,1,10,0:0:0:0:
81,80,31143,6,0,P|90:117|86:175,1,71.9999978027344,2|4,0:0|0:0,0:0:0:0:
174,124,31504,2,0,P|173:162|154:217,1,71.9999978027344,2|8,0:0|0:0,0:0:0:0:
252,190,31866,2,0,P|242:226|208:274,1,71.9999978027344,2|4,0:0|0:0,0:0:0:0:
141,279,32227,1,2,0:0:0:0:
274,326,32408,1,8,0:0:0:0:
274,326,32770,6,0,L|366:331,1,71.9999978027344,6|0,0:0|0:0,0:0:0:0:
476,262,33131,2,0,L|384:267,1,71.9999978027344,10|0,0:0|0:0,0:0:0:0:
345,203,33492,1,6,0:0:0:0:
345,203,33673,2,0,L|253:208,1,71.9999978027344,2|8,0:0|0:0,0:0:0:0:
194,244,34035,6,0,L|102:249,1,71.9999978027344,2|4,0:0|0:0,0:0:0:0:
43,285,34396,1,2,0:0:0:0:
130,162,34577,2,0,L|222:157,1,71.9999978027344,10|0,0:0|0:0,0:0:0:0:
273,207,34938,2,0,L|365:212,1,71.9999978027344,6|0,0:0|0:0,0:0:0:0:
202,158,35300,1,10,0:0:0:0:
202,158,35661,6,0,L|110:163,1,71.9999978027344,6|0,0:0|0:0,0:0:0:0:
259,49,36023,2,0,L|351:44,1,71.9999978027344,10|0,0:0|0:0,0:0:0:0:
176,75,36384,2,0,L|171:-17,1,71.9999978027344,6|0,0:0|0:0,0:0:0:0:
285,132,36745,2,0,L|290:224,1,71.9999978027344,10|0,0:0|0:0,0:0:0:0:
259,49,37107,6,0,L|443:39,1,143.999995605469,6|8,0:0|0:0,0:0:0:0:
486,78,37649,1,2,0:0:0:0:
486,78,37739,1,2,0:0:0:0:
486,78,37830,2,0,L|483:140,3,35.9999989013672,10|8|8|8,0:0|0:0|0:0|0:0,0:0:0:0:
447,136,38191,2,0,L|450:198,3,35.9999989013672,10|8|8|8,0:0|0:0|0:0|0:0,0:0:0:0:
484,197,38553,5,6,0:0:0:0:
400,61,38733,1,6,0:0:0:0:
325,202,38914,1,6,0:0:0:0:
325,202,39276,5,6,0:0:0:0:
400,156,39456,2,0,L|434:135,3,40,8|8|8|8,0:0|0:0|0:0|0:0,0:0:0:0:
465,165,39818,6,0,P|468:222|419:313,1,160,6|4,0:0|0:0,0:0:0:0:
260,275,40360,2,0,P|306:273|373:287,1,80,10|0,0:0|0:0,0:0:0:0:
218,352,40721,1,6,0:0:0:0:
218,352,40902,1,4,0:0:0:0:
214,200,41083,2,0,P|254:194|324:197,1,80,10|4,0:0|0:0,0:0:0:0:
172,277,41444,5,6,0:0:0:0:
161,129,41625,1,6,0:0:0:0:
293,194,41806,1,6,0:0:0:0:
293,194,42167,6,0,P|253:200|183:197,2,80,6|0|0,0:0|0:0|0:0,0:0:0:0:
161,129,42709,6,0,P|161:272|261:275,1,160,10|0,0:0|0:0,0:0:0:0:
312,318,43251,1,10,0:0:0:0:
243,262,43432,1,8,0:0:0:0:
243,262,43523,1,8,0:0:0:0:
243,262,43613,2,0,L|225:334,3,40,8|8|8|8,0:0|0:0|0:0|0:0,0:0:0:0:
199,329,43974,2,0,L|181:401,3,40,8|8|8|8,0:0|0:0|0:0|0:0,0:0:0:0:
145,375,44336,6,0,P|26:316|67:218,1,160,6|8,0:0|0:0,0:0:0:0:
111,134,44878,1,2,0:0:0:0:
111,134,44968,1,8,0:0:0:0:
111,134,45059,2,0,L|111:294,1,160,6|8,0:0|0:0,0:0:0:0:
145,375,45601,1,2,0:0:0:0:
282,258,45782,6,0,L|282:98,1,160,6|8,0:0|0:0,0:0:0:0:
196,270,46324,1,2,0:0:0:0:
196,270,46414,1,8,0:0:0:0:
196,270,46504,2,0,P|240:333|317:338,1,160,6|8,0:0|0:0,0:0:0:0:
369,265,47047,1,2,0:0:0:0:
282,98,47227,6,0,L|282:258,1,160,6|8,0:0|0:0,0:0:0:0:
415,351,47770,1,2,0:0:0:0:
415,351,47860,1,8,0:0:0:0:
415,351,47950,2,0,L|415:191,1,160,6|8,0:0|0:0,0:0:0:0:
415,102,48492,1,2,0:0:0:0:
199,147,48673,6,0,P|327:159|356:79,1,160,6|8,0:0|0:0,0:0:0:0:
124,102,49215,1,2,0:0:0:0:
124,102,49306,1,8,0:0:0:0:
124,102,49396,1,4,0:0:0:0:
179,246,49577,1,2,0:0:0:0:
269,93,49757,2,0,P|262:57|229:1,1,80,10|0,0:0|0:0,0:0:0:0:
91,258,50119,6,0,P|100:180|123:104,1,160,6|8,0:0|0:0,0:0:0:0:
363,102,50661,1,2,0:0:0:0:
363,102,50751,1,8,0:0:0:0:
363,102,50842,2,0,P|386:178|395:257,1,160,6|8,0:0|0:0,0:0:0:0:
391,345,51384,1,0,0:0:0:0:
233,293,51565,5,6,0:0:0:0:
314,260,51745,2,0,P|321:289|316:320,1,40,10|8,0:0|0:0,0:0:0:0:
306,341,51926,2,0,P|265:375|246:380,1,40,10|8,0:0|0:0,0:0:0:0:
235,381,52107,2,0,P|197:374|168:352,1,40,10|8,0:0|0:0,0:0:0:0:
155,356,52288,6,0,L|104:373,3,40,6|4|4|4,0:0|0:0|0:0|0:0,0:0:0:0:
74,357,52649,2,0,L|68:246,1,80,8|4,0:0|0:0,0:0:0:0:
138,59,53010,6,0,L|132:170,1,80,14|0,0:0|0:0,0:0:0:0:
322,235,53372,2,0,L|328:124,1,80,14|0,0:0|0:0,0:0:0:0:
205,311,53733,5,14,0:0:0:0:
334,245,53914,2,0,L|340:134,1,80,14|0,0:0|0:0,0:0:0:0:
138,59,54276,6,0,L|132:170,1,80,14|0,0:0|0:0,0:0:0:0:
346,255,54637,2,0,L|352:144,1,80,14|0,0:0|0:0,0:0:0:0:
350,175,55902,6,0,P|284:194|188:189,1,160,6|8,0:0|0:0,0:0:0:0:
105,141,56444,2,0,L|111:240,1,80,2|4,0:0|0:0,0:0:0:0:
117,309,56806,1,2,0:0:0:0:
17,241,56986,2,0,L|23:142,1,80,10|0,0:0|0:0,0:0:0:0:
269,217,57348,6,0,P|199:225|97:219,1,160,6|8,0:0|0:0,0:0:0:0:
20,210,57890,1,2,0:0:0:0:
79,61,58071,2,0,P|79:113|63:179,1,80,6|0,0:0|0:0,0:0:0:0:
55,291,58432,1,10,0:0:0:0:
20,210,58613,1,2,0:0:0:0:
142,303,58794,6,0,P|219:304|373:278,1,160,6|8,0:0|0:0,0:0:0:0:
370,240,59336,2,0,L|513:253,1,80,2|4,0:0|0:0,0:0:0:0:
288,208,59697,2,0,L|273:118,1,80,2|8,0:0|0:0,0:0:0:0:
301,295,60059,1,2,0:0:0:0:
191,156,60239,6,0,P|243:47|337:67,1,160,6|8,0:0|0:0,0:0:0:0:
288,208,60782,2,0,L|273:118,1,80,2|4,0:0|0:0,0:0:0:0:
348,80,61143,1,2,0:0:0:0:
190,106,61324,2,0,P|150:105|75:80,1,80,10|0,0:0|0:0,0:0:0:0:
288,208,61685,6,0,P|363:206|499:172,1,160,6|8,0:0|0:0,0:0:0:0:
202,193,62227,2,0,P|195:233|196:317,1,80,2|4,0:0|0:0,0:0:0:0:
258,125,62589,2,0,P|255:85|248:45,1,80,2|8,0:0|0:0,0:0:0:0:
131,141,62950,1,2,0:0:0:0:
288,208,63131,6,0,P|334:208|394:200,1,80,6|0,0:0|0:0,0:0:0:0:
457,63,63492,2,0,P|433:102|410:158,1,80,10|0,0:0|0:0,0:0:0:0:
499,282,63854,2,0,P|476:242|439:194,1,80,6|0,0:0|0:0,0:0:0:0:
331,124,64215,1,10,0:0:0:0:
288,208,64396,1,4,0:0:0:0:
288,208,64486,1,4,0:0:0:0:
288,208,64577,6,0,P|334:208|394:200,1,80,6|0,0:0|0:0,0:0:0:0:
288,40,64938,5,10,0:0:0:0:
200,49,65119,1,4,0:0:0:0:
331,124,65300,5,10,0:0:0:0:
419,133,65480,1,4,0:0:0:0:
288,208,65661,5,10,0:0:0:0:
200,217,65842,1,4,0:0:0:0:
331,292,66023,6,0,L|375:296,3,40,10|8|4|4,0:0|0:0|0:0|0:0,0:0:0:0:
411,279,66384,1,10,0:0:0:0:
200,217,66565,2,0,L|112:226,1,80,10|4,0:0|0:0,0:0:0:0:
76,232,66836,1,4,0:0:0:0:
76,232,66926,6,0,L|28:197,1,40,10|8,0:0|0:0,0:0:0:0:
40,164,67107,2,0,L|15:109,1,40,10|8,2:0|2:0,2:0:0:0:
42,87,67288,2,0,L|48:27,1,40,10|8,2:0|2:0,2:0:0:0:
82,21,67468,6,0,P|167:21|260:35,1,160,6|8,2:0|2:0,2:0:0:0:
388,78,68010,2,0,P|348:85|308:88,2,80,2|4|0,0:0|0:0|0:0,0:0:0:0:
241,31,68553,1,10,0:0:0:0:
225,118,68733,1,2,0:0:0:0:
388,78,68914,6,0,P|497:121|499:199,1,160,6|8,0:0|0:0,0:0:0:0:
471,232,69456,1,2,0:0:0:0:
339,172,69637,2,0,P|376:166|425:161,1,80,6|0,0:0|0:0,0:0:0:0:
262,214,69998,1,10,0:0:0:0:
264,126,70179,1,2,0:0:0:0:
337,260,70360,6,0,P|243:300|174:214,1,160,6|8,0:0|0:0,0:0:0:0:
262,214,70902,1,2,0:0:0:0:
424,255,71083,2,0,P|430:295|434:378,1,80,6|0,0:0|0:0,0:0:0:0:
262,214,71444,2,0,P|265:174|272:134,1,80,10|0,0:0|0:0,0:0:0:0:
307,345,71806,6,0,P|235:346|75:324,1,160,6|8,0:0|0:0,0:0:0:0:
61,316,72348,1,2,0:0:0:0:
83,230,72529,1,6,0:0:0:0:
83,230,72619,2,0,P|79:184|72:133,1,80,10|0,0:0|0:0,0:0:0:0:
43,119,72890,2,0,P|46:73|54:22,1,80,10|0,0:0|0:0,0:0:0:0:
233,106,73251,6,0,L|154:110,1,80,6|0,0:0|0:0,0:0:0:0:
292,171,73613,2,0,L|371:175,1,80,10|0,0:0|0:0,0:0:0:0:
233,106,73974,1,6,0:0:0:0:
265,255,74155,2,0,L|344:259,1,80,2|8,0:0|0:0,0:0:0:0:
206,190,74516,1,2,0:0:0:0:
238,339,74697,6,0,L|317:343,1,80,6|0,0:0|0:0,0:0:0:0:
206,190,75059,1,8,0:0:0:0:
179,274,75239,1,2,0:0:0:0:
233,106,75420,2,0,L|193:104,3,40,6|8|8|8,0:0|0:0|0:0|0:0,0:0:0:0:
157,78,75782,2,0,L|78:82,1,80,6|0,0:0|0:0,0:0:0:0:
159,266,76143,6,0,L|152:186,1,80,14|0,0:0|0:0,0:0:0:0:
237,34,76504,2,0,L|243:113,1,80,14|0,0:0|0:0,0:0:0:0:
316,290,76866,2,0,L|309:210,1,80,14|0,0:0|0:0,0:0:0:0:
394,58,77227,2,0,L|400:137,1,80,14|0,0:0|0:0,0:0:0:0:
200,93,77589,6,0,L|303:96,1,80,14|0,0:0|0:0,0:0:0:0:
400,138,77950,2,0,L|503:141,1,80,14|0,0:0|0:0,0:0:0:0:
229,208,78312,2,0,L|332:211,1,80,14|0,0:0|0:0,0:0:0:0:
429,253,78673,2,0,L|532:256,1,80,14|0,0:0|0:0,0:0:0:0:
331,105,79035,5,6,0:0:0:0:
341,313,79215,1,10,0:0:0:0:
456,139,79396,1,10,0:0:0:0:
261,212,79577,1,10,0:0:0:0:
461,267,79757,2,0,L|512:268,3,40,6|8|8|8,0:0|0:0|0:0|0:0,0:0:0:0:
455,315,80119,2,0,L|506:316,3,40,10|8|8|8,0:0|0:0|0:0|0:0,0:0:0:0:
449,363,80480,5,10,0:0:0:0:
418,367,81926,6,0,P|408:309|410:263,1,80,6|4,0:0|0:0,0:0:0:0:
471,99,82288,2,0,P|468:159|463:219,1,120,10|8,0:0|0:0,0:0:0:0:
423,201,82649,2,0,P|344:227|321:271,1,80,6|4,0:0|0:0,0:0:0:0:
496,300,83010,1,10,0:0:0:0:
471,99,83191,6,0,P|393:101|306:122,1,160,6|4,0:0|0:0,0:0:0:0:
153,188,83733,2,0,P|200:196|244:198,1,80,10|0,0:0|0:0,0:0:0:0:
276,199,84004,1,8,0:0:0:0:
276,199,84095,1,6,0:0:0:0:
313,120,84276,1,6,0:0:0:0:
239,278,84456,1,10,0:0:0:0:
239,278,84818,6,0,L|325:281,1,80,6|4,0:0|0:0,0:0:0:0:
178,214,85179,2,0,P|153:296|184:347,1,120,10|8,0:0|0:0,0:0:0:0:
197,355,85541,1,6,0:0:0:0:
239,278,85721,1,6,0:0:0:0:
63,278,85902,1,10,0:0:0:0:
265,194,86083,6,0,P|327:278|268:361,1,160,6|4,0:0|0:0,0:0:0:0:
178,214,86625,1,10,0:0:0:0:
204,130,86806,1,6,0:0:0:0:
204,130,86896,1,8,0:0:0:0:
204,130,86986,2,0,L|267:92,3,40,12|8|8|8,0:0|0:0|0:0|0:0,0:0:0:0:
283,109,87348,2,0,L|346:71,3,40,4|4|4|4,0:0|0:0|0:0|0:0,0:0:0:0:
362,88,87709,5,4,1:0:0:0:
256,192,87800,12,0,93492,0:0:0:0:
