osu file format v14

[General]
AudioFilename: optc.mp3
AudioLeadIn: 0
PreviewTime: 54998
Countdown: 0
SampleSet: Soft
StackLeniency: 0.5
Mode: 0
LetterboxInBreaks: 0
WidescreenStoryboard: 1

[Editor]
Bookmarks: 962,9637,15420,26986,38553,55902,67468,81926
DistanceSpacing: 1
BeatDivisor: 2
GridSize: 32
TimelineZoom: 1.1

[Metadata]
Title:Cynthia No Hikari
TitleUnicode:シンシアの光
Artist:Eir Aoi
ArtistUnicode:藍井エイル
Creator:Shad0w1and
Version:Normal
Source:ソードアート・オンライン -ロスト・ソング-
Tags:Sword Art Online Lost Song SAO Lami intoon Kencho Doormat Misure Pata-Mon
BeatmapID:1315252
BeatmapSetID:504005

[Difficulty]
HPDrainRate:3
CircleSize:3.4
OverallDifficulty:4
ApproachRate:5
SliderMultiplier:1.1
SliderTickRate:1

[Events]
//Background and Video events
Video,0,"optc.flv"
0,0,"BG8.jpg",0,0
//Break Periods
//Storyboard Layer 0 (Background)
//Storyboard Layer 1 (Fail)
//Storyboard Layer 2 (Pass)
//Storyboard Layer 3 (Foreground)
//Storyboard Sound Samples

[TimingPoints]
-483,361.44578313253,4,2,1,60,1,0
9637,-100,4,2,1,80,0,0
15420,-100,4,2,1,60,0,0
26986,-100,4,2,1,70,0,0
55902,-100,4,2,1,90,0,1
80480,-100,4,2,1,60,0,0
81926,-100,4,2,1,90,0,1
87709,-100,4,2,1,90,0,0

[Colours]
Combo1 : 255,238,119
Combo2 : 60,247,153
Combo3 : 79,109,255
Combo4 : 245,82,106

[HitObjects]
63,54,59,6,0,P|71:115|133:138,1,110,2|0,0:0|0:0,0:0:0:0:
132,188,601,2,0,P|161:181|233:171,1,55,2|0,0:0|0:0,0:0:0:0:
238,191,962,6,0,P|296:183|354:233,1,110,2|0,0:0|0:0,0:0:0:0:
358,259,1504,1,2,0:0:0:0:
313,359,1866,2,0,L|232:360,1,55,2|0,0:0|0:0,0:0:0:0:
204,371,2227,2,0,B|149:382|98:345|89:290|89:290|130:260|143:207,1,220,2|2,0:0|0:0,0:0:0:0:
100,196,3131,2,0,P|65:198|21:208,1,55,2|0,0:0|0:0,0:0:0:0:
10,158,3492,2,0,P|13:136|23:104,1,55,2|0,0:0|0:0,0:0:0:0:
67,71,3854,6,0,P|110:111|168:114,1,110,2|0,0:0|0:0,0:0:0:0:
210,96,4396,1,2,0:0:0:0:
301,157,4757,1,2,0:0:0:0:
381,81,5119,2,0,B|446:102|463:149|463:149|446:211|393:234,1,220,2|2,0:0|0:0,0:0:0:0:
334,322,6203,2,0,L|266:311,2,55,2|0|0,0:0|0:0|0:0,0:0:0:0:
388,329,6745,5,2,0:0:0:0:
256,192,6926,12,2,8191,0:0:0:0:
256,192,9637,6,0,P|210:142|140:141,1,110,14|8,0:1|0:0,0:0:0:0:
73,186,10360,2,0,L|-11:178,2,55,8|0|8,0:1|0:0|0:0,0:0:0:0:
114,222,10902,2,0,P|116:278|126:335,1,110,14|8,0:1|0:1,0:0:0:0:
175,353,11444,1,8,0:0:0:0:
227,369,11625,2,0,P|269:370|319:273,1,165,0|8,0:0|0:0,0:0:0:0:
284,168,12529,6,0,P|337:172|427:153,1,110,14|8,0:1|0:0,0:0:0:0:
477,93,13251,2,0,L|466:26,2,55,8|0|8,0:1|0:0|0:0,0:0:0:0:
499,143,13794,2,0,P|480:194|470:248,1,110,14|8,0:1|0:1,0:0:0:0:
431,287,14336,1,8,0:0:0:0:
391,325,14516,2,0,P|315:342|260:268,1,165,8|8,0:1|0:0,0:0:0:0:
190,198,15420,6,0,P|134:214|65:226,2,110,14|8|8,0:1|0:1|0:1,0:0:0:0:
264,116,16504,1,8,0:1:0:0:
364,161,16866,2,0,P|345:228|335:290,2,110,8|8|8,0:1|0:1|0:1,0:0:0:0:
455,98,17950,1,8,0:1:0:0:
354,51,18312,6,0,P|302:44|244:20,2,110,10|8|8,0:1|0:1|0:1,0:0:0:0:
364,161,19396,1,8,0:1:0:0:
264,208,19757,2,0,P|220:248|224:336,2,110,8|8|8,0:1|0:1|0:1,0:0:0:0:
321,302,20842,1,8,0:1:0:0:
430,298,21203,6,0,P|436:255|448:152,1,110,10|8,0:1|0:1,0:0:0:0:
347,136,21926,1,8,0:1:0:0:
264,208,22288,1,8,0:1:0:0:
175,142,22649,2,0,P|118:124|54:155,1,110,8|8,0:1|0:1,0:0:0:0:
120,237,23372,1,8,0:1:0:0:
79,339,23733,1,8,0:1:0:0:
180,383,24095,6,0,P|225:360|306:335,2,110,10|8|8,0:1|0:1|0:1,0:0:0:0:
194,273,25179,1,8,0:1:0:0:
296,233,25541,2,0,P|309:179|320:91,1,110,10|8,0:1|0:0,0:0:0:0:
272,93,26083,1,8,0:1:0:0:
225,121,26263,2,0,P|179:116|124:50,1,110,8|8,0:1|0:0,0:0:0:0:
28,110,26986,6,0,P|45:159|54:260,2,110,14|8|8,0:1|0:0|0:1,0:0:0:0:
132,74,28071,1,8,0:0:0:0:
240,88,28432,2,0,P|284:67|359:48,1,110,8|8,0:1|0:0,0:0:0:0:
407,139,29155,2,0,P|450:160|541:166,1,110,8|8,0:1|0:0,0:0:0:0:
439,253,29878,6,0,P|430:298|428:378,2,110,10|8|8,0:1|0:0|0:1,0:0:0:0:
338,207,30962,1,8,0:0:0:0:
309,313,31324,2,0,P|265:336|159:373,1,110,8|8,0:1|0:0,0:0:0:0:
166,256,32047,2,0,P|105:239|38:243,1,110,8|8,0:1|0:0,0:0:0:0:
126,152,32770,6,0,P|118:96|87:55,1,110,10|8,0:1|0:0,0:0:0:0:
15,138,33492,1,8,0:1:0:0:
58,239,33854,1,8,0:0:0:0:
126,152,34215,2,0,P|183:143|234:166,1,110,8|8,0:1|0:0,0:0:0:0:
172,256,34938,1,8,0:1:0:0:
58,239,35300,1,8,0:0:0:0:
126,152,35661,6,0,P|108:94|80:29,2,110,10|8|8,0:1|0:0|0:1,0:0:0:0:
216,88,36745,1,8,0:0:0:0:
254,191,37107,2,0,P|303:158|323:80,1,110,10|8,0:1|0:0,0:0:0:0:
374,92,37649,1,8,0:1:0:0:
422,65,37830,2,0,P|487:70|518:136,1,110,8|8,0:1|0:0,0:0:0:0:
486,208,38553,6,0,P|455:203|406:193,2,55,14|8|8,0:1|0:1|0:0,0:0:0:0:
448,311,39276,2,0,P|361:333|306:258,1,165,12|14,0:1|0:1,0:0:0:0:
238,204,40179,2,0,L|157:230,1,55,8|8,0:1|0:0,0:0:0:0:
132,235,40541,1,8,0:1:0:0:
132,235,40721,2,0,P|106:220|62:198,1,55,8|8,0:1|0:1,0:0:0:0:
46,168,41083,2,0,P|10:191|-23:216,1,55,8|8,0:0|0:1,0:0:0:0:
14,251,41444,6,0,P|16:284|15:326,2,55,14|8|8,0:1|0:1|0:0,0:0:0:0:
101,318,42167,2,0,P|92:353|80:407,2,55,8|8|8,0:1|0:1|0:0,0:0:0:0:
156,320,42709,2,0,P|206:308|276:323,1,110,14|8,0:1|0:1,0:0:0:0:
315,301,43251,2,0,L|329:232,1,55,8|8,0:0|0:1,0:0:0:0:
325,247,44336,6,0,P|403:242|433:170,1,165,14|8,0:1|0:1,0:0:0:0:
401,125,45059,1,8,0:1:0:0:
314,57,45420,1,8,0:0:0:0:
227,125,45782,2,0,P|143:112|52:61,1,165,10|8,0:1|0:1,0:0:0:0:
24,104,46504,1,8,0:1:0:0:
6,212,46866,1,8,0:0:0:0:
23,320,47227,6,0,B|62:312|85:285|85:285|137:287|166:332,1,165,10|8,0:1|0:1,0:0:0:0:
218,325,47950,1,8,0:1:0:0:
291,243,48312,1,8,0:0:0:0:
215,162,48673,2,0,P|221:94|263:52,1,110,10|8,0:1|0:0,0:0:0:0:
350,96,49396,2,0,P|401:89|473:74,1,110,8|8,0:1|0:0,0:0:0:0:
511,174,50119,6,0,P|460:235|429:324,1,165,10|8,0:1|0:0,0:0:0:0:
379,335,50842,2,0,B|323:344|323:344|279:319|279:319|202:321,1,165,8|8,0:1|0:0,0:0:0:0:
188,364,51565,2,0,P|61:307|166:217,1,330,10|8,0:1|0:0,0:0:0:0:
266,171,53010,6,0,B|286:120|286:120|246:36,1,110,14|8,0:1|0:0,0:0:0:0:
165,122,53733,2,0,L|78:122,1,55,8|8,0:0|0:1,0:0:0:0:
11,171,54276,2,0,B|-12:121|-12:121|7:70,1,110,8|8,0:1|0:0,0:0:0:0:
7,69,55902,6,0,P|68:61|139:12,1,110,14|8,0:1|0:0,0:0:0:0:
158,64,56444,2,0,P|216:53|277:57,1,110,8|8,0:1|0:1,0:0:0:0:
313,83,56986,1,8,0:0:0:0:
356,117,57167,2,0,P|320:202|300:290,1,165,10|8,0:1|0:0,0:0:0:0:
257,303,57890,1,0,0:0:0:0:
257,303,58071,2,0,L|260:383,2,55,8|0|8,0:1|0:0|0:0,0:0:0:0:
207,279,58613,1,0,0:0:0:0:
151,277,58794,6,0,P|93:258|73:193,1,110,10|8,0:1|0:0,0:0:0:0:
61,162,59336,1,8,0:1:0:0:
137,82,59697,1,8,0:1:0:0:
219,157,60059,2,0,P|275:144|308:47,1,165,10|8,0:1|0:0,0:0:0:0:
277,5,60782,1,8,0:1:0:0:
177,50,61143,2,0,L|101:35,2,55,8|8|0,0:1|0:0|0:0,0:0:0:0:
227,72,61685,6,0,P|240:118|185:179,1,110,10|8,0:1|0:0,0:0:0:0:
156,183,62227,1,8,0:1:0:0:
196,285,62589,1,8,0:1:0:0:
305,279,62950,2,0,B|414:267|414:267|461:310,1,165,10|8,0:1|0:0,0:0:0:0:
511,209,63854,2,0,P|503:147|447:114,1,110,8|8,0:1|0:0,0:0:0:0:
413,118,64396,1,8,0:1:0:0:
358,111,64577,6,0,L|321:-7,2,110,14|8|8,0:1|0:0|0:0,0:0:0:0:
284,192,65661,2,0,L|216:163,1,55,8|8,0:0|0:1,0:0:0:0:
178,178,66023,5,14,0:1:0:0:
237,331,66565,2,0,P|292:329|362:317,1,110,14|8,0:1|0:1,0:0:0:0:
395,344,67107,2,0,P|436:326|479:310,1,55,8|4,0:0|0:0,0:0:0:0:
497,305,67468,6,0,P|518:274|480:196,1,110,14|8,0:1|0:0,0:0:0:0:
450,183,68010,2,0,B|396:199|349:195|349:195|340:162|355:133,1,165,8|8,0:1|0:0,0:0:0:0:
353,79,68733,2,0,P|311:36|212:70,1,165,10|8,0:1|0:0,0:0:0:0:
175,95,69456,1,0,0:0:0:0:
175,95,69637,2,0,L|95:58,2,55,8|0|8,0:1|0:0|0:0,0:0:0:0:
181,149,70179,1,0,0:0:0:0:
184,203,70360,6,0,P|142:239|69:239,1,110,14|8,0:1|0:0,0:0:0:0:
51,284,70902,1,8,0:1:0:0:
116,372,71263,1,8,0:1:0:0:
215,324,71625,2,0,B|264:329|317:303|317:303|384:344|384:344|477:303,1,275,14|8,0:1|0:1,0:1:0:0:
398,221,72890,1,8,0:0:0:0:
480,148,73251,6,0,P|483:125|482:82,1,55,14|0,0:1|0:0,0:0:0:0:
429,80,73613,2,0,P|405:66|357:20,1,55,8|0,0:0|0:0,0:0:0:0:
329,59,73974,2,0,P|300:76|257:89,1,55,8|8,0:1|0:1,0:0:0:0:
172,58,74516,2,0,P|192:136|204:231,1,165,14|8,0:1|0:0,0:0:0:0:
258,224,75239,2,0,L|315:276,2,55,0|8|8,0:0|0:1|0:1,0:0:0:0:
110,297,76143,6,0,P|67:276|27:264,1,55,14|8,0:1|0:1,0:0:0:0:
32,226,76504,2,0,P|51:200|69:165,1,55
54,125,76866,1,8,0:1:0:0:
142,60,77227,1,8,0:1:0:0:
240,108,77589,2,0,P|294:91|350:42,1,110,14|8,0:1|0:1,0:0:0:0:
438,100,78312,1,8,0:1:0:0:
435,209,78673,1,8,0:1:0:0:
435,209,78854,6,0,B|381:218|361:266|361:266|317:257|317:257|286:268|286:268|274:318|274:318|211:312|211:312|183:258|183:258|222:220|222:220|206:170|206:170|261:140,1,495,12|10,0:1|0:1,0:0:0:0:
238,152,81926,6,0,P|154:148|109:144,1,110,14|8,0:1|0:0,0:0:0:0:
109,254,82649,2,0,L|31:294,2,55,8|0|8,0:1|0:0|0:0,0:0:0:0:
152,287,83191,2,0,P|208:285|251:336,1,110,14|8,0:1|0:1,0:0:0:0:
299,330,83733,1,8,0:0:0:0:
353,340,83914,2,0,P|422:337|454:277,1,110
452,254,84456,1,8,0:0:0:0:
347,218,84818,6,0,P|291:190|282:117,1,110,14|8,0:1|0:0,0:0:0:0:
317,46,85541,2,0,P|350:43|406:34,2,55,8|0|8,0:1|0:0|0:0,0:0:0:0:
263,31,86083,1,14,0:1:0:0:
159,68,86444,2,0,L|193:140,1,55,8|8,0:1|0:0,0:0:0:0:
164,170,86806,2,0,P|107:248|242:242,1,275,8|14,0:1|0:1,0:0:0:0:
