osu file format v14

[General]
AudioFilename: optc.mp3
AudioLeadIn: 0
PreviewTime: 54998
Countdown: 0
SampleSet: Soft
StackLeniency: 0.7
Mode: 0
LetterboxInBreaks: 0
WidescreenStoryboard: 0

[Editor]
DistanceSpacing: 1.4
BeatDivisor: 4
GridSize: 4
TimelineZoom: 3.199999

[Metadata]
Title:Cynthia No Hikari
TitleUnicode:シンシアの光
Artist:Eir Aoi
ArtistUnicode:藍井エイル
Creator:Shad0w1and
Version:Misure's Hard
Source:ソードアート・オンライン -ロスト・ソング-
Tags:Sword Art Online Lost Song SAO Lami intoon Kencho Doormat Misure Pata-Mon
BeatmapID:1319325
BeatmapSetID:504005

[Difficulty]
HPDrainRate:4.5
CircleSize:3.5
OverallDifficulty:5.5
ApproachRate:7.5
SliderMultiplier:1.35
SliderTickRate:1

[Events]
//Background and Video events
Video,0,"optc.flv"
0,0,"BG7.jpg",0,0
//Break Periods
//Storyboard Layer 0 (Background)
//Storyboard Layer 1 (Fail)
//Storyboard Layer 2 (Pass)
//Storyboard Layer 3 (Foreground)
//Storyboard Sound Samples

[TimingPoints]
-483,361.44578313253,4,2,1,50,1,0
59,-125,4,2,1,50,0,0
2589,-125,4,2,1,20,0,0
2634,-125,4,2,1,50,0,0
5480,-125,4,2,1,20,0,0
5526,-125,4,2,1,50,0,0
6745,-125,4,2,1,60,0,0
7468,-125,4,2,1,65,0,0
8191,-125,4,2,1,70,0,0
8914,-125,4,2,1,60,0,0
9276,-125,4,2,1,55,0,0
9637,-100,4,2,1,70,0,0
15420,-111.111111111111,4,2,1,65,0,0
26986,-100,4,2,1,70,0,0
54637,-100,4,2,1,60,0,0
55902,-100,4,2,1,80,0,1
67107,-100,4,2,1,70,0,0
67468,-100,4,2,1,80,0,1
80480,-100,4,2,1,60,0,0
81926,-100,4,2,1,70,0,1
82016,-100,4,2,1,70,0,0
87800,-100,4,2,1,45,0,0
88432,-100,4,2,1,40,0,0
89155,-100,4,2,1,35,0,0
89878,-100,4,2,1,30,0,0
90601,-100,4,2,1,25,0,0
91324,-100,4,2,1,20,0,0
92047,-100,4,2,1,15,0,0
92770,-100,4,2,1,10,0,0
93492,-100,4,2,1,5,0,0

[Colours]
Combo1 : 255,238,119
Combo2 : 60,247,153
Combo3 : 79,109,255
Combo4 : 245,82,106

[HitObjects]
104,128,59,6,0,P|93:179|115:228,1,108,2|0,0:0|0:0,0:0:0:0:
204,204,601,2,0,L|211:150,1,54,2|0,0:0|0:0,0:0:0:0:
300,112,962,6,0,L|313:219,1,108,2|0,0:0|0:0,0:0:0:0:
280,304,1504,2,0,P|332:309|379:283,1,108,2|0,0:0|0:0,0:0:0:0:
401,193,2047,1,0,0:0:0:0:
313,219,2227,6,0,L|152:199,1,162,2|0,0:0|0:0,0:0:0:0:
80,260,2950,2,0,P|75:286|82:312,2,54,2|0|0,0:0|0:0|0:0,0:0:0:0:
152,199,3492,2,0,P|156:173|149:147,1,54,2|0,0:0|0:0,0:0:0:0:
64,84,3854,6,0,L|171:97,1,108,2|0,0:0|0:0,0:0:0:0:
256,63,4396,2,0,P|261:115|235:162,1,108,2|2,0:0|0:0,0:0:0:0:
152,199,4939,1,0,0:0:0:0:
196,280,5119,6,0,L|356:260,1,162,2|0,0:0|0:0,0:0:0:0:
445,235,5842,2,0,P|448:261|445:288,2,54,2|0|0,0:0|0:0|0:0,0:0:0:0:
378,171,6384,2,0,P|374:144|377:117,1,54,2|0,0:0|0:0,0:0:0:0:
435,46,6745,5,2,0:0:0:0:
256,192,6836,12,0,8914,0:0:0:0:
124,48,9276,6,0,L|98:39,3,27,4|4|4|4,0:0|0:0|0:0|0:0,0:0:0:0:
64,72,9637,6,0,L|75:138,1,67.5,14|0,0:1|0:0,0:0:0:0:
132,216,9998,1,8,0:0:0:0:
56,272,10179,1,0,0:0:0:0:
56,272,10270,1,0,0:0:0:0:
56,272,10360,2,0,L|44:338,2,67.5,8|0|8,0:1|0:0|0:0,0:0:0:0:
132,216,10902,6,0,P|196:198|259:217,1,135,14|8,0:1|0:1,0:0:0:0:
320,292,11444,1,8,0:0:0:0:
404,252,11625,2,0,L|438:250,2,33.75,0|0|8,0:0|0:0|0:1,0:0:0:0:
320,292,11986,1,0,0:0:0:0:
259,217,12167,2,0,L|273:151,1,67.5,8|0,0:0|0:0,0:0:0:0:
343,34,12529,6,0,P|353:66|352:100,1,67.5,14|0,0:1|0:0,0:0:0:0:
273,151,12890,1,8,0:0:0:0:
208,80,13071,1,0,0:0:0:0:
208,80,13162,1,0,0:0:0:0:
208,80,13252,2,0,L|141:66,1,67.5,8|0,0:1|0:0,0:0:0:0:
75,133,13613,1,8,0:0:0:0:
112,220,13794,6,0,P|171:247|234:227,1,135,14|8,0:1|0:1,0:0:0:0:
288,148,14336,2,0,L|354:161,1,67.5,8|8,0:0|0:1,0:0:0:0:
431,217,14697,2,0,L|464:210,3,33.75,8|8|8|8,0:1|0:1|0:1|0:1,0:0:0:0:
503,181,15059,2,0,L|484:280,1,101.25,4|0,0:0|0:0,0:0:0:0:
500,324,15420,6,0,L|380:304,1,121.499996292114,14|8,0:1|0:1,0:0:0:0:
304,356,15962,1,0,0:0:0:0:
224,312,16143,2,0,L|232:252,1,60.7499981460572,8|0,0:1|0:0,0:0:0:0:
128,304,16504,2,0,L|136:364,1,60.7499981460572,8|0,0:1|0:0,0:0:0:0:
36,316,16866,6,0,P|13:261|25:202,2,121.499996292114,8|8|8,0:1|0:1|0:1,0:0:0:0:
128,304,17770,2,0,L|185:285,2,60.7499981460572,0|8|0,0:0|0:1|0:0,0:0:0:0:
135,204,18312,6,0,P|193:190|247:215,1,121.499996292114,10|8,0:1|0:1,0:0:0:0:
296,292,18854,1,0,0:0:0:0:
368,236,19035,2,0,L|360:175,1,60.7499981460572,8|0,0:1|0:0,0:0:0:0:
432,120,19396,2,0,L|490:137,1,60.7499981460572,8|0,0:1|0:0,0:0:0:0:
464,32,19757,6,0,P|404:27|356:61,2,121.499996292114,8|8|8,0:1|0:1|0:1,0:0:0:0:
432,120,20662,1,0,0:0:0:0:
432,120,20842,1,8,0:1:0:0:
356,324,21203,6,0,L|367:203,1,121.499996292114,10|8,0:1|0:1,0:0:0:0:
316,128,21745,1,0,0:0:0:0:
240,180,21926,2,0,P|238:210|244:239,2,60.7499981460572,8|0|8,0:1|0:0|0:1,0:0:0:0:
316,128,22468,1,0,0:0:0:0:
256,56,22649,6,0,P|202:83|142:85,1,121.499996292114,8|8,0:1|0:1,0:0:0:0:
79,22,23191,1,0,0:0:0:0:
142,85,23372,2,0,L|151:145,1,60.7499981460572,8|0,0:1|0:0,0:0:0:0:
96,216,23733,2,0,L|86:276,1,60.7499981460572,8|0,0:1|0:0,0:0:0:0:
152,340,24095,6,0,L|271:317,2,121.499996292114,10|8|8,0:1|0:1|0:1,0:0:0:0:
86,275,24998,2,0,L|26:263,2,60.7499981460572,0|8|0,0:0|0:1|0:0,0:0:0:0:
144,200,25541,6,0,P|173:193|203:199,1,60.7499981460572,10|0,0:1|0:0,0:0:0:0:
266,265,25902,1,8,0:0:0:0:
340,212,26082,1,8,0:1:0:0:
340,212,26173,1,0,0:0:0:0:
340,212,26263,2,0,L|335:182,3,30.3749990730286,8|8|8|8,0:1|0:1|0:1|0:1,0:0:0:0:
375,156,26625,2,0,L|364:246,1,91.1249972190858,4|0,0:0|0:0,0:0:0:0:
399,278,26986,6,0,P|432:283|464:275,1,67.5,14|0,0:1|0:0,0:0:0:0:
503,188,27348,2,0,P|490:156|467:132,1,67.5,8|0,0:0|0:0,0:0:0:0:
375,156,27709,2,0,P|309:168|245:149,1,135,8|8,0:1|0:0,0:0:0:0:
198,65,28251,1,2,0:1:0:0:
120,120,28432,6,0,L|134:185,1,67.5,8|0,0:1|0:0,0:0:0:0:
104,276,28794,2,0,L|37:262,1,67.5,8|0,0:0|0:1,0:0:0:0:
134,185,29155,2,0,L|201:171,1,67.5,8|0,0:1|0:0,0:0:0:0:
280,224,29516,2,0,L|265:289,1,67.5,8|0,0:0|0:0,0:0:0:0:
340,348,29878,5,10,0:1:0:0:
340,348,30059,1,0,0:0:0:0:
420,296,30240,2,0,P|421:262|410:230,1,67.5,8|0,0:0|0:0,0:0:0:0:
352,154,30601,2,0,P|350:120|361:88,2,67.5,8|0|8,0:1|0:0|0:0,0:0:0:0:
445,139,31143,1,2,0:0:0:0:
445,139,31324,6,0,L|510:153,1,67.5,8|0,0:1|0:0,0:0:0:0:
411,230,31685,2,0,L|345:244,1,67.5,8|0,0:0|0:0,0:0:0:0:
268,188,32047,2,0,L|279:121,1,67.5,8|0,0:1|0:0,0:0:0:0:
228,42,32408,1,8,0:0:0:0:
28,164,32770,6,0,P|35:196|53:225,1,67.5,10|0,0:1|0:0,0:0:0:0:
145,229,33131,2,0,P|169:205|185:176,1,67.5,8|0,0:0|0:0,0:0:0:0:
142,93,33492,2,0,P|109:83|76:83,2,67.5,8|0|8,0:1|0:0|0:0,0:0:0:0:
185,175,34035,1,0,0:0:0:0:
276,148,34215,6,0,L|290:82,1,67.5,10|0,0:1|0:0,0:0:0:0:
382,55,34577,2,0,L|431:100,1,67.5,8|0,0:0|0:0,0:0:0:0:
409,193,34938,1,8,0:1:0:0:
409,193,35119,1,0,0:0:0:0:
409,193,35300,2,0,L|344:213,1,67.5,8|0,0:0|0:0,0:0:0:0:
260,256,35661,6,0,P|262:289|276:320,1,67.5,10|0,0:1|0:0,0:0:0:0:
368,340,36023,2,0,P|391:316|406:286,1,67.5,8|0,0:0|0:0,0:0:0:0:
344,212,36384,2,0,P|277:219|219:187,1,135,8|8,0:1|0:0,0:0:0:0:
158,115,36926,1,0,0:0:0:0:
77,165,37107,6,0,L|91:299,1,135,10|8,0:1|0:0,0:0:0:0:
163,360,37649,1,8,0:1:0:0:
235,297,37830,2,0,L|240:264,2,33.75,8|8|8,0:1|0:1|0:1,0:0:0:0:
326,327,38191,2,0,L|331:360,2,33.75,8|8|8,0:1|0:1|0:1,0:0:0:0:
388,254,38553,6,0,P|420:264|454:264,1,67.5,14|8,0:1|0:1,0:0:0:0:
454,264,38914,1,8,0:1:0:0:
408,32,39276,1,12,0:1:0:0:
337,94,39456,2,0,L|306:108,3,33.75,4|4|4|4,0:0|0:0|0:0|0:0,0:0:0:0:
277,70,39818,6,0,P|210:73|157:32,1,135,14|8,0:1|0:1,0:0:0:0:
66,58,40360,1,8,0:0:0:0:
118,137,40541,1,0,0:0:0:0:
118,137,40631,1,0,0:0:0:0:
118,137,40721,2,0,L|127:203,1,67.5,8|8,0:1|0:1,0:0:0:0:
61,272,41083,2,0,L|52:338,1,67.5,8|8,0:0|0:1,0:0:0:0:
138,379,41444,6,0,P|171:378|203:368,1,67.5,14|8,0:1|0:1,0:0:0:0:
203,368,41805,1,8,0:0:0:0:
268,148,42167,1,8,0:1:0:0:
176,124,42348,2,0,P|172:157|180:189,1,67.5,8|8,0:1|0:0,0:0:0:0:
252,252,42709,6,0,L|117:237,1,135,14|8,0:1|0:1,0:0:0:0:
68,156,43251,1,8,0:0:0:0:
132,88,43432,1,8,0:1:0:0:
132,88,43523,1,8,0:1:0:0:
132,88,43613,2,0,L|128:54,3,33.75,8|8|8|8,0:1|0:1|0:1|0:1,0:0:0:0:
154,15,43974,2,0,P|202:4|248:24,1,101.25,4|0,0:0|0:0,0:0:0:0:
263,69,44336,6,0,L|397:54,1,135,14|8,0:1|0:0,0:0:0:0:
484,20,44878,1,0,0:0:0:0:
484,20,45059,2,0,P|499:84|478:147,1,135,8|8,0:1|0:0,0:0:0:0:
384,160,45601,1,0,0:0:0:0:
384,160,45782,6,0,L|406:293,1,135,10|8,0:1|0:0,0:0:0:0:
352,372,46324,1,0,0:0:0:0:
352,372,46504,2,0,L|218:350,1,135,8|8,0:1|0:0,0:0:0:0:
176,264,47047,1,0,0:0:0:0:
176,264,47227,6,0,P|192:199|237:149,1,135,10|8,0:1|0:0,0:0:0:0:
332,152,47770,1,0,0:0:0:0:
332,152,47950,2,0,P|380:198|401:262,1,135,8|8,0:1|0:0,0:0:0:0:
364,348,48492,1,0,0:0:0:0:
364,348,48673,6,0,L|230:370,1,135,10|8,0:1|0:0,0:0:0:0:
172,296,49215,2,0,L|177:262,2,33.75,0|0|8,0:0|0:0|0:1,0:0:0:0:
88,344,49577,1,0,0:0:0:0:
88,344,49757,2,0,P|76:312|79:279,1,67.5,8|0,0:0|0:0,0:0:0:0:
140,196,50119,6,0,L|272:223,1,135,14|8,0:1|0:0,0:0:0:0:
360,184,50661,1,0,0:0:0:0:
360,184,50842,2,0,P|378:119|360:55,1,135,8|8,0:1|0:0,0:0:0:0:
277,9,51384,1,0,0:0:0:0:
214,80,51565,5,10,0:1:0:0:
136,27,51745,2,0,L|102:32,5,33.75,8|8|4|4|8|8,0:0|0:0|0:0|0:0|0:1|0:1,0:0:0:0:
68,67,52288,2,0,P|68:99|77:132,1,67.5,8|8,0:1|0:1,0:0:0:0:
135,208,52649,2,0,P|133:240|124:273,1,67.5,8|8,0:0|0:1,0:0:0:0:
29,338,53010,5,14,0:1:0:0:
78,133,53372,1,8,0:0:0:0:
233,279,53733,2,0,L|298:262,2,67.5,8|8|8,0:0|0:1|0:1,0:0:0:0:
165,347,54276,5,8,0:1:0:0:
379,317,54637,1,8,0:0:0:0:
249,145,55902,6,0,L|232:279,1,135,14|8,0:1|0:0,0:0:0:0:
165,345,56444,1,0,0:0:0:0:
84,295,56625,2,0,P|73:262|72:229,1,67.5,8|0,0:1|0:0,0:0:0:0:
136,159,56986,2,0,P|169:160|201:170,1,67.5,8|0,0:0|0:0,0:0:0:0:
292,211,57348,6,0,L|310:77,1,135,10|8,0:1|0:0,0:0:0:0:
392,31,57890,2,0,P|402:62|402:96,2,67.5,0|8|0,0:0|0:1|0:0,0:0:0:0:
310,77,58432,2,0,L|242:85,1,67.5,8|0,0:0|0:0,0:0:0:0:
201,170,58794,6,0,L|335:184,1,135,10|8,0:1|0:0,0:0:0:0:
377,268,59336,1,0,0:0:0:0:
321,343,59516,2,0,P|287:343|254:351,2,67.5,8|0|8,0:1|0:0|0:0,0:0:0:0:
410,375,60059,1,0,0:0:0:0:
410,375,60240,6,0,L|435:242,1,135,10|8,0:1|0:0,0:0:0:0:
404,150,60782,2,0,P|371:149|341:135,2,67.5,0|8|0,0:0|0:1|0:0,0:0:0:0:
487,102,61324,2,0,P|498:134|497:167,1,67.5,8|0,0:0|0:0,0:0:0:0:
405,150,61685,6,0,L|270:158,1,135,10|8,0:1|0:0,0:0:0:0:
187,112,62227,1,0,0:0:0:0:
187,16,62408,2,0,P|220:21|248:39,1,67.5,8|0,0:1|0:0,0:0:0:0:
187,112,62770,2,0,L|120:122,1,67.5,8|0,0:0|0:0,0:0:0:0:
48,186,63131,6,0,P|45:219|50:252,2,67.5,10|0|8,0:1|0:0|0:0,0:0:0:0:
120,122,63673,1,0,0:0:0:0:
192,186,63854,2,0,P|194:219|189:252,2,67.5,8|0|8,0:1|0:0|0:0,0:0:0:0:
121,309,64396,1,0,0:0:0:0:
121,309,64486,1,0,0:0:0:0:
121,309,64577,6,0,L|255:295,1,135,14|8,0:1|0:0,0:0:0:0:
317,369,65119,1,8,0:1:0:0:
401,325,65300,2,0,P|408:292|404:258,1,67.5,8|8,0:0|0:1,0:0:0:0:
317,221,65661,1,8,0:0:0:0:
255,294,65842,1,8,0:1:0:0:
173,249,66023,6,0,L|106:237,2,67.5,14|4|8,0:1|0:0|0:0,0:0:0:0:
194,156,66565,2,0,L|260:144,1,67.5,14|8,0:1|0:1,0:0:0:0:
317,221,66926,1,8,0:1:0:0:
386,156,67107,2,0,L|382:122,3,33.75,4|4|4|4,0:0|0:0|0:0|0:0,0:0:0:0:
417,83,67468,6,0,L|400:216,1,135,14|8,0:1|0:0,0:0:0:0:
473,280,68010,1,0,0:0:0:0:
412,352,68191,2,0,P|378:356|345:350,1,67.5,8|0,0:1|0:0,0:0:0:0:
276,284,68553,2,0,P|243:279|210:285,1,67.5,8|0,0:0|0:0,0:0:0:0:
122,318,68914,6,0,P|115:284|120:251,2,67.5,10|0|8,0:1|0:0|0:0,0:0:0:0:
210,285,69456,1,0,0:0:0:0:
194,190,69637,2,0,L|206:123,1,67.5,8|0,0:1|0:0,0:0:0:0:
269,53,69998,1,8,0:0:0:0:
340,115,70179,1,0,0:0:0:0:
315,206,70360,6,0,P|251:222|194:190,1,135,14|8,0:1|0:0,0:0:0:0:
117,129,70902,1,0,0:0:0:0:
49,193,71082,2,0,L|58:259,2,67.5,14|0|8,0:1|0:0|0:0,0:0:0:0:
117,129,71625,1,0,0:0:0:0:
194,190,71806,6,0,L|259:172,1,67.5,14|0,0:1|0:0,0:0:0:0:
317,89,72167,2,0,L|251:71,1,67.5,8|0,0:0|0:0,0:0:0:0:
353,185,72529,2,0,L|373:212,2,33.75,8|8|0,0:1|0:0|0:0,0:0:0:0:
421,117,72890,1,8,0:0:0:0:
421,117,73071,1,0,0:0:0:0:
493,181,73251,6,0,P|488:214|477:246,1,67.5,14|0,0:1|0:0,0:0:0:0:
421,325,73613,2,0,P|387:318|356:305,1,67.5,8|0,0:0|0:0,0:0:0:0:
272,264,73974,2,0,P|251:290|226:312,1,67.5,8|0,0:1|0:0,0:0:0:0:
137,352,74336,2,0,P|111:329|91:303,1,67.5,8|0,0:0|0:1,0:0:0:0:
4,268,74697,6,0,P|6:232|14:201,2,67.5,14|0|8,0:1|0:0|0:0,0:0:0:0:
91,303,75239,1,0,0:0:0:0:
164,244,75420,2,0,L|196:251,3,33.75,8|8|8|8,0:1|0:1|0:1|0:1,0:0:0:0:
240,232,75782,2,0,L|229:165,1,67.5,4|0,0:0|0:0,0:0:0:0:
96,72,76143,6,0,P|120:95|150:112,1,67.5,14|8,0:1|0:1,0:0:0:0:
233,67,76504,2,0,P|249:37|272:13,1,67.5,8|8,0:1|0:1,0:0:0:0:
376,41,76866,2,0,P|403:101|370:159,1,135,14|8,0:1|0:1,0:0:0:0:
371,158,77408,1,8,0:1:0:0:
416,245,77589,6,0,L|482:253,1,67.5,14|8,0:1|0:1,0:0:0:0:
409,339,77950,2,0,L|342:347,1,67.5,8|8,0:1|0:1,0:0:0:0:
214,317,78312,2,0,L|223:384,1,67.5,14|8,0:1|0:1,0:0:0:0:
289,260,78673,2,0,L|297:193,1,67.5,8|8,0:1|0:1,0:0:0:0:
214,317,79035,5,14,0:1:0:0:
135,265,79215,2,0,L|69:280,2,67.5,8|8|8,0:1|0:1|0:1,0:0:0:0:
182,184,79757,2,0,L|172:152,3,33.75,8|8|8|8,0:1|0:1|0:1|0:1,0:0:0:0:
193,109,80119,2,0,L|202:77,3,33.75,4|4|4|4,0:0|0:0|0:0|0:0,0:0:0:0:
188,32,80480,5,10,0:1:0:0:
123,43,81926,6,0,P|154:31|188:32,1,67.5,14|0,0:1|0:0,0:0:0:0:
231,116,82287,1,8,0:0:0:0:
171,188,82468,1,0,0:0:0:0:
171,188,82559,1,0,0:0:0:0:
171,188,82649,2,0,L|181:254,2,67.5,8|0|8,0:1|0:0|0:0,0:0:0:0:
231,116,83191,6,0,L|364:138,1,135,14|8,0:1|0:1,0:0:0:0:
428,208,83733,1,8,0:0:0:0:
492,140,83914,2,0,L|499:107,2,33.75,0|0|8,0:0|0:0|0:1,0:0:0:0:
428,208,84276,1,0,0:0:0:0:
476,288,84456,2,0,P|428:302|380:289,1,101.25,8|0,0:0|0:0,0:0:0:0:
344,260,84818,6,0,L|278:275,1,67.5,14|0,0:1|0:0,0:0:0:0:
224,352,85179,1,8,0:0:0:0:
133,325,85360,1,0,0:0:0:0:
133,325,85451,1,0,0:0:0:0:
133,325,85541,2,0,P|121:293|123:259,1,67.5,8|0,0:1|0:0,0:0:0:0:
203,210,85902,1,8,0:0:0:0:
168,122,86083,6,0,L|33:132,1,135,14|0,0:1|0:1,0:0:0:0:
60,42,86625,2,0,P|92:32|125:37,1,67.5,8|8,0:0|0:1,0:0:0:0:
168,122,86986,2,0,L|162:155,3,33.75,8|8|8|8,0:1|0:1|0:1|0:1,0:0:0:0:
188,198,87348,2,0,L|255:192,1,67.5,4|0,0:0|0:0,0:0:0:0:
349,188,87709,5,14,0:1:0:0:
256,192,87800,12,0,93492,0:0:0:0:
