osu file format v14

[General]
AudioFilename: optc.mp3
AudioLeadIn: 0
PreviewTime: 54998
Countdown: 0
SampleSet: Soft
StackLeniency: 0.4
Mode: 0
LetterboxInBreaks: 0
WidescreenStoryboard: 0

[Editor]
Bookmarks: 962,9637,15420,26986,38553,55902,67468,81926
DistanceSpacing: 1
BeatDivisor: 8
GridSize: 8
TimelineZoom: 2.5

[Metadata]
Title:Cynthia No Hikari
TitleUnicode:シンシアの光
Artist:Eir Aoi
ArtistUnicode:藍井エイル
Creator:Shad0w1and
Version:Lami's Extra
Source:ソードアート・オンライン -ロスト・ソング-
Tags:Sword Art Online Lost Song SAO Lami intoon Kencho Doormat Misure Pata-Mon
BeatmapID:1315102
BeatmapSetID:504005

[Difficulty]
HPDrainRate:6
CircleSize:3.8
OverallDifficulty:8.2
ApproachRate:9
SliderMultiplier:1.8
SliderTickRate:1

[Events]
//Background and Video events
0,0,"BG2.jpg",0,0
Video,0,"optc.flv"
//Break Periods
//Storyboard Layer 0 (Background)
//Storyboard Layer 1 (Fail)
//Storyboard Layer 2 (Pass)
//Storyboard Layer 3 (Foreground)
//Storyboard Sound Samples

[TimingPoints]
-483,361.44578313253,4,2,1,40,1,0
59,-133.333333333333,4,2,1,40,0,0
962,-133.333333333333,4,2,1,60,0,0
8191,-133.333333333333,4,2,1,60,0,0
8914,-133.333333333333,4,2,1,60,0,0
9276,-100,4,2,1,60,0,0
9637,-100,4,2,1,80,0,0
14697,-100,4,2,1,75,0,0
15420,-125,4,2,1,60,0,0
26083,-111.111111111111,4,2,1,60,0,0
26986,-100,4,2,1,70,0,0
37107,-100,4,2,1,70,0,0
38553,-100,4,2,1,80,0,0
39456,-100,4,2,1,70,0,0
39818,-100,4,2,1,80,0,0
40179,-100,4,2,1,80,0,0
42709,-100,4,2,1,80,0,0
43432,-100,4,2,1,70,0,0
44336,-100,4,2,1,80,0,0
53010,-100,4,2,1,70,0,0
54998,-125,4,2,1,50,0,0
55902,-90.9090909090909,4,2,1,90,0,1
66023,-90.9090909090909,4,2,1,70,0,1
66565,-90.9090909090909,4,2,1,80,0,1
67468,-90.9090909090909,4,2,1,90,0,1
80480,-133.333333333333,4,2,1,50,0,0
81926,-100,4,2,1,90,0,1
86806,-100,4,2,1,80,0,1
87709,-100,4,2,1,90,0,0
87800,-100,4,2,1,40,0,0
93492,-100,4,2,1,5,0,0

[Colours]
Combo1 : 255,238,119
Combo2 : 60,247,153
Combo3 : 79,109,255
Combo4 : 245,82,106

[HitObjects]
96,251,59,6,0,P|167:243|244:235,1,135.000005149842,2|0,0:0|0:0,0:0:0:0:
258,139,601,2,0,P|223:142|189:146,1,67.5000025749208,2|0,0:0|0:0,0:0:0:0:
327,264,962,6,0,P|390:262|444:201,1,135.000005149842,2|0,0:0|0:0,0:0:0:0:
370,49,1504,2,0,B|345:89|345:89|356:178,1,135.000005149842,2|0,0:0|0:0,0:0:0:0:
492,280,2047,1,2,0:0:0:0:
511,163,2227,1,0,0:0:0:0:
406,290,2408,6,0,P|374:301|335:297,2,67.5000025749208,2|0|0,0:0|0:0|0:0,0:0:0:0:
472,152,2950,1,2,0:0:0:0:
359,212,3131,1,0,0:0:0:0:
493,255,3312,1,0,0:0:0:0:
383,122,3492,1,2,0:0:0:0:
359,212,3673,1,0,0:0:0:0:
312,50,3854,6,0,P|248:41|191:75,1,135.000005149842,2|0,0:0|0:0,0:0:0:0:
245,198,4396,2,0,P|260:169|265:136,1,67.5000025749208,2|0,0:0|0:0,0:0:0:0:
96,72,4757,2,0,P|100:105|117:134,1,67.5000025749208,2|0,0:0|0:0,0:0:0:0:
145,240,5119,2,0,B|90:188|4:209|4:209|51:256,1,202.500007724762,2|0,0:0|0:0,0:0:0:0:
140,375,5842,6,0,P|211:367|287:359,1,135.000005149842,2|0,0:0|0:0,0:0:0:0:
291,245,6384,1,2,0:0:0:0:
197,282,6565,1,0,0:0:0:0:
364,321,6745,6,0,L|444:304,1,67.5000025749208,2|0,0:0|0:0,0:0:0:0:
291,245,7107,2,0,L|357:230,1,67.5000025749208,0|0,0:0|0:0,0:0:0:0:
219,170,7468,2,0,L|284:155,1,67.5000025749208,2|0,0:0|0:0,0:0:0:0:
146,94,7830,2,0,L|212:79,1,67.5000025749208,0|0,0:0|0:0,0:0:0:0:
434,92,8191,5,2,0:0:0:0:
455,113,8281,1,0,0:0:0:0:
467,140,8371,1,0,0:0:0:0:
469,169,8462,1,0,0:0:0:0:
459,196,8552,1,0,0:0:0:0:
440,219,8642,1,0,0:0:0:0:
414,233,8733,1,0,0:0:0:0:
385,237,8823,1,0,0:0:0:0:
357,230,8913,1,0,0:0:0:0:
357,230,9276,6,0,L|345:180,1,45,4|4,0:0|0:0,0:0:0:0:
306,27,9456,2,0,L|295:70,1,45,4|4,0:0|0:0,0:0:0:0:
228,187,9637,6,0,P|183:181|138:177,1,90,14|0,0:1|0:0,0:0:0:0:
20,23,9998,1,8,0:0:0:0:
172,91,10179,1,0,0:0:0:0:
172,91,10270,1,0,0:0:0:0:
172,91,10360,1,8,0:1:0:0:
48,208,10541,1,0,0:0:0:0:
51,35,10721,1,8,0:0:0:0:
228,187,10902,6,0,P|316:198|379:131,1,180,14|8,0:1|0:1,0:0:0:0:
229,15,11444,1,8,0:0:0:0:
146,176,11625,1,0,0:0:0:0:
146,176,11715,1,0,0:0:0:0:
146,176,11806,1,8,0:1:0:0:
283,102,11986,1,0,0:0:0:0:
332,288,12167,2,0,P|377:294|422:298,1,90,8|0,0:0|0:0,0:0:0:0:
466,128,12529,6,0,P|421:132|376:137,1,90,14|0,0:1|0:0,0:0:0:0:
223,271,12890,1,8,0:0:0:0:
160,113,13071,1,0,0:0:0:0:
160,113,13161,1,0,0:0:0:0:
160,113,13251,1,8,0:1:0:0:
310,215,13432,1,0,0:0:0:0:
119,299,13613,1,8,0:0:0:0:
267,107,13794,6,0,P|346:105|418:177,1,180,14|8,0:1|0:1,0:0:0:0:
338,335,14336,1,8,0:0:0:0:
215,193,14516,1,8,0:1:0:0:
119,299,14697,2,0,P|93:309|62:313,1,45,8|8,0:1|0:1,0:0:0:0:
87,180,14878,5,8,0:1:0:0:
98,136,14968,1,8,0:1:0:0:
124,100,15058,1,4,0:0:0:0:
161,75,15149,1,4,0:0:0:0:
205,65,15239,1,4,0:0:0:0:
249,70,15329,1,4,0:0:0:0:
288,91,15420,6,0,L|306:162,1,72,14|0,0:1|0:0,0:0:0:0:
232,262,15782,2,0,L|214:192,1,72,8|0,0:1|0:0,0:0:0:0:
352,257,16143,2,0,L|370:328,1,72,8|0,0:1|0:0,0:0:0:0:
270,384,16504,1,8,0:1:0:0:
352,257,16685,6,0,P|390:243|426:239,1,72,0|8,0:0|0:1,0:0:0:0:
270,384,17047,2,0,P|234:378|200:366,1,72,0|8,0:0|0:1,0:0:0:0:
215,156,17408,2,0,B|224:208|224:208|253:236|253:236|263:296,1,144,0|0,0:0|0:0,0:0:0:0:
112,384,17950,2,0,L|99:306,1,72,8|0,0:1|0:0,0:0:0:0:
146,145,18312,6,0,P|181:145|215:156,1,72,10|0,0:1|0:0,0:0:0:0:
262,287,18673,2,0,P|226:286|192:275,1,72,8|0,0:1|0:0,0:0:0:0:
215,156,19035,1,8,0:1:0:0:
337,217,19215,1,0,0:0:0:0:
268,65,19396,1,8,0:1:0:0:
135,181,19577,6,0,P|99:183|60:169,1,72,0|8,0:0|0:1,0:0:0:0:
199,56,19938,2,0,P|235:54|274:68,1,72,0|8,0:0|0:1,0:0:0:0:
236,222,20300,2,0,P|224:187|227:152,1,72,0|8,0:0|0:1,0:0:0:0:
356,73,20661,1,0,0:0:0:0:
398,228,20842,2,0,P|400:263|388:297,1,72,8|0,0:1|0:0,0:0:0:0:
189,304,21203,5,10,0:1:0:0:
317,249,21384,1,0,0:0:0:0:
185,330,21565,1,8,0:1:0:0:
286,354,21746,1,0,0:0:0:0:
158,236,21926,1,8,0:1:0:0:
111,384,22107,2,0,P|95:350|94:315,1,72,0|8,0:0|0:1,0:0:0:0:
225,131,22468,6,0,B|249:172|249:172|234:267,1,144,2|0,0:0|0:0,0:0:0:0:
55,223,23010,1,8,0:1:0:0:
93,316,23191,1,0,0:0:0:0:
158,236,23372,1,8,0:1:0:0:
186,381,23553,1,0,0:0:0:0:
256,264,23733,2,0,P|294:245|329:243,1,72,8|0,0:1|0:0,0:0:0:0:
369,384,24095,6,0,P|333:360|314:331,1,72,10|0,0:1|0:0,0:0:0:0:
417,227,24456,2,0,P|414:269|398:300,1,72,8|0,0:1|0:0,0:0:0:0:
363,150,24818,2,0,P|401:131|436:129,1,72,8|0,0:1|0:0,0:0:0:0:
322,242,25179,2,0,P|286:237|255:220,1,72,8|0,0:1|0:0,0:0:0:0:
256,59,25541,6,0,L|274:148,1,72,10|0,0:1|0:0,0:0:0:0:
214,330,25902,1,8,0:0:0:0:
68,226,26083,2,0,L|22:209,1,40.4999987640381,8|0,0:1|0:0,0:0:0:0:
15,307,26263,5,8,0:1:0:0:
56,321,26353,1,8,0:1:0:0:
99,316,26443,1,8,0:1:0:0:
136,293,26534,1,8,0:1:0:0:
159,256,26625,1,4,0:0:0:0:
180,217,26715,1,4,0:0:0:0:
217,194,26805,1,4,0:0:0:0:
260,189,26896,1,4,0:0:0:0:
302,204,26986,6,0,P|325:243|330:291,1,90,14|0,0:1|0:0,0:0:0:0:
108,135,27348,2,0,P|157:125|206:114,1,90,8|0,0:0|0:0,0:0:0:0:
330,286,27709,2,0,P|280:276|232:265,1,90,8|0,0:1|0:0,0:0:0:0:
330,83,28071,1,8,0:0:0:0:
406,237,28251,6,0,P|416:315|340:377,1,180,2|0,0:1|0:0,0:0:0:0:
167,250,28794,1,8,0:0:0:0:
335,183,28974,2,0,B|395:193|395:193|438:231|438:231|500:240,1,180,0|0,0:1|0:0,0:0:0:0:
418,68,29516,1,8,0:0:0:0:
335,183,29697,1,0,0:0:0:0:
247,30,29878,6,0,P|197:20|149:9,1,90,10|0,0:1|0:0,0:0:0:0:
57,179,30239,1,8,0:0:0:0:
186,124,30420,1,0,0:0:0:0:
260,301,30601,2,0,P|304:299|341:275,1,90,8|0,0:1|0:0,0:0:0:0:
372,79,30962,1,8,0:0:0:0:
438,224,31143,6,0,P|451:270|441:324,1,90,2|8,0:0|0:1,0:0:0:0:
276,131,31504,2,0,P|263:88|268:43,1,90,0|8,0:0|0:0,0:0:0:0:
361,179,31866,2,0,P|327:213|275:231,1,90,0|8,0:0|0:1,0:0:0:0:
130,194,32227,1,0,0:0:0:0:
268,43,32408,2,0,P|311:33|356:24,1,90,8|0,0:0|0:0,0:0:0:0:
448,197,32770,6,0,P|405:187|361:179,1,90,10|0,0:1|0:0,0:0:0:0:
176,99,33131,1,8,0:0:0:0:
199,249,33312,1,0,0:0:0:0:
318,80,33492,1,8,0:1:0:0:
122,188,33673,2,0,L|103:286,1,90,0|8,0:0|0:0,0:0:0:0:
301,368,34035,6,0,P|380:373|442:287,1,180,0|0,0:0|0:0,0:0:0:0:
276,166,34577,1,8,0:0:0:0:
477,204,34757,1,0,0:0:0:0:
346,281,34938,1,8,0:1:0:0:
407,89,35119,1,0,0:0:0:0:
255,262,35300,2,0,P|205:264|167:246,1,90,8|0,0:0|0:0,0:0:0:0:
266,44,35661,5,10,0:1:0:0:
376,185,35842,1,0,0:0:0:0:
188,109,36023,1,8,0:0:0:0:
362,19,36203,1,0,0:0:0:0:
459,208,36384,2,0,L|448:300,1,90,8|0,0:1|0:0,0:0:0:0:
276,133,36745,2,0,L|265:43,1,90,8|0,0:0|0:0,0:0:0:0:
122,198,37107,6,0,B|182:208|182:208|215:242|215:242|285:254,1,180,10|8,0:1|0:0,0:0:0:0:
459,208,37649,1,8,0:1:0:0:
339,346,37830,1,8,0:1:0:0:
299,366,37920,1,8,0:1:0:0:
255,377,38010,1,8,0:1:0:0:
210,379,38101,1,8,0:1:0:0:
166,371,38191,1,4,0:0:0:0:
125,354,38281,1,12,0:0:0:0:
88,328,38372,1,12,0:0:0:0:
58,295,38462,1,0,0:0:0:0:
35,256,38552,5,14,0:1:0:0:
159,48,38733,1,8,0:1:0:0:
282,256,38914,1,8,0:1:0:0:
282,256,39276,1,12,0:1:0:0:
315,130,39456,1,4,0:0:0:0:
340,93,39546,1,4,0:0:0:0:
379,71,39636,1,4,0:0:0:0:
423,69,39727,1,4,0:0:0:0:
464,87,39818,6,0,P|486:129|495:186,1,90,14|0,0:1|0:0,0:0:0:0:
394,326,40179,1,8,0:1:0:0:
226,173,40360,1,8,0:0:0:0:
401,220,40541,1,0,0:0:0:0:
401,220,40631,1,0,0:0:0:0:
401,220,40721,1,8,0:1:0:0:
219,279,40902,1,8,0:1:0:0:
163,76,41083,1,8,0:0:0:0:
323,152,41263,1,8,0:1:0:0:
124,197,41444,5,14,0:1:0:0:
355,271,41625,1,8,0:0:0:0:
305,32,41806,1,8,0:1:0:0:
305,32,42167,1,8,0:1:0:0:
229,209,42348,1,8,0:1:0:0:
420,167,42529,1,8,0:0:0:0:
393,372,42709,6,0,P|306:362|197:355,1,180,14|8,0:1|0:1,0:0:0:0:
302,172,43251,1,8,0:0:0:0:
435,256,43432,2,0,P|457:254|476:243,1,45,8|8,0:1|0:1,0:0:0:0:
359,94,43613,5,8,0:1:0:0:
317,77,43703,1,8,0:1:0:0:
273,80,43793,1,8,0:1:0:0:
234,103,43884,1,8,0:1:0:0:
209,139,43974,1,4,0:0:0:0:
183,175,44064,1,4,0:0:0:0:
144,198,44154,1,4,0:0:0:0:
100,201,44245,1,4,0:0:0:0:
58,185,44336,6,0,P|32:97|115:49,1,180,14|8,0:1|0:0,0:0:0:0:
257,205,44878,1,0,0:0:0:0:
257,205,44968,1,0,0:0:0:0:
257,205,45059,2,0,P|257:251|239:299,1,90,8|0,0:1|0:0,0:0:0:0:
103,365,45420,2,0,P|88:322|88:277,1,90,8|0,0:0|0:0,0:0:0:0:
238,101,45782,6,0,B|298:111|298:111|331:145|331:145|401:157,1,180,10|8,0:1|0:0,0:0:0:0:
276,274,46324,1,0,0:0:0:0:
276,274,46414,1,0,0:0:0:0:
276,274,46504,2,0,L|187:260,1,90,8|0,0:1|0:0,0:0:0:0:
66,145,46866,2,0,L|154:158,1,90,8|0,0:0|0:0,0:0:0:0:
143,355,47227,6,0,P|77:362|-3:273,1,180,10|8,0:1|0:0,0:0:0:0:
155,158,47770,1,0,0:0:0:0:
155,158,47860,1,0,0:0:0:0:
155,158,47950,2,0,P|242:157|298:223,1,180,8|8,0:1|0:0,0:0:0:0:
143,355,48492,1,0,0:0:0:0:
70,218,48673,2,0,L|57:128,1,90,10|0,0:1|0:0,0:0:0:0:
267,66,49035,5,8,0:0:0:0:
199,252,49215,1,0,0:0:0:0:
199,252,49306,1,0,0:0:0:0:
199,252,49396,1,8,0:1:0:0:
70,218,49577,1,0,0:0:0:0:
278,168,49757,1,8,0:0:0:0:
217,373,49938,1,0,0:0:0:0:
177,145,50119,6,0,B|52:121|52:121|-11:155,1,180,14|8,0:1|0:0,0:0:0:0:
121,324,50661,1,0,0:0:0:0:
121,324,50751,1,0,0:0:0:0:
121,324,50842,2,0,P|205:309|306:297,1,180,8|8,0:1|0:0,0:0:0:0:
469,286,51384,1,0,0:0:0:0:
256,208,51565,5,10,0:1:0:0:
400,241,51745,1,8,0:0:0:0:
438,218,51835,1,8,0:0:0:0:
460,179,51925,1,4,0:0:0:0:
460,135,52016,1,4,0:0:0:0:
438,96,52107,1,8,0:1:0:0:
397,77,52197,1,8,0:1:0:0:
354,85,52287,1,8,0:1:0:0:
323,117,52378,1,8,0:1:0:0:
282,135,52468,1,8,0:1:0:0:
239,127,52558,1,8,0:1:0:0:
208,95,52649,5,8,0:0:0:0:
388,158,52830,1,8,0:1:0:0:
106,233,53010,5,14,0:1:0:0:
178,7,53191,1,8,0:1:0:0:
315,286,53372,5,8,0:0:0:0:
277,53,53553,1,8,0:1:0:0:
14,237,53733,5,8,0:0:0:0:
289,156,53914,1,8,0:1:0:0:
237,384,54095,1,8,0:1:0:0:
103,111,54276,5,8,0:1:0:0:
394,241,54456,1,8,0:1:0:0:
48,377,54637,1,8,0:0:0:0:
48,377,54998,6,0,L|10:220,1,144
103,111,55541,1,0,0:0:0:0:
166,215,55721,1,0,0:0:0:0:
296,56,55902,6,0,P|390:45|450:119,1,198.000006042481,14|8,0:1|0:0,0:0:0:0:
269,295,56444,2,0,P|245:256|243:196,1,99.0000030212403,0|8,0:0|0:1,0:0:0:0:
425,240,56806,1,0,0:0:0:0:
325,379,56986,1,8,0:0:0:0:
241,203,57167,1,0,0:0:0:0:
415,334,57348,6,0,L|514:314,1,99.0000030212403,10|0,0:1|0:0,0:0:0:0:
355,136,57709,1,8,0:0:0:0:
269,295,57890,1,0,0:0:0:0:
113,166,58071,1,8,0:1:0:0:
278,201,58251,1,0,0:0:0:0:
68,273,58432,1,8,0:0:0:0:
43,97,58613,1,0,0:0:0:0:
185,228,58794,6,0,P|234:223|277:200,1,99.0000030212403,10|0,0:1|0:0,0:0:0:0:
181,11,59155,1,8,0:0:0:0:
113,166,59336,2,0,L|96:275,1,99.0000030212403,0|8,0:0|0:1,0:0:0:0:
288,105,59697,2,0,L|272:7,1,99.0000030212403,0|8,0:0|0:0,0:0:0:0:
88,63,60059,1,0,0:0:0:0:
225,209,60239,6,0,L|322:193,1,99.0000030212403,10|0,0:1|0:0,0:0:0:0:
484,100,60601,1,8,0:0:0:0:
398,268,60782,2,0,B|330:279|330:279|287:319|287:319|217:330,1,198.000006042481,0|0,0:0|0:0,0:0:0:0:
72,185,61324,1,8,0:0:0:0:
225,209,61504,1,0,0:0:0:0:
110,384,61685,6,0,P|97:338|108:282,1,99.0000030212403,10|0,0:1|0:0,0:0:0:0:
240,112,62047,1,8,0:0:0:0:
98,188,62227,2,0,P|48:180|-17:174,1,99.0000030212403,0|8,0:0|0:1,0:0:0:0:
139,40,62589,2,0,P|188:32|254:26,1,99.0000030212403,0|8,0:0|0:0,0:0:0:0:
362,189,62950,1,0,0:0:0:0:
188,216,63131,6,0,P|139:213|97:187,1,99.0000030212403,10|0,0:1|0:0,0:0:0:0:
325,25,63492,2,0,L|302:127,1,99.0000030212403,8|0,0:0|0:0,0:0:0:0:
118,284,63854,2,0,L|96:187,1,99.0000030212403,8|0,0:1|0:0,0:0:0:0:
210,32,64215,1,8,0:0:0:0:
356,253,64396,1,0,0:0:0:0:
356,253,64486,1,0,0:0:0:0:
356,253,64577,5,14,0:1:0:0:
96,187,64757,1,0,0:0:0:0:
325,54,64938,5,8,0:0:0:0:
137,298,65119,1,8,0:1:0:0:
415,122,65300,5,8,0:0:0:0:
224,384,65480,1,8,0:1:0:0:
512,157,65661,5,8,0:0:0:0:
364,384,65842,1,8,0:1:0:0:
205,177,66023,5,14,0:1:0:0:
157,164,66113,1,4,0:0:0:0:
109,173,66203,1,4,0:0:0:0:
68,202,66294,1,4,0:0:0:0:
44,244,66384,1,8,0:0:0:0:
224,384,66565,6,0,L|328:368,1,99.0000030212403,14|8,0:1|0:1,0:0:0:0:
370,359,66836,1,8,0:1:0:0:
411,332,66926,1,8,0:1:0:0:
436,290,67016,1,8,0:1:0:0:
440,241,67107,1,4,0:0:0:0:
422,195,67197,1,4,0:0:0:0:
387,161,67287,1,4,0:0:0:0:
340,147,67378,1,4,0:0:0:0:
290,152,67468,6,0,P|191:149|93:144,1,198.000006042481,14|8,0:1|0:0,0:0:0:0:
238,13,68010,2,0,L|336:6,1,99.0000030212403,0|8,0:0|0:1,0:0:0:0:
429,174,68372,1,0,0:0:0:0:
336,5,68553,1,8,0:0:0:0:
290,152,68733,1,0,0:0:0:0:
136,45,68914,6,0,P|45:58|9:157,1,198.000006042481,10|8,0:1|0:0,0:0:0:0:
233,268,69456,1,0,0:0:0:0:
105,135,69637,1,8,0:1:0:0:
267,63,69818,1,0,0:0:0:0:
97,231,69998,1,8,0:0:0:0:
24,28,70179,1,0,0:0:0:0:
232,166,70360,6,0,P|283:168|329:149,1,99.0000030212403,14|0,0:1|0:0,0:0:0:0:
434,6,70721,1,8,0:0:0:0:
267,63,70902,2,0,L|170:48,1,99.0000030212403,0|14,0:0|0:1,0:0:0:0:
56,263,71263,2,0,L|153:248,1,99.0000030212403,0|8,0:0|0:0,0:0:0:0:
105,135,71625,1,0,0:0:0:0:
258,289,71806,6,0,P|326:297|414:196,1,198.000006042481,14|8,0:1|0:0,0:0:0:0:
267,63,72348,1,0,0:0:0:0:
177,203,72529,1,8,0:1:0:0:
177,203,72619,2,0,B|155:251|155:251|166:309,1,99.0000030212403,8|0,0:0|0:0,0:0:0:0:
198,364,72890,2,0,B|246:386|246:386|304:375,1,99.0000030212403,8|0,0:0|0:0,0:0:0:0:
411,211,73251,5,14,0:1:0:0:
258,289,73432,1,0,0:0:0:0:
450,376,73613,1,8,0:0:0:0:
417,241,73794,1,0,0:0:0:0:
248,317,73974,1,8,0:1:0:0:
227,136,74155,2,0,P|178:108|126:105,1,99.0000030212403,0|8,0:0|0:0,0:0:0:0:
0,268,74516,6,0,P|81:280|158:188,1,198.000006042481,6|0,0:1|0:0,0:0:0:0:
54,36,75059,1,8,0:0:0:0:
227,136,75239,2,0,L|291:115,1,49.5000015106202,0|0,0:0|0:0,0:0:0:0:
439,214,75420,5,8,0:1:0:0:
457,259,75510,1,8,0:1:0:0:
453,308,75600,1,8,0:1:0:0:
427,350,75691,1,8,0:1:0:0:
385,376,75782,2,0,L|334:368,1,49.5000015106202,4|4,0:0|0:0,0:0:0:0:
302,229,75962,2,0,L|251:237,1,49.5000015106202,4|4,0:0|0:0,0:0:0:0:
128,343,76143,5,14,0:1:0:0:
144,165,76324,1,8,0:1:0:0:
242,351,76504,1,8,0:1:0:0:
46,384,76685,1,8,0:1:0:0:
253,236,76866,2,0,L|352:222,1,99.0000030212403,14|8,0:1|0:1,0:0:0:0:
116,80,77227,2,0,L|17:66,1,99.0000030212403,8|8,0:1|0:1,0:0:0:0:
288,145,77589,6,0,L|387:131,1,99.0000030212403,14|8,0:1|0:1,0:0:0:0:
131,306,77950,2,0,L|32:292,1,99.0000030212403,8|8,0:1|0:1,0:0:0:0:
253,54,78312,2,0,L|352:40,1,99.0000030212403,14|8,0:1|0:1,0:0:0:0:
98,185,78673,2,0,L|-1:171,1,99.0000030212403,8|8,0:1|0:1,0:0:0:0:
171,3,79035,5,14,0:1:0:0:
213,204,79215,1,8,0:1:0:0:
351,40,79396,1,8,0:1:0:0:
317,264,79577,1,8,0:1:0:0:
169,107,79757,5,8,0:1:0:0:
120,98,79847,1,8,0:1:0:0:
72,109,79937,1,8,0:1:0:0:
32,137,80028,1,8,0:1:0:0:
5,178,80118,1,4,0:0:0:0:
0,226,80208,1,4,0:0:0:0:
5,275,80299,1,4,0:0:0:0:
33,316,80389,1,4,0:0:0:0:
73,342,80480,6,0,B|140:348|197:299|197:299|265:324|265:324|332:251|446:265,1,405.000015449525,10|0,0:1|0:0,0:0:0:0:
445,264,81926,6,0,P|450:219|454:174,1,90,14|0,0:1|0:0,0:0:0:0:
334,21,82287,1,8,0:0:0:0:
504,91,82468,1,0,0:0:0:0:
504,91,82559,1,0,0:0:0:0:
504,91,82649,1,8,0:1:0:0:
360,176,82830,1,0,0:0:0:0:
462,6,83010,1,8,0:0:0:0:
285,112,83191,6,0,B|225:102|225:102|182:64|182:64|120:55,1,180,14|8,0:1|0:1,0:0:0:0:
0,210,83733,1,8,0:0:0:0:
147,153,83914,1,0,0:0:0:0:
147,153,84004,1,0,0:0:0:0:
147,153,84095,1,8,0:1:0:0:
41,289,84275,1,0,0:0:0:0:
23,97,84456,2,0,P|27:52|32:7,1,90,8|0,0:0|0:0,0:0:0:0:
234,100,84818,6,0,P|238:145|243:190,1,90,14|0,0:1|0:0,0:0:0:0:
145,356,85179,1,8,0:0:0:0:
315,276,85360,1,0,0:0:0:0:
315,276,85450,1,0,0:0:0:0:
315,276,85540,1,8,0:1:0:0:
147,153,85721,1,0,0:0:0:0:
147,328,85902,1,8,0:0:0:0:
285,128,86083,6,0,P|373:116|474:102,1,180,14|0,0:1|0:1,0:0:0:0:
512,306,86625,1,8,0:0:0:0:
378,201,86805,1,8,0:1:0:0:
274,357,86986,5,8,0:1:0:0:
234,378,87076,1,8,0:1:0:0:
190,387,87166,1,8,0:1:0:0:
146,380,87257,1,8,0:1:0:0:
106,360,87347,1,4,0:0:0:0:
75,327,87437,1,4,0:0:0:0:
56,287,87528,1,4,0:0:0:0:
52,242,87618,1,4,0:0:0:0:
61,198,87708,1,14,0:1:0:0:
256,192,87800,12,0,93492,0:0:0:0:
