osu file format v14

[General]
AudioFilename: optc.mp3
AudioLeadIn: 0
PreviewTime: 54998
Countdown: 0
SampleSet: Soft
StackLeniency: 0.7
Mode: 0
LetterboxInBreaks: 0
WidescreenStoryboard: 1

[Editor]
Bookmarks: 962,6745,9637,15420,21203,26986,32770,38553,42800,44336,50119,55902,61685,67468,73251,79035,81926,87709,93492
DistanceSpacing: 1
BeatDivisor: 4
GridSize: 8
TimelineZoom: 1.66

[Metadata]
Title:Cynthia No Hikari
TitleUnicode:シンシアの光
Artist:Eir Aoi
ArtistUnicode:藍井エイル
Creator:Shad0w1and
Version:Kencho's Insane
Source:ソードアート・オンライン -ロスト・ソング-
Tags:Sword Art Online Lost Song SAO Lami intoon Kencho Doormat Misure Pata-Mon
BeatmapID:1355778
BeatmapSetID:504005

[Difficulty]
HPDrainRate:5.4
CircleSize:3.6
OverallDifficulty:7.8
ApproachRate:9
SliderMultiplier:1.6
SliderTickRate:1

[Events]
//Background and Video events
Video,0,"optc.flv"
0,0,"BG4.jpg",0,0
//Break Periods
//Storyboard Layer 0 (Background)
//Storyboard Layer 1 (Fail)
//Storyboard Layer 2 (Pass)
//Storyboard Layer 3 (Foreground)
//Storyboard Sound Samples

[TimingPoints]
-483,361.44578313253,4,2,1,50,1,0
59,-125,4,2,1,50,0,0
962,-125,4,2,1,60,0,0
6745,-200,4,2,1,50,0,0
8191,-125,4,2,1,60,0,0
9276,-83.3333333333333,4,2,1,70,0,0
9637,-83.3333333333333,4,2,1,80,0,1
9727,-83.3333333333333,4,2,1,80,0,0
14697,-83.3333333333333,4,2,1,70,0,0
15420,-125,4,2,1,60,0,0
26986,-100,4,2,1,70,0,0
38553,-100,4,2,1,80,0,0
39456,-100,4,2,1,70,0,0
39818,-100,4,2,1,80,0,0
43432,-100,4,2,1,70,0,0
44336,-100,4,2,1,80,0,0
53010,-100,4,2,1,70,0,0
54998,-100,4,2,1,50,0,0
55902,-83.3333333333333,4,2,1,90,0,1
66023,-83.3333333333333,4,2,1,70,0,1
66565,-83.3333333333333,4,2,1,80,0,1
67378,-83.3333333333333,4,2,1,80,0,0
67468,-83.3333333333333,4,2,1,90,0,1
80480,-83.3333333333333,4,2,1,50,0,0
81926,-83.3333333333333,4,2,1,80,0,1
82016,-83.3333333333333,4,2,1,80,0,0
86986,-83.3333333333333,4,2,1,70,0,0
87709,-100,4,2,1,90,0,0
87800,-100,4,2,1,40,0,0
88432,-100,4,2,1,35,0,0
89155,-100,4,2,1,30,0,0
89878,-100,4,2,1,25,0,0
90601,-100,4,2,1,20,0,0
91324,-100,4,2,1,15,0,0
92047,-100,4,2,1,10,0,0
92770,-100,4,2,1,5,0,0

[Colours]
Combo1 : 255,238,119
Combo2 : 60,247,153
Combo3 : 79,109,255
Combo4 : 245,82,106

[HitObjects]
56,333,59,6,0,L|183:321,1,128,2|0,0:0|0:0,0:0:0:0:
207,234,601,2,0,P|175:232|144:240,1,64,2|0,0:0|0:0,0:0:0:0:
281,287,962,6,0,P|297:226|271:170,1,128,2|0,0:0|0:0,0:0:0:0:
206,106,1504,2,0,P|267:122|323:96,1,128,2|0,0:0|0:0,0:0:0:0:
345,8,2047,1,2,0:0:0:0:
259,32,2227,1,0,0:0:0:0:
323,95,2408,6,0,L|450:83,1,128,2|0,0:0|0:0,0:0:0:0:
443,172,2950,1,2,0:0:0:0:
443,172,3131,2,0,L|437:236,1,64,0|0,0:0|0:0,0:0:0:0:
356,275,3492,2,0,L|362:339,1,64,2|0,0:0|0:0,0:0:0:0:
449,363,3854,6,0,L|437:236,1,128,2|0,0:0|0:0,0:0:0:0:
356,275,4396,2,0,B|324:284|324:284|230:274,1,128,2|0,0:0|0:0,0:0:0:0:
141,260,4938,1,2,0:0:0:0:
197,190,5119,1,0,0:0:0:0:
230,274,5300,6,0,P|199:329|140:351,1,128,2|0,0:0|0:0,0:0:0:0:
66,300,5842,2,0,B|57:268|57:268|67:174,1,128,2|0,0:0|0:0,0:0:0:0:
81,85,6384,1,2,0:0:0:0:
151,141,6565,1,0,0:0:0:0:
67,174,6745,6,0,P|70:56|151:141,1,300,2|0,0:0|0:0,0:0:0:0:
151,141,8191,6,0,L|182:138,3,32,2|0|0|0,0:0|0:0|0:0|0:0,0:0:0:0:
67,174,8553,2,0,L|36:171,3,32,0|0|0|0,0:0|0:0|0:0|0:0,0:0:0:0:
137,231,8914,2,0,L|232:222,1,96,0|0,0:0|0:0,0:0:0:0:
265,219,9276,6,0,L|260:266,1,47.9999985351563,4|4,0:0|0:0,0:0:0:0:
251,362,9456,2,0,L|298:357,1,47.9999985351563,4|4,0:0|0:0,0:0:0:0:
394,348,9637,6,0,L|385:253,1,95.9999970703126,14|0,0:1|0:0,0:0:0:0:
274,123,9998,2,0,L|265:218,1,95.9999970703126,8|0,0:0|0:0,0:0:0:0:
260,267,10270,1,0,0:0:0:0:
260,267,10360,2,0,L|355:258,1,95.9999970703126,8|0,0:1|0:0,0:0:0:0:
173,163,10721,1,8,0:0:0:0:
220,354,10902,6,0,L|411:336,1,191.999994140625,14|8,0:1|0:1,0:0:0:0:
297,153,11444,1,8,0:0:0:0:
260,267,11625,1,0,0:0:0:0:
260,267,11715,1,0,0:0:0:0:
260,267,11806,2,0,L|355:258,1,95.9999970703126,8|0,0:1|0:0,0:0:0:0:
204,189,12167,1,8,0:0:0:0:
220,354,12348,1,0,0:0:0:0:
299,180,12529,6,0,P|284:135|248:103,1,95.9999970703126,14|0,0:1|0:0,0:0:0:0:
108,198,12890,2,0,P|114:151|144:113,1,95.9999970703126,8|0,0:0|0:0,0:0:0:0:
204,189,13161,1,0,0:0:0:0:
204,189,13251,2,0,L|213:284,1,95.9999970703126,8|0,0:1|0:0,0:0:0:0:
108,198,13613,1,8,0:0:0:0:
249,103,13794,6,0,P|342:100|390:176,1,191.999994140625,14|8,0:1|0:1,0:0:0:0:
396,333,14336,1,8,0:0:0:0:
299,180,14516,1,8,0:1:0:0:
439,253,14697,6,0,L|483:277,1,47.9999985351563,8|8,0:1|0:1,0:0:0:0:
256,260,14878,2,0,L|212:236,1,47.9999985351563,8|8,0:1|0:1,0:0:0:0:
390,176,15059,2,0,L|431:150,1,47.9999985351563,4|4,0:0|0:0,0:0:0:0:
305,337,15239,2,0,L|264:363,1,47.9999985351563,4|4,0:0|0:0,0:0:0:0:
299,180,15420,6,0,L|293:116,1,64,14|0,0:1|0:0,0:0:0:0:
368,29,15782,2,0,L|374:93,1,64,8|0,0:1|0:0,0:0:0:0:
212,140,16143,2,0,L|206:76,1,64,8|0,0:1|0:0,0:0:0:0:
299,180,16504,1,8,0:1:0:0:
220,235,16685,6,0,L|156:241,1,64,0|8,0:0|0:1,0:0:0:0:
299,180,17047,2,0,L|363:174,1,64,0|8,0:0|0:1,0:0:0:0:
212,140,17408,2,0,L|148:146,1,64,0|0,0:0|0:0,0:0:0:0:
307,275,17770,2,0,L|371:269,1,64,0|8,0:0|0:1,0:0:0:0:
299,180,18131,1,0,0:0:0:0:
220,235,18312,6,0,P|212:266|214:298,1,64,10|0,0:1|0:0,0:0:0:0:
299,180,18673,2,0,P|276:156|249:143,1,64,8|0,0:1|0:0,0:0:0:0:
155,164,19035,1,8,0:1:0:0:
220,235,19215,1,0,0:0:0:0:
183,72,19396,1,8,0:1:0:0:
61,186,19577,6,0,L|67:250,1,64,0|8,0:0|0:1,0:0:0:0:
75,345,19938,2,0,L|139:339,1,64,0|8,0:0|0:1,0:0:0:0:
234,331,20300,2,0,L|228:267,1,64,0|8,0:0|0:1,0:0:0:0:
220,172,20661,2,0,L|156:178,1,64,0|8,0:0|0:1,0:0:0:0:
61,186,21023,1,0,0:0:0:0:
102,99,21203,6,0,P|131:85|163:82,1,64,10|0,0:1|0:0,0:0:0:0:
201,222,21565,2,0,P|174:203|156:178,1,64,8|0,0:1|0:0,0:0:0:0:
241,135,21926,1,8,0:1:0:0:
296,214,22107,2,0,L|290:278,1,64,0|8,0:0|0:1,0:0:0:0:
162,82,22468,6,0,L|168:18,1,64,2|0,0:0|0:0,0:0:0:0:
241,135,22830,1,0,0:0:0:0:
156,178,23010,2,0,P|124:171|99:154,1,64,8|0,0:1|0:0,0:0:0:0:
241,135,23372,1,8,0:1:0:0:
235,231,23553,1,0,0:0:0:0:
162,82,23733,2,0,P|184:58|211:45,1,64,8|0,0:1|0:0,0:0:0:0:
320,188,24095,6,0,P|297:213|270:226,1,64,10|0,0:1|0:0,0:0:0:0:
350,95,24456,2,0,P|373:120|400:133,1,64,8|0,0:1|0:0,0:0:0:0:
263,1,24818,2,0,L|257:65,1,64,8|0,0:1|0:0,0:0:0:0:
413,218,25179,2,0,L|407:154,1,64,8|0,0:1|0:0,0:0:0:0:
270,226,25541,6,0,L|264:290,1,64,10|0,0:1|0:0,0:0:0:0:
310,139,25902,1,8,0:0:0:0:
183,186,26083,2,0,L|180:218,1,32,8|0,0:1|0:0,0:0:0:0:
152,275,26263,5,8,0:1:0:0:
175,253,26353,1,8,0:1:0:0:
205,242,26443,1,8,0:1:0:0:
236,245,26534,1,8,0:1:0:0:
264,260,26625,5,4,0:0:0:0:
284,285,26714,1,4,0:0:0:0:
292,315,26805,1,4,0:0:0:0:
287,347,26895,1,4,0:0:0:0:
271,375,26986,6,0,L|351:367,1,80,14|0,0:1|0:0,0:0:0:0:
367,207,27348,2,0,L|359:287,1,80,8|0,0:0|0:0,0:0:0:0:
207,223,27709,2,0,L|287:215,1,80,8|0,0:1|0:0,0:0:0:0:
198,319,28071,1,8,0:0:0:0:
129,167,28251,6,0,P|157:139|196:127,1,80,2|0,0:1|0:0,0:0:0:0:
73,245,28613,2,0,P|45:217|33:178,1,80,0|8,0:0|0:0,0:0:0:0:
187,47,28974,2,0,L|195:127,1,80,0|0,0:1|0:0,0:0:0:0:
65,324,29336,2,0,L|73:244,1,80,0|8,0:0|0:0,0:0:0:0:
85,125,29697,1,0,0:0:0:0:
207,223,29878,6,0,P|244:209|273:181,1,80,10|0,0:1|0:0,0:0:0:0:
281,6,30239,2,0,P|274:45|282:84,1,80,8|0,0:0|0:0,0:0:0:0:
360,140,30601,1,8,0:1:0:0:
369,44,30782,1,0,0:0:0:0:
282,84,30962,1,8,0:0:0:0:
438,196,31143,6,0,P|453:160|454:120,1,80,2|8,0:0|0:1,0:0:0:0:
282,84,31504,2,0,P|267:120|266:160,1,80,0|8,0:0|0:0,0:0:0:0:
447,100,31866,2,0,L|367:92,1,80,0|8,0:0|0:1,0:0:0:0:
232,263,32227,2,0,L|312:255,1,80,0|8,0:0|0:0,0:0:0:0:
408,246,32589,1,0,0:0:0:0:
367,92,32770,6,0,P|352:128|351:168,1,80,10|0,0:1|0:0,0:0:0:0:
488,238,33131,2,0,L|408:246,1,80,8|0,0:0|0:0,0:0:0:0:
312,255,33492,1,8,0:1:0:0:
335,92,33673,2,0,P|350:128|351:168,1,80,0|8,0:0|0:0,0:0:0:0:
177,156,34035,6,0,L|257:148,1,80,0|0,0:0|0:0,0:0:0:0:
94,205,34396,1,0,0:0:0:0:
128,73,34577,2,0,L|208:65,1,80,8|0,0:0|0:0,0:0:0:0:
94,205,34938,1,8,0:1:0:0:
45,122,35119,1,0,0:0:0:0:
177,156,35300,2,0,P|190:196|187:234,1,80,8|0,0:0|0:0,0:0:0:0:
165,327,35661,6,0,L|245:319,1,80,10|0,0:1|0:0,0:0:0:0:
416,299,36023,2,0,L|336:291,1,80,8|0,0:0|0:0,0:0:0:0:
187,233,36384,2,0,L|267:225,1,80,8|0,0:1|0:0,0:0:0:0:
438,205,36745,2,0,L|358:197,1,80,8|0,0:0|0:0,0:0:0:0:
327,369,37107,6,0,P|339:329|336:291,1,80,10|0,0:1|0:0,0:0:0:0:
289,132,37468,1,8,0:0:0:0:
187,233,37649,2,0,L|227:229,1,40,8|0,0:1|0:0,0:0:0:0:
336,291,37830,5,8,0:1:0:0:
339,262,37920,1,8,0:1:0:0:
342,232,38010,1,8,0:1:0:0:
345,202,38101,1,8,0:1:0:0:
348,172,38191,6,0,L|308:168,1,40,4|12,0:0|0:0,0:0:0:0:
228,160,38372,2,0,L|188:156,1,40,12|0,0:0|0:0,0:0:0:0:
260,255,38553,5,14,0:1:0:0:
278,73,38733,1,8,0:1:0:0:
428,180,38914,1,8,0:1:0:0:
428,180,39276,2,0,L|348:172,1,80,12|4,0:1|0:0,0:0:0:0:
308,168,39547,1,4,0:0:0:0:
308,168,39637,2,0,L|312:128,1,40,4|4,0:0|0:0,0:0:0:0:
324,9,39818,6,0,L|312:129,1,120,14|0,0:1|0:0,0:0:0:0:
308,168,40179,2,0,L|300:248,1,80,8|8,0:1|0:0,0:0:0:0:
192,140,40541,6,0,L|232:136,1,40,0|0,0:0|0:0,0:0:0:0:
312,128,40721,1,8,0:1:0:0:
180,259,40902,1,8,0:1:0:0:
204,21,41083,1,8,0:0:0:0:
300,247,41263,1,8,0:1:0:0:
82,189,41444,5,14,0:1:0:0:
312,128,41625,1,8,0:0:0:0:
250,357,41806,1,8,0:1:0:0:
250,357,42167,2,0,L|242:277,1,80,8|8,0:1|0:1,0:0:0:0:
170,365,42529,1,8,0:0:0:0:
330,349,42709,6,0,L|322:269,1,80,14|0,0:1|0:0,0:0:0:0:
250,357,43071,1,8,0:1:0:0:
410,341,43251,2,0,L|402:261,1,80,8|8,0:0|0:1,0:0:0:0:
398,221,43523,1,8,0:1:0:0:
398,221,43613,6,0,L|394:181,1,40,8|8,0:1|0:1,0:0:0:0:
306,109,43794,2,0,L|310:149,1,40,8|8,0:1|0:1,0:0:0:0:
238,237,43974,2,0,L|234:197,1,40,4|4,0:0|0:0,0:0:0:0:
146,125,44155,2,0,L|150:165,1,40,4|4,0:0|0:0,0:0:0:0:
211,53,44336,6,0,P|136:30|69:67,1,160,14|8,0:1|0:0,0:0:0:0:
154,205,44878,2,0,L|150:165,1,40,0|0,0:0|0:0,0:0:0:0:
89,277,45059,6,0,P|164:300|231:263,1,160,8|8,0:1|0:0,0:0:0:0:
324,85,45601,1,0,0:0:0:0:
437,190,45782,6,0,L|277:174,1,160,10|8,0:1|0:0,0:0:0:0:
160,350,46324,2,0,L|156:311,1,40,0|0,0:0|0:0,0:0:0:0:
72,278,46504,6,0,L|232:262,1,160,8|8,0:1|0:0,0:0:0:0:
324,85,47047,1,0,0:0:0:0:
312,204,47227,6,0,L|296:364,1,160,10|8,0:1|0:0,0:0:0:0:
72,278,47770,2,0,L|111:274,1,40,0|0,0:0|0:0,0:0:0:0:
144,190,47950,6,0,L|160:350,1,160,8|8,0:1|0:0,0:0:0:0:
312,204,48492,1,0,0:0:0:0:
377,276,48673,6,0,P|302:299|235:262,1,160,10|8,0:1|0:0,0:0:0:0:
324,84,49215,2,0,L|320:123,1,40,0|0,0:0|0:0,0:0:0:0:
312,204,49396,5,8,0:1:0:0:
214,133,49577,1,0,0:0:0:0:
422,155,49757,1,8,0:0:0:0:
202,253,49938,1,0,0:0:0:0:
226,12,50119,6,0,P|289:58|288:135,1,160,14|8,0:1|0:0,0:0:0:0:
171,101,50661,2,0,L|210:97,1,40,0|0,0:0|0:0,0:0:0:0:
328,45,50842,6,0,L|312:205,1,160,8|8,0:1|0:0,0:0:0:0:
182,298,51384,1,0,0:0:0:0:
166,138,51565,5,10,0:1:0:0:
312,204,51745,2,0,L|273:208,1,40,8|8,0:0|0:0,0:0:0:0:
182,298,51926,5,4,0:0:0:0:
178,258,52016,1,4,0:0:0:0:
174,218,52107,1,8,0:1:0:0:
170,178,52197,1,8,0:1:0:0:
166,138,52287,5,8,0:1:0:0:
206,142,52378,1,8,0:1:0:0:
241,124,52468,1,8,0:1:0:0:
260,89,52559,1,8,0:1:0:0:
256,49,52649,6,0,L|264:129,1,80,8|8,0:0|0:1,0:0:0:0:
284,329,53010,5,14,0:1:0:0:
183,188,53191,1,8,0:1:0:0:
345,70,53372,5,8,0:0:0:0:
274,229,53553,1,8,0:1:0:0:
92,147,53733,5,8,0:0:0:0:
264,129,53914,1,8,0:1:0:0:
92,147,54095,1,8,0:1:0:0:
284,329,54276,5,8,0:1:0:0:
183,188,54457,1,8,0:1:0:0:
112,347,54637,5,8,0:0:0:0:
112,347,55902,6,0,B|176:341|176:341|234:369|234:369|297:363,1,191.999994140625,14|8,0:1|0:0,0:0:0:0:
261,174,56444,2,0,P|246:220|252:266,1,95.9999970703126,0|8,0:0|0:1,0:0:0:0:
355,124,56806,1,0,0:0:0:0:
155,171,56986,1,8,0:0:0:0:
352,230,57167,1,0,0:0:0:0:
352,230,57348,6,0,P|438:192|461:104,1,191.999994140625,10|8,0:1|0:0,0:0:0:0:
261,174,57890,1,0,0:0:0:0:
296,321,58071,1,8,0:1:0:0:
355,124,58251,1,0,0:0:0:0:
155,171,58432,1,8,0:0:0:0:
352,230,58613,1,0,0:0:0:0:
211,80,58794,6,0,P|165:65|119:71,1,95.9999970703126,10|0,0:1|0:0,0:0:0:0:
261,174,59155,1,8,0:0:0:0:
355,124,59336,2,0,L|364:29,1,95.9999970703126,0|8,0:0|0:1,0:0:0:0:
155,171,59697,2,0,L|164:266,1,95.9999970703126,0|8,0:0|0:0,0:0:0:0:
296,321,60059,1,0,0:0:0:0:
296,321,60239,6,0,P|339:249|259:221,1,191.999994140625,10|8,0:1|0:0,0:0:0:0:
111,344,60782,2,0,P|157:359|203:353,1,95.9999970703126,0|0,0:0|0:0,0:0:0:0:
377,270,61143,1,0,0:0:0:0:
251,125,61324,2,0,L|260:220,1,95.9999970703126,8|0,0:0|0:0,0:0:0:0:
162,68,61685,6,0,P|243:19|327:51,1,191.999994140625,10|8,0:1|0:0,0:0:0:0:
158,174,62227,2,0,P|111:171|63:165,1,95.9999970703126,0|8,0:0|0:1,0:0:0:0:
251,125,62589,2,0,P|257:173|260:220,1,95.9999970703126,0|8,0:0|0:0,0:0:0:0:
62,354,62950,1,0,0:0:0:0:
62,354,63131,6,0,P|56:306|53:259,1,95.9999970703126,10|0,0:1|0:0,0:0:0:0:
71,68,63492,2,0,P|119:62|166:59,1,95.9999970703126,8|0,0:0|0:0,0:0:0:0:
260,221,63854,2,0,P|213:218|165:212,1,95.9999970703126,8|0,0:1|0:0,0:0:0:0:
322,44,64215,1,8,0:0:0:0:
71,68,64396,1,0,0:0:0:0:
71,68,64486,1,0,0:0:0:0:
71,68,64577,5,14,0:1:0:0:
402,77,64757,1,0,0:0:0:0:
100,150,64938,5,8,0:0:0:0:
322,44,65119,1,8,0:1:0:0:
129,232,65300,5,8,0:0:0:0:
235,46,65480,1,8,0:1:0:0:
158,314,65661,5,8,0:0:0:0:
157,84,65842,1,8,0:1:0:0:
321,246,66023,5,14,0:1:0:0:
337,278,66113,1,4,0:0:0:0:
339,314,66203,1,4,0:0:0:0:
327,348,66294,1,4,0:0:0:0:
302,374,66384,2,0,L|254:369,1,47.9999985351563,8|0,0:0|0:0,0:0:0:0:
130,263,66565,6,0,L|225:254,1,95.9999970703126,14|8,0:1|0:1,0:0:0:0:
249,252,66836,1,8,0:1:0:0:
273,250,66926,2,0,L|268:202,1,47.9999985351563,8|8,0:1|0:1,0:0:0:0:
188,112,67107,6,0,L|193:160,1,47.9999985351563,4|4,0:0|0:0,0:0:0:0:
130,263,67288,2,0,L|125:215,1,47.9999985351563,4|4,0:0|0:0,0:0:0:0:
29,153,67468,6,0,L|47:344,1,191.999994140625,14|8,0:1|0:0,0:0:0:0:
222,272,68010,2,0,P|176:257|130:263,1,95.9999970703126,0|8,0:0|0:1,0:0:0:0:
313,327,68372,2,0,P|328:281|322:235,1,95.9999970703126,0|8,0:0|0:0,0:0:0:0:
235,160,68733,1,0,0:0:0:0:
209,384,68914,6,0,L|400:366,1,191.999994140625,10|8,0:1|0:0,0:0:0:0:
382,175,69456,1,0,0:0:0:0:
313,327,69637,1,8,0:1:0:0:
469,214,69818,1,0,0:0:0:0:
304,231,69998,1,8,0:0:0:0:
478,310,70179,1,0,0:0:0:0:
382,175,70360,6,0,P|346:144|300:134,1,95.9999970703126,14|0,0:1|0:0,0:0:0:0:
396,340,70721,1,8,0:0:0:0:
469,214,70902,2,0,P|477:168|463:123,1,95.9999970703126,0|14,0:0|0:1,0:0:0:0:
391,271,71263,2,0,P|427:302|473:312,1,95.9999970703126,0|8,0:0|0:0,0:0:0:0:
382,175,71625,1,0,0:0:0:0:
313,327,71806,6,0,P|385:267|382:176,1,191.999994140625,14|8,0:1|0:0,0:0:0:0:
287,223,72348,1,0,0:0:0:0:
473,312,72529,2,0,L|478:264,1,47.9999985351563,8|8,0:1|0:0,0:0:0:0:
488,169,72709,1,0,0:0:0:0:
287,223,72890,2,0,L|296:318,1,95.9999970703126,8|0,0:0|0:0,0:0:0:0:
191,232,73251,5,14,0:1:0:0:
383,214,73432,1,0,0:0:0:0:
246,310,73613,1,8,0:0:0:0:
328,136,73794,1,0,0:0:0:0:
342,301,73974,1,8,0:1:0:0:
232,145,74155,2,0,P|240:97|269:59,1,95.9999970703126,0|8,0:0|0:0,0:0:0:0:
479,205,74516,6,0,P|471:253|442:291,1,95.9999970703126,6|0,0:1|0:0,0:0:0:0:
287,222,74878,1,0,0:0:0:0:
383,214,75059,1,8,0:0:0:0:
342,301,75239,1,0,0:0:0:0:
328,136,75420,6,0,L|323:89,1,47.9999985351563,8|8,0:1|0:1,0:0:0:0:
383,214,75601,2,0,L|421:186,1,47.9999985351563,8|8,0:1|0:1,0:0:0:0:
342,301,75782,2,0,L|385:320,1,47.9999985351563,4|4,0:0|0:0,0:0:0:0:
246,310,75962,2,0,L|251:357,1,47.9999985351563,4|4,0:0|0:0,0:0:0:0:
232,145,76143,5,14,0:1:0:0:
383,214,76324,1,8,0:1:0:0:
191,232,76504,1,8,0:1:0:0:
328,136,76685,1,8,0:1:0:0:
150,319,76866,6,0,P|113:288|97:244,1,95.9999970703126,14|8,0:1|0:1,0:0:0:0:
369,49,77227,2,0,P|406:80|422:124,1,95.9999970703126,8|8,0:1|0:1,0:0:0:0:
136,154,77589,6,0,P|130:106|127:59,1,95.9999970703126,14|8,0:1|0:1,0:0:0:0:
383,214,77950,2,0,P|389:262|392:309,1,95.9999970703126,8|8,0:1|0:1,0:0:0:0:
246,148,78312,6,0,L|255:53,1,95.9999970703126,14|8,0:1|0:1,0:0:0:0:
317,273,78673,1,8,0:1:0:0:
154,258,78854,1,8,0:1:0:0:
246,148,79035,5,14,0:1:0:0:
222,381,79215,1,8,0:1:0:0:
104,180,79396,1,8,0:1:0:0:
317,273,79577,1,8,0:1:0:0:
90,324,79757,5,8,0:1:0:0:
66,289,79848,1,8,0:1:0:0:
61,248,79938,1,8,0:1:0:0:
74,209,80029,1,8,0:1:0:0:
104,180,80119,5,4,0:0:0:0:
134,151,80209,1,4,0:0:0:0:
147,112,80300,1,4,0:0:0:0:
142,71,80390,1,4,0:0:0:0:
118,36,80481,5,10,0:1:0:0:
118,36,81926,6,0,L|127:131,1,95.9999970703126,14|0,0:1|0:0,0:0:0:0:
238,261,82287,2,0,L|247:166,1,95.9999970703126,8|0,0:0|0:0,0:0:0:0:
252,117,82559,1,0,0:0:0:0:
252,117,82649,2,0,L|157:126,1,95.9999970703126,8|0,0:1|0:0,0:0:0:0:
339,221,83010,1,8,0:0:0:0:
292,30,83191,6,0,L|101:48,1,191.999994140625,14|8,0:1|0:1,0:0:0:0:
215,231,83733,1,8,0:0:0:0:
252,117,83914,1,0,0:0:0:0:
252,117,84004,1,0,0:0:0:0:
252,117,84095,2,0,L|157:126,1,95.9999970703126,8|0,0:1|0:0,0:0:0:0:
308,195,84456,1,8,0:0:0:0:
292,30,84637,1,0,0:0:0:0:
213,204,84818,6,0,P|228:249|264:281,1,95.9999970703126,14|0,0:1|0:0,0:0:0:0:
404,186,85179,2,0,P|398:233|368:271,1,95.9999970703126,8|0,0:0|0:0,0:0:0:0:
308,195,85450,1,0,0:0:0:0:
308,195,85540,2,0,L|299:100,1,95.9999970703126,8|0,0:1|0:0,0:0:0:0:
404,186,85902,1,8,0:0:0:0:
263,281,86083,6,0,P|170:284|122:208,1,191.999994140625,14|0,0:1|0:1,0:0:0:0:
116,51,86625,1,8,0:0:0:0:
213,204,86805,1,8,0:1:0:0:
73,131,86986,6,0,L|29:107,1,47.9999985351563,8|8,0:1|0:1,0:0:0:0:
256,124,87167,2,0,L|300:148,1,47.9999985351563,8|8,0:1|0:1,0:0:0:0:
122,208,87348,2,0,L|81:234,1,47.9999985351563,4|0,0:0|0:0,0:0:0:0:
207,47,87528,2,0,L|248:21,1,47.9999985351563,4|4,0:0|0:0,0:0:0:0:
171,285,87709,5,14,0:1:0:0:
256,192,87800,12,0,93492,0:0:0:0:
