osu file format v14

[General]
AudioFilename: optc.mp3
AudioLeadIn: 0
PreviewTime: 54998
Countdown: 0
SampleSet: Soft
StackLeniency: 0.4
Mode: 0
LetterboxInBreaks: 0
WidescreenStoryboard: 1

[Editor]
Bookmarks: 962,9637,15420,26986,38553,55902,67468,81926
DistanceSpacing: 1
BeatDivisor: 4
GridSize: 4
TimelineZoom: 2.5

[Metadata]
Title:Cynthia No Hikari
TitleUnicode:シンシアの光
Artist:Eir Aoi
ArtistUnicode:藍井エイル
Creator:Shad0w1and
Version:Doormat's Insane
Source:ソードアート・オンライン -ロスト・ソング-
Tags:Sword Art Online Lost Song SAO Lami intoon Kencho Doormat Misure Pata-Mon
BeatmapID:1350187
BeatmapSetID:504005

[Difficulty]
HPDrainRate:5.5
CircleSize:4
OverallDifficulty:7.5
ApproachRate:8.5
SliderMultiplier:1.62
SliderTickRate:1

[Events]
//Background and Video events
0,0,"BG5.jpg",0,0
Video,0,"optc.flv"
//Break Periods
//Storyboard Layer 0 (Background)
//Storyboard Layer 1 (Fail)
//Storyboard Layer 2 (Pass)
//Storyboard Layer 3 (Foreground)
//Storyboard Sound Samples

[TimingPoints]
-483,361.44578313253,4,2,1,60,1,0
59,-133.333333333333,4,2,1,60,0,0
9276,-100,4,2,1,60,0,0
9637,-100,4,2,1,80,0,0
14697,-100,4,2,1,75,0,0
15420,-125,4,2,1,60,0,0
26083,-111.111111111111,4,2,1,60,0,0
26263,-100,4,2,1,60,0,0
26986,-100,4,2,1,70,0,0
38553,-100,4,2,1,80,0,0
39456,-100,4,2,1,70,0,0
39818,-100,4,2,1,80,0,0
43432,-100,4,2,1,70,0,0
44336,-100,4,2,1,80,0,0
53010,-100,4,2,1,70,0,0
54998,-125,4,2,1,50,0,0
55902,-90.9090909090909,4,2,1,90,0,1
66023,-90.9090909090909,4,2,1,70,0,1
66565,-90.9090909090909,4,2,1,80,0,1
67468,-90.9090909090909,4,2,1,90,0,1
80480,-133.333333333333,4,2,1,50,0,0
81926,-100,4,2,1,90,0,1
86806,-100,4,2,1,80,0,1
87709,-100,4,2,1,90,0,0
87800,-100,4,2,1,40,0,0
93492,-100,4,2,1,5,0,0

[Colours]
Combo1 : 255,238,119
Combo2 : 60,247,153
Combo3 : 79,109,255
Combo4 : 245,82,106

[HitObjects]
144,124,962,6,0,P|198:148|255:131,1,121.500004634857,2|0,0:0|0:0,0:0:0:0:
404,60,1504,2,0,P|349:35|292:52,1,121.500004634857,2|0,0:0|0:0,0:0:0:0:
347,190,2047,2,0,L|343:130,1,60.7500023174287,2|0,0:0|0:0,0:0:0:0:
200,172,2408,6,0,L|191:293,1,121.500004634857,2|0,0:0|0:0,0:0:0:0:
108,328,2950,1,2,0:0:0:0:
55,250,3131,2,0,L|116:241,1,60.7500023174287,0|0,0:0|0:0,0:0:0:0:
251,302,3492,2,0,L|190:292,1,60.7500023174287,2|0,0:0|0:0,0:0:0:0:
300,212,3854,6,0,P|348:208|432:212,1,121.500004634857,2|0,0:0|0:0,0:0:0:0:
251,302,4396,2,0,P|223:262|185:187,1,121.500004634857,2|2,0:0|0:0,0:0:0:0:
352,299,4938,1,0,0:0:0:0:
432,183,5119,1,2,0:0:0:0:
432,183,5209,1,0,0:0:0:0:
432,183,5300,6,0,P|376:204|320:184,1,121.500004634857,2|0,0:0|0:0,0:0:0:0:
370,56,5842,2,0,L|375:117,1,60.7500023174287,2|0,0:0|0:0,0:0:0:0:
234,190,6203,1,0,0:0:0:0:
341,224,6384,1,2,0:0:0:0:
268,83,6565,1,0,0:0:0:0:
135,242,6745,5,2,0:0:0:0:
256,192,6836,12,0,8010,0:0:0:0:
135,242,8191,5,2,0:0:0:0:
148,215,8281,1,0,0:0:0:0:
173,198,8371,1,0,0:0:0:0:
202,195,8462,1,0,0:0:0:0:
230,208,8552,1,0,0:0:0:0:
247,233,8642,1,0,0:0:0:0:
249,263,8733,1,0,0:0:0:0:
236,290,8823,1,0,0:0:0:0:
212,307,8913,1,0,0:0:0:0:
212,307,9276,6,0,L|149:301,1,40.5,4|4,0:0|0:0,0:0:0:0:
107,219,9456,2,0,L|148:215,1,40.5,4|4,0:0|0:0,0:0:0:0:
264,212,9637,6,0,P|252:173|255:133,1,81,14|0,0:1|0:0,0:0:0:0:
408,192,9998,2,0,P|410:232|399:270,1,81,8|0,0:0|0:0,0:0:0:0:
352,332,10270,1,0,0:0:0:0:
352,332,10360,1,8,0:1:0:0:
184,225,10541,2,0,L|264:212,1,81,0|8,0:0|0:0,0:0:0:0:
104,156,10902,6,0,P|78:205|120:308,1,162,14|8,0:1|0:1,0:0:0:0:
236,356,11444,1,8,0:0:0:0:
184,225,11625,1,0,0:0:0:0:
184,225,11715,1,0,0:0:0:0:
184,225,11806,1,8,0:1:0:0:
275,264,11986,1,0,0:0:0:0:
144,316,12167,2,0,L|56:308,1,81,8|0,0:0|0:0,0:0:0:0:
139,150,12529,6,0,P|177:137|220:144,1,81,14|0,0:1|0:0,0:0:0:0:
336,188,12890,1,8,0:0:0:0:
261,22,13070,1,0,0:0:0:0:
261,22,13161,1,0,0:0:0:0:
261,22,13251,1,8,0:1:0:0:
216,142,13432,1,0,0:0:0:0:
381,68,13613,1,8,0:0:0:0:
404,232,13794,6,0,P|364:264|265:225,1,162,14|8,0:1|0:1,0:0:0:0:
272,56,14336,1,8,0:0:0:0:
336,188,14516,1,8,0:1:0:0:
120,144,14697,6,0,L|112:200,3,40.5,8|8|8|8,0:1|0:1|0:1|0:1,0:0:0:0:
84,272,15059,1,4,0:0:0:0:
112,261,15149,1,4,0:0:0:0:
142,260,15239,1,4,0:0:0:0:
171,269,15330,1,4,0:0:0:0:
196,285,15420,6,0,L|192:360,1,64.8,14|0,0:1|0:0,0:0:0:0:
324,300,15782,2,0,L|320:235,1,64.8,8|0,0:1|0:0,0:0:0:0:
208,120,16143,2,0,L|204:195,1,64.8,8|0,0:1|0:0,0:0:0:0:
336,135,16504,1,8,0:1:0:0:
336,135,16685,6,0,L|332:70,1,64.8,0|8,0:0|0:1,0:0:0:0:
208,120,17047,2,0,L|149:90,1,64.8,0|8,0:0|0:1,0:0:0:0:
131,223,17408,2,0,L|76:258,1,64.8,0|8,0:0|0:1,0:0:0:0:
182,341,17770,1,0,0:0:0:0:
182,341,17860,1,0,0:0:0:0:
182,341,17950,2,0,L|247:337,1,64.8,8|0,0:1|0:0,0:0:0:0:
336,228,18312,5,10,0:1:0:0:
236,248,18492,1,0,0:0:0:0:
168,171,18673,1,8,0:1:0:0:
200,74,18854,1,0,0:0:0:0:
268,150,19035,1,8,0:1:0:0:
168,171,19215,1,0,0:0:0:0:
99,94,19396,1,8,0:1:0:0:
48,208,19577,6,0,L|56:292,1,64.8,0|8,0:0|0:1,0:0:0:0:
180,252,19938,2,0,L|256:287,1,64.8,0|8,0:0|0:1,0:0:0:0:
284,159,20300,2,0,L|352:110,1,64.8,0|8,0:0|0:1,0:0:0:0:
255,22,20661,1,0,0:0:0:0:
255,22,20751,1,0,0:0:0:0:
255,22,20842,2,0,L|171:29,1,64.8,8|0,0:1|0:0,0:0:0:0:
36,20,21203,5,10,0:1:0:0:
108,96,21384,1,0,0:0:0:0:
28,164,21565,1,8,0:1:0:0:
100,240,21746,1,0,0:0:0:0:
20,308,21926,1,8,0:1:0:0:
20,308,22107,2,0,L|26:372,1,64.8,0|8,0:0|0:1,0:0:0:0:
204,296,22468,6,0,L|197:231,1,64.8,2|8,0:0|0:1,0:0:0:0:
256,136,22830,1,0,0:0:0:0:
365,162,23011,1,8,0:1:0:0:
373,273,23192,1,0,0:0:0:0:
264,247,23373,1,8,0:1:0:0:
372,169,23553,1,0,0:0:0:0:
372,169,23643,1,0,0:0:0:0:
372,169,23733,2,0,L|463:175,1,64.8,8|0,0:1|0:0,0:0:0:0:
304,24,24095,6,0,L|298:115,1,64.8,10|0,0:1|0:0,0:0:0:0:
152,156,24456,2,0,L|147:91,1,64.8,8|0,0:1|0:0,0:0:0:0:
220,220,24818,2,0,P|172:248|83:217,1,129.6,8|8,0:1|0:1,0:0:0:0:
152,156,25360,1,0,0:0:0:0:
312,204,25541,6,0,L|304:292,1,64.8,10|0,0:1|0:0,0:0:0:0:
296,344,25812,1,0,0:0:0:0:
296,344,25902,1,8,0:0:0:0:
476,284,26083,1,8,0:1:0:0:
476,284,26173,1,0,0:0:0:0:
476,284,26263,6,0,L|468:220,3,40.5,8|8|8|8,0:1|0:1|0:1|0:1,0:0:0:0:
424,180,26625,2,0,L|416:116,3,40.5,4|4|4|4,0:0|0:0|0:0|0:0,0:0:0:0:
440,56,26986,6,0,P|364:64|340:56,1,81,14|0,0:1|0:0,0:0:0:0:
160,132,27348,2,0,P|200:128|239:139,1,81,8|0,0:0|0:0,0:0:0:0:
80,216,27709,2,0,P|52:176|72:64,1,162,8|8,0:1|0:0,0:0:0:0:
192,248,28251,6,0,L|180:348,1,81,2|8,0:1|0:1,0:0:0:0:
308,212,28613,2,0,L|389:272,1,81,0|8,0:0|0:0,0:0:0:0:
334,93,28974,2,0,L|426:52,1,81,0|8,0:1|0:1,0:0:0:0:
220,20,29336,1,0,0:0:0:0:
261,207,29516,1,8,0:0:0:0:
334,93,29697,1,0,0:0:0:0:
146,134,29878,6,0,P|68:139|12:84,1,162,10|8,0:1|0:0,0:0:0:0:
100,52,30420,1,0,0:0:0:0:
179,253,30601,1,8,0:1:0:0:
240,113,30782,1,0,0:0:0:0:
39,192,30962,1,8,0:0:0:0:
171,333,31143,6,0,L|179:253,1,81,2|8,0:0|0:1,0:0:0:0:
328,192,31504,2,0,L|335:272,1,81,0|8,0:0|0:0,0:0:0:0:
386,86,31866,2,0,P|308:72|240:113,1,162,0|0,0:0|0:0,0:0:0:0:
112,236,32408,1,8,0:0:0:0:
114,110,32589,1,0,0:0:0:0:
237,238,32770,6,0,P|244:284|236:332,1,81,10|0,0:1|0:0,0:0:0:0:
400,200,33131,2,0,P|393:154|401:106,1,81,8|0,0:0|0:0,0:0:0:0:
504,304,33492,1,8,0:1:0:0:
504,304,33673,2,0,L|408:324,1,81,0|8,0:0|0:0,0:0:0:0:
240,204,34035,1,0,0:0:0:0:
240,204,34125,1,0,0:0:0:0:
240,204,34215,6,0,P|304:198|339:210,1,81,10|0,0:1|0:0,0:0:0:0:
228,376,34577,2,0,P|190:323|183:287,1,81,8|0,0:0|0:0,0:0:0:0:
135,150,34938,1,8,0:1:0:0:
240,204,35119,1,0,0:0:0:0:
82,255,35300,2,0,L|-4:244,1,81,8|0,0:0|0:0,0:0:0:0:
160,48,35661,5,10,0:1:0:0:
144,184,35842,1,0,0:0:0:0:
84,20,36023,1,8,0:0:0:0:
232,84,36204,1,0,0:0:0:0:
80,136,36384,2,0,P|39:139|1:126,1,81,8|0,0:1|0:0,0:0:0:0:
232,84,36745,2,0,P|270:71|310:74,1,81,8|0,0:0|0:0,0:0:0:0:
435,199,37107,6,0,P|358:220|284:192,1,162,10|8,0:1|0:0,0:0:0:0:
232,84,37649,1,8,0:1:0:0:
80,136,37830,1,8,0:1:0:0:
76,166,37920,1,8,0:1:0:0:
75,196,38010,1,8,0:1:0:0:
77,226,38101,1,8,0:1:0:0:
82,256,38191,2,0,L|20:248,3,40.5,4|12|12|0,0:0|0:0|0:0|0:0,0:0:0:0:
4,316,38553,5,14,0:1:0:0:
184,372,38733,1,8,0:1:0:0:
292,218,38914,1,8,0:1:0:0:
292,218,39276,1,12,0:1:0:0:
355,147,39456,1,4,0:0:0:0:
321,128,39546,1,4,0:0:0:0:
280,124,39636,1,4,0:0:0:0:
243,137,39727,1,4,0:0:0:0:
213,165,39818,6,0,P|163:182|64:126,1,162,14|8,0:1|0:1,0:0:0:0:
156,73,40360,1,8,0:0:0:0:
292,218,40541,2,0,L|283:269,2,40.5,0|0|8,0:0|0:0|0:1,0:0:0:0:
328,56,40902,1,8,0:1:0:0:
400,240,41083,1,8,0:0:0:0:
256,124,41263,1,8,0:1:0:0:
452,84,41444,5,14,0:1:0:0:
300,220,41625,1,8,0:1:0:0:
164,68,41806,1,8,0:0:0:0:
164,68,42167,1,8,0:1:0:0:
300,220,42348,1,8,0:1:0:0:
308,76,42529,1,8,0:0:0:0:
155,212,42709,6,0,P|77:217|23:158,1,162,14|8,0:1|0:1,0:0:0:0:
111,130,43251,1,8,0:0:0:0:
256,207,43432,1,8,0:1:0:0:
256,207,43523,1,8,0:1:0:0:
256,207,43613,6,0,L|249:279,3,40.5,8|8|8|8,0:1|0:1|0:1|0:1,0:0:0:0:
224,324,43974,1,4,0:0:0:0:
254,319,44064,1,4,0:0:0:0:
284,316,44154,1,4,0:0:0:0:
314,313,44245,1,4,0:0:0:0:
344,312,44336,6,0,P|396:312|520:300,1,162,14|8,0:1|0:0,0:0:0:0:
340,100,44878,1,0,0:0:0:0:
340,100,44968,1,0,0:0:0:0:
340,100,45059,2,0,P|332:164|336:216,1,81,8|0,0:1|0:0,0:0:0:0:
505,302,45420,1,8,0:0:0:0:
480,124,45601,1,0,0:0:0:0:
312,292,45782,6,0,P|252:316|148:260,1,162,10|8,0:1|0:0,0:0:0:0:
268,100,46324,1,0,0:0:0:0:
268,100,46414,1,0,0:0:0:0:
268,100,46504,2,0,L|372:92,1,81,8|0,0:1|0:0,0:0:0:0:
512,84,46866,1,8,0:0:0:0:
368,8,47047,1,0,0:0:0:0:
276,199,47227,6,0,P|277:280|282:361,1,162,10|8,0:1|0:0,0:0:0:0:
104,272,47770,1,0,0:0:0:0:
104,272,47860,1,0,0:0:0:0:
104,272,47950,2,0,P|108:216|108:176,1,81,8|0,0:1|0:0,0:0:0:0:
92,4,48312,1,8,0:0:0:0:
0,136,48492,1,0,0:0:0:0:
188,212,48673,6,0,P|264:232|336:168,1,162,10|8,0:1|0:0,0:0:0:0:
140,112,49215,1,0,0:0:0:0:
140,112,49306,1,0,0:0:0:0:
140,112,49396,1,8,0:1:0:0:
112,288,49577,1,0,0:0:0:0:
247,138,49757,1,8,0:0:0:0:
219,314,49938,1,0,0:0:0:0:
0,216,50119,6,0,P|80:205|161:204,1,162,14|8,0:1|0:0,0:0:0:0:
428,229,50661,1,0,0:0:0:0:
428,229,50751,1,0,0:0:0:0:
428,229,50842,2,0,P|347:228|266:217,1,162,8|8,0:1|0:0,0:0:0:0:
432,101,51384,1,0,0:0:0:0:
508,321,51565,5,10,0:1:0:0:
352,384,51745,1,8,0:0:0:0:
344,376,51836,1,8,0:0:0:0:
336,368,51926,2,0,L|269:355,3,40.5,4|4|8|8,0:0|0:0|0:1|0:1,0:0:0:0:
238,300,52288,5,8,0:1:0:0:
206,323,52378,1,8,0:1:0:0:
167,331,52468,1,8,0:1:0:0:
127,323,52559,1,8,0:1:0:0:
95,300,52649,2,0,L|90:340,3,40.5,8|0|8|0,0:0|0:0|0:1|0:0,0:0:0:0:
16,288,53010,6,0,L|23:194,1,81,14|8,0:1|0:1,0:0:0:0:
200,136,53372,2,0,L|205:216,1,81,8|8,0:0|0:1,0:0:0:0:
92,136,53733,1,8,0:0:0:0:
182,15,53914,1,8,0:1:0:0:
301,105,54095,1,8,0:1:0:0:
92,160,54276,6,0,L|-4:152,1,81,8|8,0:1|0:1,0:0:0:0:
226,15,54637,1,8,0:0:0:0:
226,15,55902,6,0,P|218:103|215:192,1,178.200005438233,14|8,0:1|0:0,0:0:0:0:
416,304,56444,2,0,P|416:240|408:192,1,89.1000027191163,0|8,0:0|0:1,0:0:0:0:
344,56,56806,1,0,0:0:0:0:
240,227,56986,1,8,0:0:0:0:
440,112,57167,1,0,0:0:0:0:
344,56,57348,6,0,P|304:88|184:44,1,178.200005438233,10|8,0:1|0:0,0:0:0:0:
40,144,57890,1,0,0:0:0:0:
240,227,58071,1,8,0:1:0:0:
116,101,58251,1,0,0:0:0:0:
56,304,58432,1,8,0:0:0:0:
178,164,58613,1,0,0:0:0:0:
332,284,58794,6,0,P|248:258|171:299,1,178.200005438233,10|8,0:1|0:0,0:0:0:0:
24,188,59336,2,0,L|31:99,1,89.1000027191163,0|8,0:0|0:1,0:0:0:0:
184,192,59697,1,0,0:0:0:0:
120,12,59878,1,8,0:0:0:0:
104,228,60059,1,0,0:0:0:0:
308,116,60239,6,0,P|256:108|120:116,1,178.200005438233,10|8,0:1|0:0,0:0:0:0:
276,288,60782,2,0,P|332:290|375:277,1,89.1000027191163,0|8,0:0|0:1,0:0:0:0:
484,172,61143,1,0,0:0:0:0:
316,204,61324,1,8,0:0:0:0:
428,332,61504,1,0,0:0:0:0:
376,124,61685,6,0,P|291:107|225:162,1,178.200005438233,10|8,0:1|0:0,0:0:0:0:
472,192,62227,2,0,P|479:148|477:103,1,89.1000027191163,0|8,0:0|0:1,0:0:0:0:
316,204,62589,2,0,P|314:248|321:292,1,89.1000027191163,0|8,0:0|0:0,0:0:0:0:
184,372,62950,1,0,0:0:0:0:
36,220,63131,6,0,L|124:227,1,89.1000027191163,10|0,0:1|0:0,0:0:0:0:
296,80,63492,2,0,L|207:87,1,89.1000027191163,8|0,0:0|0:0,0:0:0:0:
356,0,63854,2,0,P|392:48|364:156,1,178.200005438233,8|8,0:1|0:0,0:0:0:0:
200,232,64396,1,0,0:0:0:0:
200,232,64486,1,0,0:0:0:0:
200,232,64577,6,0,L|204:132,1,89.1000027191163,14|8,0:1|0:1,0:0:0:0:
276,316,64938,1,8,0:0:0:0:
104,272,65119,1,8,0:1:0:0:
300,184,65300,1,8,0:0:0:0:
128,140,65481,1,8,0:1:0:0:
276,316,65661,1,8,0:0:0:0:
104,272,65842,1,8,0:1:0:0:
300,184,66023,5,14,0:1:0:0:
332,177,66113,1,4,0:0:0:0:
366,175,66203,1,4,0:0:0:0:
399,177,66294,1,4,0:0:0:0:
432,184,66384,1,8,0:0:0:0:
276,316,66565,6,0,P|231:318|187:309,1,89.1000027191163,14|8,0:1|0:1,0:0:0:0:
156,298,66836,1,8,0:1:0:0:
123,296,66926,1,8,0:1:0:0:
90,302,67017,1,8,0:1:0:0:
61,317,67107,2,0,L|64:368,3,44.5500013595581,4|4|4|4,0:0|0:0|0:0|0:0,0:0:0:0:
0,264,67468,6,0,P|8:176|11:77,1,178.200005438233,14|8,0:1|0:0,0:0:0:0:
200,23,68010,2,0,P|198:68|202:112,1,89.1000027191163,0|8,0:0|0:1,0:0:0:0:
276,264,68372,1,0,0:0:0:0:
132,184,68553,1,8,0:0:0:0:
304,64,68733,1,0,0:0:0:0:
200,23,68914,6,0,L|-8:44,1,178.200005438233,10|8,0:1|0:0,0:0:0:0:
196,132,69456,1,0,0:0:0:0:
4,240,69637,1,8,0:1:0:0:
60,76,69818,1,0,0:0:0:0:
176,280,69998,1,8,0:0:0:0:
32,156,70179,1,0,0:0:0:0:
211,8,70360,6,0,P|253:83|216:166,1,178.200005438233,14|8,0:1|0:0,0:0:0:0:
96,228,70902,1,0,0:0:0:0:
71,80,71083,2,0,L|160:90,1,89.1000027191163,14|0,0:1|0:0,0:0:0:0:
88,256,71444,2,0,L|0:265,1,89.1000027191163,8|0,0:0|0:0,0:0:0:0:
180,191,71806,6,0,P|268:182|357:186,1,178.200005438233,14|8,0:1|0:0,0:0:0:0:
236,68,72348,1,0,0:0:0:0:
88,148,72529,1,8,0:1:0:0:
88,148,72619,2,0,L|96:244,1,89.1000027191163,8|0,0:0|0:0,0:0:0:0:
148,296,72890,2,0,L|140:392,1,89.1000027191163,8|0,0:0|0:0,0:0:0:0:
344,236,73251,5,14,0:1:0:0:
180,191,73432,1,0,0:0:0:0:
344,236,73613,1,8,0:0:0:0:
180,191,73794,1,0,0:0:0:0:
372,140,73974,1,8,0:1:0:0:
316,332,74155,2,0,L|208:312,1,89.1000027191163,0|8,0:0|0:0,0:0:0:0:
96,184,74516,6,0,P|180:158|263:185,1,178.200005438233,2|0,0:1|0:0,0:0:0:0:
448,132,75059,1,8,0:0:0:0:
268,72,75239,1,0,0:0:0:0:
300,272,75420,6,0,L|372:264,3,44.5500013595581,8|8|8|8,0:1|0:1|0:1|0:1,0:0:0:0:
424,288,75782,1,4,0:0:0:0:
416,255,75872,1,4,0:0:0:0:
412,222,75962,1,4,0:0:0:0:
411,188,76053,1,4,0:0:0:0:
414,155,76143,6,0,P|422:111|420:67,1,89.1000027191163,14|8,0:1|0:1,0:0:0:0:
208,124,76504,2,0,P|206:168|213:212,1,89.1000027191163,8|8,0:1|0:1,0:0:0:0:
432,132,76866,6,0,P|439:88|437:43,1,89.1000027191163,14|8,0:1|0:1,0:0:0:0:
188,144,77227,2,0,P|186:188|193:232,1,89.1000027191163,8|8,0:1|0:1,0:0:0:0:
292,36,77589,6,0,L|203:26,1,89.1000027191163,14|8,0:1|0:1,0:0:0:0:
332,240,77950,2,0,L|420:230,1,89.1000027191163,8|8,0:1|0:1,0:0:0:0:
272,16,78312,6,0,L|183:6,1,89.1000027191163,14|8,0:1|0:1,0:0:0:0:
352,260,78673,2,0,L|440:250,1,89.1000027191163,8|8,0:1|0:1,0:0:0:0:
224,172,79035,5,14,0:1:0:0:
212,340,79215,1,8,0:1:0:0:
364,176,79396,1,8,0:1:0:0:
352,344,79576,1,8,0:1:0:0:
224,172,79757,5,8,0:1:0:0:
193,158,79847,1,8,0:1:0:0:
160,156,79937,1,8,0:1:0:0:
128,164,80028,1,8,0:1:0:0:
99,181,80119,2,0,L|96:124,3,44.5500013595581,4|4|4|4,0:0|0:0|0:0|0:0,0:0:0:0:
140,68,80480,5,10,0:1:0:0:
248,212,81926,6,0,P|260:173|257:133,1,81,14|0,0:1|0:0,0:0:0:0:
104,192,82287,2,0,P|102:232|113:270,1,81,8|0,0:0|0:0,0:0:0:0:
160,332,82559,1,0,0:0:0:0:
160,332,82649,1,8,0:1:0:0:
328,225,82830,2,0,L|248:212,1,81,0|8,0:0|0:0,0:0:0:0:
408,156,83191,6,0,P|434:205|392:308,1,162,14|8,0:1|0:1,0:0:0:0:
276,356,83733,1,8,0:0:0:0:
328,225,83914,1,0,0:0:0:0:
328,225,84004,1,0,0:0:0:0:
328,225,84095,1,8,0:1:0:0:
237,264,84275,1,0,0:0:0:0:
368,316,84456,1,8,0:0:0:0:
373,150,84637,1,0,0:0:0:0:
373,150,84727,1,0,0:0:0:0:
373,150,84818,6,0,P|335:137|292:144,1,81,14|0,0:1|0:0,0:0:0:0:
176,188,85179,1,8,0:0:0:0:
251,22,85359,1,0,0:0:0:0:
251,22,85450,1,0,0:0:0:0:
251,22,85540,1,8,0:1:0:0:
296,142,85721,1,0,0:0:0:0:
131,68,85902,1,8,0:0:0:0:
108,232,86083,6,0,P|148:264|247:225,1,162,14|0,0:1|0:1,0:0:0:0:
240,56,86625,1,8,0:0:0:0:
176,188,86805,1,8,0:1:0:0:
392,144,86986,6,0,L|400:200,3,40.5,8|8|8|8,0:1|0:1|0:1|0:1,0:0:0:0:
428,272,87348,1,4,0:0:0:0:
400,261,87438,1,4,0:0:0:0:
370,260,87528,1,4,0:0:0:0:
341,269,87619,1,4,0:0:0:0:
316,284,87709,5,14,0:1:0:0:
256,192,87800,12,0,93492,0:0:0:0:
