osu file format v14

[General]
AudioFilename: optc.mp3
AudioLeadIn: 0
PreviewTime: 54998
Countdown: 0
SampleSet: Soft
StackLeniency: 0.5
Mode: 0
LetterboxInBreaks: 0
WidescreenStoryboard: 0

[Editor]
Bookmarks: 962,9637,15420,26986,38553,55902,67468,81926
DistanceSpacing: 0.9
BeatDivisor: 8
GridSize: 32
TimelineZoom: 2.5

[Metadata]
Title:Cynthia No Hikari
TitleUnicode:シンシアの光
Artist:Eir Aoi
ArtistUnicode:藍井エイル
Creator:Shad0w1and
Version:Another
Source:ソードアート・オンライン -ロスト・ソング-
Tags:Sword Art Online Lost Song SAO Lami intoon Kencho Doormat Misure Pata-Mon
BeatmapID:1315100
BeatmapSetID:504005

[Difficulty]
HPDrainRate:6
CircleSize:4
OverallDifficulty:8
ApproachRate:9
SliderMultiplier:1.5
SliderTickRate:1

[Events]
//Background and Video events
Video,0,"optc.flv"
0,0,"BG3.jpg",0,0
//Break Periods
//Storyboard Layer 0 (Background)
//Storyboard Layer 1 (Fail)
//Storyboard Layer 2 (Pass)
//Storyboard Layer 3 (Foreground)
//Storyboard Sound Samples

[TimingPoints]
-483,361.44578313253,4,2,1,60,1,0
59,-133.333333333333,4,2,1,60,0,0
962,-100,4,2,1,60,0,0
8191,-76.9230769230769,4,2,1,60,0,0
9637,-66.6666666666667,4,2,1,80,0,0
15420,-76.9230769230769,4,2,1,60,0,0
25902,-66.6666666666667,4,2,1,60,0,0
26986,-71.4285714285714,4,2,1,70,0,0
37107,-90.9090909090909,4,2,1,70,0,0
38553,-71.4285714285714,4,2,1,80,0,0
39456,-71.4285714285714,4,2,1,70,0,0
39818,-71.4285714285714,4,2,1,80,0,0
43432,-71.4285714285714,4,2,1,70,0,0
44336,-71.4285714285714,4,2,1,80,0,0
53010,-66.6666666666667,4,2,1,80,0,0
54998,-71.4285714285714,4,2,1,60,0,0
55902,-71.4285714285714,4,2,1,90,0,1
66023,-71.4285714285714,4,2,1,70,0,1
66565,-50,4,2,1,80,0,1
67107,-71.4285714285714,4,2,1,80,0,1
67468,-71.4285714285714,4,2,1,90,0,1
80480,-76.9230769230769,4,2,1,60,0,0
81926,-66.6666666666667,4,2,1,90,0,1
87709,-66.6666666666667,4,2,1,90,0,0
87800,-66.6666666666667,4,2,1,30,0,0
93492,-66.6666666666667,4,2,1,5,0,0

[Colours]
Combo1 : 255,238,119
Combo2 : 60,247,153
Combo3 : 79,109,255
Combo4 : 245,82,106

[HitObjects]
403,117,59,6,0,P|350:132|315:180,1,112.500004291535,2|0,0:0|0:0,0:0:0:0:
334,266,601,1,2,0:0:0:0:
401,208,782,1,0,0:0:0:0:
225,186,962,6,0,P|262:248|334:266,1,150,2|0,0:0|0:0,0:0:0:0:
403,117,1504,2,0,P|327:113|244:98,1,150,2|0,0:0|0:0,0:0:0:0:
165,120,2047,1,2,0:0:0:0:
70,249,2227,2,0,B|50:221|35:203|35:203|62:187|105:188|105:188|70:153|77:101,1,225,2|0,0:0|0:0,0:0:0:0:
165,120,2950,5,2,0:0:0:0:
105,189,3131,1,0,0:0:0:0:
254,100,3312,1,0,0:0:0:0:
225,186,3492,1,2,0:0:0:0:
192,34,3673,1,0,0:0:0:0:
225,186,3854,6,0,P|318:167|342:98,1,150,2|0,0:0|0:0,0:0:0:0:
401,208,4396,2,0,P|391:243|384:300,1,75,2|0,0:0|0:0,0:0:0:0:
254,100,4757,2,0,P|248:62|238:26,1,75,2|0,0:0|0:0,0:0:0:0:
83,85,5119,2,0,B|107:113|105:154|105:154|143:137|168:130|168:130|183:173|226:186,1,225,2|0,0:0|0:0,0:0:0:0:
34,303,5842,6,0,P|28:242|13:152,1,150,2|0,0:0|0:0,0:0:0:0:
106,155,6384,1,2,0:0:0:0:
34,303,6565,1,0,0:0:0:0:
198,334,6745,5,2,0:0:0:0:
212,260,6926,1,0,0:0:0:0:
225,186,7107,1,0,0:0:0:0:
238,112,7288,1,0,0:0:0:0:
295,161,7468,5,2,0:0:0:0:
154,211,7649,1,0,0:0:0:0:
285,235,7830,1,0,0:0:0:0:
145,299,8010,1,0,0:0:0:0:
272,310,8191,5,2,0:0:0:0:
296,310,8282,1,0,0:0:0:0:
319,303,8372,1,0,0:0:0:0:
339,289,8462,1,0,0:0:0:0:
353,269,8553,1,0,0:0:0:0:
361,246,8643,1,0,0:0:0:0:
360,221,8733,1,0,0:0:0:0:
351,198,8824,1,0,0:0:0:0:
336,178,8914,6,0,P|349:122|413:157,1,146.249993305207,0|0,0:0|0:0,0:0:0:0:
285,235,9276,5,4,0:0:0:0:
246,229,9366,1,4,0:0:0:0:
207,223,9456,1,4,0:0:0:0:
168,217,9547,1,4,0:0:0:0:
123,211,9637,6,0,B|106:266|97:287|97:287|160:284,1,112.500004291535,14|0,0:1|0:0,0:0:0:0:
186,113,9998,2,0,P|118:114|43:110,1,112.500004291535,8|0,0:0|0:0,0:0:0:0:
11,201,10270,1,0,0:0:0:0:
11,201,10360,5,8,0:1:0:0:
207,223,10541,1,0,0:0:0:0:
70,76,10721,1,8,0:0:0:0:
34,303,10902,6,0,B|80:265|128:262|128:262|149:297|186:309|186:309|143:323,1,225.000008583069,14|8,0:1|0:1,0:0:0:0:
11,201,11444,1,8,0:0:0:0:
207,223,11625,1,0,0:0:0:0:
207,223,11715,1,0,0:0:0:0:
207,223,11806,5,8,0:1:0:0:
34,303,11986,1,0,0:0:0:0:
272,310,12167,1,8,0:0:0:0:
272,310,12529,6,0,P|301:271|303:187,1,112.500004291535,14|0,0:1|0:0,0:0:0:0:
278,25,12890,2,0,P|246:70|241:126,1,112.500004291535,8|0,0:0|0:0,0:0:0:0:
417,264,13251,5,8,0:1:0:0:
350,111,13432,1,0,0:0:0:0:
272,310,13613,1,8,0:0:0:0:
464,149,13794,6,0,L|223:124,1,225.000008583069,14|8,0:1|0:1,0:0:0:0:
240,125,14336,1,8,0:0:0:0:
464,149,14516,2,0,L|494:88,1,56.2500021457673,8|0,0:1|0:0,0:0:0:0:
350,111,14697,5,8,0:1:0:0:
344,138,14787,1,8,0:1:0:0:
343,166,14877,1,8,0:1:0:0:
349,193,14968,1,8,0:1:0:0:
360,218,15059,5,4,0:0:0:0:
315,210,15149,1,4,0:0:0:0:
270,206,15239,1,4,0:0:0:0:
224,201,15330,1,4,0:0:0:0:
185,197,15420,5,14,0:1:0:0:
272,310,15601,1,0,0:0:0:0:
360,218,15782,1,8,0:1:0:0:
169,292,15962,1,0,0:0:0:0:
350,344,16143,2,0,L|378:226,2,97.4999955368044,8|0|8,0:1|0:0|0:1,0:0:0:0:
467,212,16685,6,0,P|432:167|376:153,1,97.4999955368044,0|8,0:0|0:1,0:0:0:0:
323,94,17047,2,0,P|358:139|414:153,1,97.4999955368044,0|8,0:0|0:1,0:0:0:0:
509,46,17408,6,0,P|452:38|402:68,1,97.4999955368044,0|8,0:0|0:1,0:0:0:0:
345,188,17770,2,0,L|320:82,2,97.4999955368044,0|8|0,0:0|0:1|0:0,0:0:0:0:
467,212,18312,5,10,0:1:0:0:
322,93,18492,1,0,0:0:0:0:
372,249,18674,1,8,0:1:0:0:
416,55,18854,1,0,0:0:0:0:
275,238,19035,2,0,L|372:249,2,97.4999955368044,8|0|8,0:1|0:0|0:1,0:0:0:0:
107,213,19577,6,0,P|131:259|148:317,1,97.4999955368044,0|8,0:0|0:1,0:0:0:0:
302,144,19938,2,0,P|283:201|274:244,1,97.4999955368044,0|8,0:0|0:1,0:0:0:0:
194,129,20300,2,0,P|151:128|72:102,1,97.4999955368044,0|8,0:0|0:1,0:0:0:0:
186,276,20661,2,0,P|228:251|276:238,2,97.4999955368044,0|8|0,0:0|0:1|0:0,0:0:0:0:
194,129,21203,5,10,0:1:0:0:
186,276,21384,1,0,0:0:0:0:
302,144,21565,1,8,0:1:0:0:
107,213,21745,1,0,0:0:0:0:
274,238,21926,1,8,0:1:0:0:
98,115,22107,2,0,L|109:236,1,97.4999955368044,0|8,0:0|0:1,0:0:0:0:
375,200,22468,6,0,P|346:161|280:144,1,97.4999955368044,2|8,0:0|0:1,0:0:0:0:
186,276,22830,1,0,0:0:0:0:
375,200,23010,1,8,0:1:0:0:
194,129,23191,1,0,0:0:0:0:
373,63,23372,1,8,0:1:0:0:
274,238,23553,1,0,0:0:0:0:
275,57,23733,2,0,L|376:62,1,97.4999955368044,8|0,0:1|0:0,0:0:0:0:
252,200,24095,6,0,P|214:175|194:100,1,97.4999955368044,10|0,0:1|0:0,0:0:0:0:
375,200,24456,2,0,P|416:182|483:164,1,97.4999955368044,8|0,0:1|0:0,0:0:0:0:
372,61,24818,2,0,B|347:39|335:5|335:5|290:52|303:134,2,194.999991073609,8|8|10,0:1|0:1|0:1,0:0:0:0:
193,128,25721,1,0,0:0:0:0:
193,128,25812,1,0,0:0:0:0:
193,128,25902,6,0,L|109:114,1,56.2500021457673,8|0,0:0|0:0,0:0:0:0:
50,217,26083,2,0,L|106:213,1,56.2500021457673,8|0,0:1|0:0,0:0:0:0:
252,200,26263,5,8,0:1:0:0:
261,226,26353,1,8,0:1:0:0:
248,251,26443,1,8,0:1:0:0:
220,257,26534,1,8,0:1:0:0:
197,240,26625,5,4,0:0:0:0:
169,275,26715,1,4,0:0:0:0:
172,319,26805,1,4,0:0:0:0:
200,354,26896,1,4,0:0:0:0:
240,365,26986,6,0,P|287:346|349:337,1,104.999996795654,14|0,0:1|0:0,0:0:0:0:
512,351,27348,2,0,P|472:319|433:270,1,104.999996795654,8|0,0:0|0:0,0:0:0:0:
366,122,27709,2,0,P|358:172|335:230,1,104.999996795654,8|0,0:1|0:0,0:0:0:0:
106,212,28071,1,8,0:0:0:0:
261,124,28251,6,0,L|372:121,1,104.999996795654,2|8,0:1|0:1,0:0:0:0:
106,212,28613,1,0,0:0:0:0:
261,124,28794,1,8,0:0:0:0:
106,212,28974,2,0,L|-5:209,1,104.999996795654,0|8,0:0|0:1,0:0:0:0:
261,124,29336,1,0,0:0:0:0:
106,212,29516,1,8,0:0:0:0:
106,212,29878,6,0,L|106:68,1,104.999996795654,10|0,0:1|0:0,0:0:0:0:
197,240,30239,1,8,0:0:0:0:
277,189,30420,1,0,0:0:0:0:
287,94,30601,5,8,0:1:0:0:
197,240,30782,1,0,0:0:0:0:
357,240,30962,1,8,0:0:0:0:
178,136,31143,6,0,L|200:261,1,104.999996795654,2|8,0:0|0:1,0:0:0:0:
357,240,31504,1,0,0:0:0:0:
144,302,31685,1,8,0:0:0:0:
357,240,31866,2,0,L|376:137,1,104.999996795654,0|8,0:0|0:1,0:0:0:0:
197,240,32227,1,0,0:0:0:0:
409,302,32408,1,8,0:0:0:0:
409,302,32770,6,0,P|438:254|423:189,2,104.999996795654,10|0|8,0:1|0:0|0:0,0:0:0:0:
197,240,33312,1,0,0:0:0:0:
356,239,33492,1,8,0:1:0:0:
161,329,33673,2,0,P|162:277|206:235,1,104.999996795654,0|8,0:0|0:0,0:0:0:0:
375,135,34035,6,0,P|323:129|261:120,1,104.999996795654,2|8,0:0|0:1,0:0:0:0:
356,239,34396,1,0,0:0:0:0:
432,73,34577,1,8,0:0:0:0:
271,121,34757,1,0,0:0:0:0:
433,207,34938,5,8,0:1:0:0:
197,240,35119,1,0,0:0:0:0:
409,302,35300,1,8,0:0:0:0:
409,302,35661,5,10,0:1:0:0:
197,240,35842,1,0,0:0:0:0:
375,135,36023,1,8,0:0:0:0:
326,315,36203,1,0,0:0:0:0:
271,121,36384,2,0,P|327:129|390:137,1,104.999996795654,8|0,0:1|0:0,0:0:0:0:
409,302,36745,2,0,P|355:289|321:256,1,104.999996795654,8|0,0:0|0:0,0:0:0:0:
505,196,37107,6,0,L|486:359,1,165.000005035401,10|8,0:1|0:0,0:0:0:0:
320,255,37649,1,8,0:1:0:0:
349,241,37739,1,8,0:1:0:0:
378,225,37830,5,8,0:1:0:0:
399,250,37920,1,8,0:1:0:0:
409,281,38010,1,8,0:1:0:0:
406,314,38101,1,8,0:1:0:0:
392,344,38191,5,4,0:0:0:0:
424,337,38282,1,12,0:0:0:0:
454,324,38372,1,12,0:0:0:0:
481,305,38463,1,12,0:0:0:0:
500,275,38553,5,14,0:1:0:0:
320,255,38733,1,8,0:1:0:0:
505,195,38914,6,0,P|495:120|428:86,1,157.499995193482,8|0,0:0|0:0,0:0:0:0:
428,169,39276,1,12,0:1:0:0:
259,140,39456,5,4,0:0:0:0:
266,98,39546,1,4,0:0:0:0:
273,56,39636,1,4,0:0:0:0:
281,14,39727,1,4,0:0:0:0:
321,0,39818,6,0,B|306:80|306:80|382:63|382:63|445:96,1,209.999993591309,14|8,0:1|0:1,0:0:0:0:
426,86,40360,1,8,0:0:0:0:
320,255,40541,1,0,0:0:0:0:
320,255,40631,1,0,0:0:0:0:
320,255,40721,5,8,0:1:0:0:
505,195,40902,1,8,0:1:0:0:
259,140,41083,5,8,0:0:0:0:
426,86,41263,1,8,0:1:0:0:
195,238,41444,5,14,0:1:0:0:
428,169,41625,1,8,0:1:0:0:
178,136,41806,1,8,0:0:0:0:
178,136,42167,5,8,0:1:0:0:
327,292,42348,1,8,0:1:0:0:
303,76,42529,1,8,0:0:0:0:
141,285,42709,6,0,B|169:325|169:325|328:291,1,209.999993591309,14|8,0:1|0:1,0:0:0:0:
327,292,43251,1,8,0:0:0:0:
235,188,43432,5,8,0:1:0:0:
227,162,43523,1,8,0:1:0:0:
202,152,43613,5,8,0:1:0:0:
201,125,43703,1,8,0:1:0:0:
214,102,43794,1,8,0:1:0:0:
237,89,43884,1,8,0:1:0:0:
273,109,43974,5,4,0:0:0:0:
295,144,44064,1,4,0:0:0:0:
337,143,44155,1,4,0:0:0:0:
359,178,44245,1,4,0:0:0:0:
401,178,44336,6,0,B|483:150|500:100|500:100|468:67|417:69,1,209.999993591309,14|8,0:1|0:0,0:0:0:0:
259,140,44878,1,0,0:0:0:0:
259,140,44968,1,0,0:0:0:0:
259,140,45059,2,0,P|277:198|290:259,1,104.999996795654,8|0,0:1|0:0,0:0:0:0:
500,211,45420,2,0,P|457:199|394:175,1,104.999996795654,8|0,0:0|0:0,0:0:0:0:
174,174,45782,6,0,P|236:274|293:212,1,209.999993591309,10|8,0:1|0:0,0:0:0:0:
74,273,46324,1,0,0:0:0:0:
74,273,46414,1,0,0:0:0:0:
74,273,46504,2,0,P|90:324|102:374,1,104.999996795654,8|0,0:1|0:0,0:0:0:0:
285,240,46866,2,0,P|322:227|387:215,1,104.999996795654,8|0,0:0|0:0,0:0:0:0:
198,304,47227,6,0,B|169:248|169:248|198:180|198:94,1,209.999993591309,10|8,0:1|0:0,0:0:0:0:
0,148,47770,1,0,0:0:0:0:
0,148,47860,1,0,0:0:0:0:
0,148,47950,2,0,P|26:201|73:244,1,104.999996795654,8|0,0:1|0:0,0:0:0:0:
301,99,48312,2,0,P|229:98|161:117,1,104.999996795654,8|0,0:0|0:0,0:0:0:0:
386,215,48673,6,0,L|418:-8,1,209.999993591309,10|8,0:1|0:0,0:0:0:0:
285,240,49216,1,0,0:0:0:0:
285,240,49306,1,0,0:0:0:0:
285,240,49396,5,8,0:1:0:0:
500,100,49577,1,0,0:0:0:0:
301,99,49757,1,8,0:0:0:0:
500,211,49938,1,0,0:0:0:0:
193,247,50119,6,0,B|146:96|146:96|223:109,1,209.999993591309,14|8,0:1|0:0,0:0:0:0:
239,364,50661,1,0,0:0:0:0:
239,364,50751,1,0,0:0:0:0:
239,364,50842,2,0,B|341:251|341:251|242:231,1,209.999993591309,8|8,0:1|0:0,0:0:0:0:
284,239,51384,1,0,0:0:0:0:
408,366,51565,1,10,0:1:0:0:
239,364,51745,5,8,0:0:0:0:
206,337,51835,1,8,0:0:0:0:
217,296,51925,1,4,0:0:0:0:
189,263,52016,1,4,0:0:0:0:
147,255,52106,5,8,0:1:0:0:
171,244,52197,1,8,0:1:0:0:
195,233,52288,1,8,0:1:0:0:
219,224,52378,1,8,0:1:0:0:
231,184,52468,5,8,0:1:0:0:
247,144,52559,1,8,0:1:0:0:
232,104,52649,2,0,L|164:78,1,52.4999983978272,8|0,0:0|0:0,0:0:0:0:
82,175,52830,2,0,L|169:168,1,52.4999983978272,8|0,0:1|0:0,0:0:0:0:
267,273,53010,6,0,B|229:280|166:262|166:262|189:257|218:223,1,168.750006437302,14|0,0:1|0:0,0:0:0:0:
134,170,53372,5,8,0:0:0:0:
267,273,53553,1,8,0:1:0:0:
232,104,53733,5,8,0:0:0:0:
74,265,53914,1,8,0:1:0:0:
134,170,54095,1,8,0:1:0:0:
134,170,54276,6,0,P|109:220|75:265,1,112.500004291535,8|0,0:1|0:0,0:0:0:0:
192,265,54637,2,0,P|158:220|133:169,1,112.500004291535,8|0,0:0|0:0,0:0:0:0:
283,239,54998,6,0,B|329:245|369:267|369:267|350:319|281:352,1,209.999993591309,2|0,0:0|0:0,0:0:0:0:
74,265,55541,1,2,0:0:0:0:
283,239,55721,1,0,0:0:0:0:
134,170,55902,6,0,L|190:393,1,209.999993591309,14|8,0:1|0:0,0:0:0:0:
386,215,56444,1,0,0:0:0:0:
386,215,56535,1,0,0:0:0:0:
386,215,56625,2,0,L|271:243,2,104.999996795654,8|0|8,0:1|0:0|0:0,0:0:0:0:
134,170,57167,1,0,0:0:0:0:
134,170,57257,1,0,0:0:0:0:
134,170,57348,6,0,L|246:143,1,104.999996795654,10|0,0:1|0:0,0:0:0:0:
287,349,57709,2,0,L|184:373,1,104.999996795654,8|0,0:0|0:0,0:0:0:0:
386,215,58071,1,8,0:1:0:0:
134,170,58251,1,0,0:0:0:0:
283,239,58432,1,8,0:0:0:0:
182,85,58613,1,0,0:0:0:0:
167,370,58794,6,0,P|262:337|282:238,1,209.999993591309,10|8,0:1|0:0,0:0:0:0:
42,165,59336,1,0,0:0:0:0:
42,165,59426,1,0,0:0:0:0:
42,165,59516,2,0,P|59:214|74:264,2,104.999996795654,8|0|8,0:1|0:0|0:0,0:0:0:0:
282,238,60059,1,0,0:0:0:0:
282,238,60149,1,0,0:0:0:0:
282,238,60239,6,0,P|339:218|375:155,1,104.999996795654,10|0,0:1|0:0,0:0:0:0:
182,85,60601,1,8,0:0:0:0:
178,190,60782,2,0,L|183:60,1,104.999996795654,0|8,0:0|0:1,0:0:0:0:
173,294,61143,1,0,0:0:0:0:
277,134,61324,1,8,0:0:0:0:
73,264,61504,1,0,0:0:0:0:
283,270,61685,6,0,B|334:127|334:127|259:135,1,209.999993591309,10|8,0:1|0:0,0:0:0:0:
73,264,62227,2,0,B|102:287|102:287|169:280,1,104.999996795654,0|8,0:0|0:1,0:0:0:0:
338,384,62589,2,0,B|309:361|309:361|242:368,1,104.999996795654,0|8,0:0|0:0,0:0:0:0:
428,318,62950,6,0,P|440:270|407:207,2,104.999996795654,2|8|0,0:0|0:1|0:0,0:0:0:0:
333,127,63492,2,0,P|388:118|454:103,1,104.999996795654,8|0,0:0|0:0,0:0:0:0:
324,278,63854,2,0,P|271:266|196:254,1,104.999996795654,8|0,0:1|0:0,0:0:0:0:
182,85,64215,1,8,0:0:0:0:
436,107,64396,1,0,0:0:0:0:
436,107,64486,1,0,0:0:0:0:
436,107,64577,5,14,0:1:0:0:
221,257,64757,1,8,0:1:0:0:
360,8,64938,5,8,0:0:0:0:
324,278,65119,1,8,0:1:0:0:
182,85,65300,5,8,0:0:0:0:
241,368,65480,1,8,0:1:0:0:
436,107,65661,5,8,0:0:0:0:
73,264,65842,1,8,0:1:0:0:
182,85,66023,5,14,0:1:0:0:
222,95,66113,1,4,0:0:0:0:
259,114,66203,1,4,0:0:0:0:
290,142,66294,1,4,0:0:0:0:
308,179,66384,2,0,L|295:248,1,52.4999983978272,8|0,0:0|0:0,0:0:0:0:
241,368,66565,6,0,B|178:373|178:373|199:273,1,150,14|8,0:1|0:1,0:0:0:0:
345,349,66836,1,8,0:1:0:0:
345,349,66926,2,0,L|419:343,1,75,8|8,0:1|0:1,0:0:0:0:
420,219,67107,5,4,0:0:0:0:
408,178,67197,1,4,0:0:0:0:
376,150,67287,1,4,0:0:0:0:
334,140,67378,1,4,0:0:0:0:
293,145,67468,6,0,L|349:368,1,209.999993591309,14|8,0:1|0:0,0:0:0:0:
118,347,68010,1,0,0:0:0:0:
118,347,68101,1,0,0:0:0:0:
118,347,68191,2,0,P|148:303|210:289,2,104.999996795654,8|0|8,0:1|0:0|0:0,0:0:0:0:
104,161,68733,1,0,0:0:0:0:
104,161,68824,1,0,0:0:0:0:
104,161,68914,6,0,P|44:134|-19:117,1,104.999996795654,10|0,0:1|0:0,0:0:0:0:
195,287,69276,2,0,P|245:264|321:241,1,104.999996795654,8|0,0:0|0:0,0:0:0:0:
436,107,69637,1,8,0:1:0:0:
217,166,69817,1,0,0:0:0:0:
409,243,69998,1,8,0:0:0:0:
275,50,70179,1,0,0:0:0:0:
290,327,70360,6,0,B|442:282|442:282|401:234,1,209.999993591309,14|8,0:1|0:0,0:0:0:0:
190,182,70902,1,0,0:0:0:0:
190,182,70992,1,0,0:0:0:0:
190,182,71083,2,0,L|195:312,2,104.999996795654,12|0|8,0:1|0:0|0:0,0:0:0:0:
400,129,71625,1,0,0:0:0:0:
400,129,71715,1,0,0:0:0:0:
400,129,71806,6,0,P|460:161|468:234,1,104.999996795654,14|0,0:1|0:0,0:0:0:0:
296,308,72167,2,0,P|239:293|159:285,1,104.999996795654,8|0,0:0|0:0,0:0:0:0:
0,282,72529,1,8,0:1:0:0:
0,282,72619,2,0,P|24:331|100:357,1,104.999996795654,8|0,0:0|0:0,0:0:0:0:
98,259,72890,2,0,B|85:190|85:190|108:154,1,104.999996795654,8|0,0:0|0:0,0:0:0:0:
342,166,73251,5,14,0:1:0:0:
193,286,73432,1,0,0:0:0:0:
275,50,73613,1,8,0:0:0:0:
292,248,73794,1,0,0:0:0:0:
103,160,73974,1,8,0:1:0:0:
347,71,74155,2,0,B|367:119|367:119|319:205,1,104.999996795654,0|8,0:0|0:0,0:0:0:0:
187,380,74516,6,0,B|167:332|167:332|215:246,2,104.999996795654,6|8|0,0:1|0:1|0:0,0:0:0:0:
292,248,75059,1,8,0:0:0:0:
98,259,75239,1,0,0:0:0:0:
287,349,75420,5,8,0:1:0:0:
328,344,75510,1,8,0:1:0:0:
363,321,75601,1,8,0:1:0:0:
387,286,75691,1,8,0:1:0:0:
394,244,75782,5,4,0:0:0:0:
389,228,75872,1,4,0:0:0:0:
384,212,75962,1,4,0:0:0:0:
379,196,76053,1,4,0:0:0:0:
374,180,76143,5,14,0:1:0:0:
187,380,76323,1,8,0:1:0:0:
246,118,76504,5,8,0:1:0:0:
287,349,76685,1,8,0:1:0:0:
58,202,76866,6,0,P|77:128|143:88,1,157.499995193482,12|0,0:1|0:0,0:0:0:0:
314,214,77227,2,0,B|205:224|205:224|146:174,1,157.499995193482,8|0,0:1|0:0,0:0:0:0:
357,111,77589,6,0,B|435:103|435:103|409:220,1,157.499995193482,14|0,0:1|0:0,0:0:0:0:
304,308,77950,2,0,B|257:219|257:219|350:210,1,157.499995193482,8|0,0:1|0:0,0:0:0:0:
160,304,78312,2,0,P|90:272|58:202,1,157.499995193482,12|0,0:1|0:0,0:0:0:0:
168,192,78673,5,8,0:1:0:0:
28,360,78854,1,8,0:1:0:0:
54,105,79035,5,14,0:1:0:0:
160,304,79215,1,8,0:1:0:0:
246,118,79396,5,8,0:1:0:0:
33,228,79577,1,8,0:1:0:0:
270,338,79757,5,8,0:1:0:0:
276,312,79847,1,8,0:1:0:0:
275,286,79938,1,8,0:1:0:0:
268,260,80028,1,8,0:1:0:0:
254,237,80119,5,4,0:0:0:0:
289,216,80208,1,4,0:0:0:0:
330,209,80299,1,4,0:0:0:0:
370,218,80389,1,4,0:0:0:0:
409,242,80480,6,0,B|396:287|347:322|347:322|298:216|186:310|143:260|143:260|194:213|262:195|262:195|199:146|210:91|221:14|190:34|190:34|160:53|147:119,1,731.249966526033,10|0,0:1|0:0,0:0:0:0:
327,105,81926,6,0,P|391:90|447:86,1,112.500004291535,14|0,0:1|0:0,0:0:0:0:
262,194,82287,2,0,P|199:171|119:156,1,112.500004291535,8|0,0:0|0:0,0:0:0:0:
66,213,82559,1,0,0:0:0:0:
66,213,82649,5,8,0:1:0:0:
219,66,82830,1,0,0:0:0:0:
194,318,83010,1,8,0:0:0:0:
66,213,83191,6,0,B|156:204|156:204|193:218|193:218|289:208,1,225.000008583069,14|8,0:1|0:1,0:0:0:0:
437,86,83733,1,8,0:0:0:0:
219,66,83914,1,0,0:0:0:0:
219,66,84004,1,0,0:0:0:0:
219,66,84095,5,8,0:1:0:0:
385,219,84275,1,0,0:0:0:0:
85,180,84456,1,8,0:0:0:0:
238,307,84637,1,0,0:0:0:0:
238,307,84727,1,0,0:0:0:0:
238,307,84818,6,0,P|267:267|288:200,1,112.500004291535,14|0,0:1|0:0,0:0:0:0:
154,89,85179,2,0,P|154:140|221:205,1,112.500004291535,8|0,0:0|0:0,0:0:0:0:
257,113,85450,1,0,0:0:0:0:
257,113,85541,5,8,0:1:0:0:
44,107,85721,1,0,0:0:0:0:
286,207,85902,1,8,0:0:0:0:
41,246,86083,6,0,B|-25:104|-25:104|77:107,1,225.000008583069,14|8,0:1|0:1,0:0:0:0:
257,113,86625,1,8,0:0:0:0:
148,227,86805,2,0,L|151:149,1,56.2500021457673,8|0,0:1|0:0,0:0:0:0:
156,68,86986,5,8,0:1:0:0:
182,31,87077,1,8,0:1:0:0:
220,8,87166,1,8,0:1:0:0:
265,2,87257,1,8,0:1:0:0:
309,14,87348,5,4,0:0:0:0:
289,56,87438,1,4,0:0:0:0:
273,100,87529,1,4,0:0:0:0:
261,145,87619,1,4,0:0:0:0:
256,192,87709,5,14,0:1:0:0:
256,192,87800,12,0,93492,0:0:0:0:
