osu file format v14

[General]
AudioFilename: optc.mp3
AudioLeadIn: 0
PreviewTime: 54998
Countdown: 0
SampleSet: Soft
StackLeniency: 0.5
Mode: 0
LetterboxInBreaks: 0
WidescreenStoryboard: 1

[Editor]
Bookmarks: 962,9637,15420,26986,38553,55902,67468,81926
DistanceSpacing: 1.4
BeatDivisor: 4
GridSize: 32
TimelineZoom: 3.399999

[Metadata]
Title:Cynthia No Hikari
TitleUnicode:シンシアの光
Artist:Eir Aoi
ArtistUnicode:藍井エイル
Creator:Shad0w1and
Version:Nagori
Source:ソードアート・オンライン -ロスト・ソング-
Tags:Sword Art Online Lost Song SAO Lami intoon Kencho Doormat Misure Pata-Mon
BeatmapID:1316822
BeatmapSetID:504005

[Difficulty]
HPDrainRate:6
CircleSize:3
OverallDifficulty:8.5
ApproachRate:9.2
SliderMultiplier:2
SliderTickRate:1

[Events]
//Background and Video events
Video,0,"optc.flv"
0,0,"BG0.jpg",0,0
//Break Periods
//Storyboard Layer 0 (Background)
//Storyboard Layer 1 (Fail)
//Storyboard Layer 2 (Pass)
//Storyboard Layer 3 (Foreground)
//Storyboard Sound Samples

[TimingPoints]
-483,361.44578313253,4,2,1,60,1,0
962,-83.3333333333333,4,2,1,60,0,0
8191,-76.9230769230769,4,2,1,60,0,0
8914,-133.333333333333,4,2,1,60,0,0
9637,-71.4285714285714,4,2,1,80,0,0
14697,-71.4285714285714,4,2,1,75,0,0
15420,-76.9230769230769,4,2,1,60,0,0
25902,-66.6666666666667,4,2,1,60,0,0
26986,-71.4285714285714,4,2,1,70,0,0
37107,-90.9090909090909,4,2,1,70,0,0
38553,-71.4285714285714,4,2,1,80,0,0
39456,-71.4285714285714,4,2,1,70,0,0
39818,-125,4,2,1,80,0,0
40179,-71.4285714285714,4,2,1,80,0,0
42709,-58.8235294117647,4,2,1,80,0,0
43432,-71.4285714285714,4,2,1,70,0,0
44336,-71.4285714285714,4,2,1,80,0,0
53010,-58.8235294117647,4,2,1,70,0,0
54998,-66.6666666666667,4,2,1,50,0,0
55902,-71.4285714285714,4,2,1,90,0,1
66023,-71.4285714285714,4,2,1,70,0,1
66565,-50,4,2,1,80,0,1
67468,-71.4285714285714,4,2,1,90,0,1
80480,-100,4,2,1,50,0,0
81926,-71.4285714285714,4,2,1,90,0,1
86806,-71.4285714285714,4,2,1,80,0,1
87709,-71.4285714285714,4,2,1,90,0,0
87800,-71.4285714285714,4,2,1,40,0,0
93492,-71.4285714285714,4,2,1,5,0,0

[Colours]
Combo1 : 255,238,119
Combo2 : 60,247,153
Combo3 : 79,109,255
Combo4 : 245,82,106

[HitObjects]
101,66,59,6,0,P|125:172|141:290,1,200,2|0,0:0|0:0,0:0:0:0:
203,115,601,1,2,0:0:0:0:
33,226,782,1,0,0:0:0:0:
243,218,962,6,0,P|291:180|256:18,1,239.999992675781,2|0,0:0|0:0,0:0:0:0:
95,89,1504,2,0,P|130:198|243:218,1,239.999992675781,2|0,0:0|0:0,0:0:0:0:
203,115,2047,1,2,0:0:0:0:
1,190,2227,1,2,0:0:0:0:
1,190,2318,1,0,0:0:0:0:
1,190,2408,6,0,P|5:253|14:317,2,119.999996337891,2|0|0,0:0|0:0|0:0,0:0:0:0:
95,89,2950,1,2,0:0:0:0:
242,218,3131,2,0,P|171:215|93:209,1,119.999996337891
203,115,3492,1,2,0:0:0:0:
181,311,3673,1,0,0:0:0:0:
95,89,3854,6,0,P|136:26|292:51,1,239.999992675781,2|0,0:0|0:0,0:0:0:0:
130,198,4396,2,0,P|97:148|95:89,1,119.999996337891,2|0,0:0|0:0,0:0:0:0:
242,218,4757,2,0,P|183:224|130:198,1,119.999996337891,2|0,0:0|0:0,0:0:0:0:
283,40,5119,1,2,0:0:0:0:
283,40,5209,1,0,0:0:0:0:
283,40,5300,6,0,P|299:107|326:188,2,119.999996337891,2|0|0,0:0|0:0|0:0,0:0:0:0:
425,181,5842,2,0,P|402:235|353:267,1,119.999996337891,2|0,0:0|0:0,0:0:0:0:
203,115,6203,1,0,0:0:0:0:
237,230,6384,1,2,0:0:0:0:
314,155,6565,1,0,0:0:0:0:
104,175,6745,5,2,0:0:0:0:
268,240,6926,1,0,0:0:0:0:
187,207,7107,1,0,0:0:0:0:
353,268,7288,1,0,0:0:0:0:
177,120,7468,5,2,0:0:0:0:
289,329,7649,1,0,0:0:0:0:
314,155,7830,1,0,0:0:0:0:
147,292,8010,1,0,0:0:0:0:
353,268,8191,5,2,0:0:0:0:
400,233,8282,1,0,0:0:0:0:
427,182,8371,1,0,0:0:0:0:
427,123,8462,1,0,0:0:0:0:
402,71,8552,1,0,0:0:0:0:
356,36,8642,1,0,0:0:0:0:
298,26,8733,1,0,0:0:0:0:
243,43,8823,1,0,0:0:0:0:
200,84,8914,2,0,L|185:175,1,75.0000028610231
306,151,9276,5,4,0:0:0:0:
389,161,9366,1,4,0:0:0:0:
450,218,9456,1,4,0:0:0:0:
462,302,9547,1,4,0:0:0:0:
416,380,9637,6,0,L|248:363,1,139.999995727539,14|0,0:1|0:0,0:0:0:0:
187,158,9998,1,8,0:0:0:0:
337,278,10179,1,0,0:0:0:0:
337,278,10270,1,0,0:0:0:0:
337,278,10360,1,8,0:1:0:0:
83,241,10541,1,0,0:0:0:0:
306,151,10721,1,8,0:0:0:0:
46,59,10902,6,0,L|104:353,1,279.999991455078,14|8,0:1|0:1,0:0:0:0:
152,115,11444,1,8,0:0:0:0:
0,269,11625,1,0,0:0:0:0:
0,269,11715,1,0,0:0:0:0:
0,269,11806,1,8,0:1:0:0:
306,151,11986,1,0,0:0:0:0:
46,59,12167,1,8,0:0:0:0:
125,306,12348,1,0,0:0:0:0:
125,306,12438,1,0,0:0:0:0:
125,306,12529,6,0,P|198:314|272:232,1,139.999995727539,14|0,0:1|0:0,0:0:0:0:
253,39,12890,1,8,0:0:0:0:
170,196,13071,1,0,0:0:0:0:
170,196,13161,1,0,0:0:0:0:
170,196,13251,1,8,0:1:0:0:
372,42,13432,1,0,0:0:0:0:
46,59,13613,1,8,0:0:0:0:
338,249,13794,2,0,L|381:-15,1,209.999993591309,14|0,0:1|0:0,0:0:0:0:
475,137,14155,6,0,L|404:137,1,69.9999978637696,8|0,0:1|0:0,0:0:0:0:
268,249,14336,2,0,L|337:249,1,69.9999978637696,8|0,0:0|0:0,0:0:0:0:
480,351,14516,2,0,L|410:351,1,69.9999978637696,8|0,0:1|0:0,0:0:0:0:
187,344,14697,5,8,0:1:0:0:
156,305,14787,1,8,0:1:0:0:
143,257,14877,1,8,0:1:0:0:
150,208,14968,1,8,0:1:0:0:
176,166,15059,1,4,0:0:0:0:
215,137,15148,1,4,0:0:0:0:
233,83,15239,1,4,0:0:0:0:
212,31,15329,1,4,0:0:0:0:
146,85,15420,6,0,L|10:66,1,129.999994049073,14|0,0:1|0:0,0:0:0:0:
170,196,15782,1,8,0:1:0:0:
146,85,15962,1,0,0:0:0:0:
298,177,16143,2,0,L|155:197,1,129.999994049073,8|0,0:1|0:0,0:0:0:0:
322,67,16504,1,8,0:1:0:0:
241,295,16685,6,0,P|191:255|169:195,1,129.999994049073,0|8,0:0|0:1,0:0:0:0:
382,255,17047,2,0,P|372:319|364:383,1,129.999994049073,0|8,0:0|0:1,0:0:0:0:
439,137,17408,6,0,P|488:177|511:237,1,129.999994049073,0|8,0:0|0:1,0:0:0:0:
298,177,17770,2,0,P|307:112|315:48,1,129.999994049073,0|8,0:0|0:1,0:0:0:0:
439,137,18131,1,0,0:0:0:0:
187,323,18312,6,0,L|168:188,1,129.999994049073,10|0,0:1|0:0,0:0:0:0:
315,48,18673,2,0,L|296:183,1,129.999994049073,8|0,0:1|0:0,0:0:0:0:
38,175,19035,1,8,0:1:0:0:
315,48,19215,1,0,0:0:0:0:
168,194,19396,1,8,0:1:0:0:
17,67,19577,6,0,L|145:85,1,129.999994049073,0|8,0:0|0:1,0:0:0:0:
425,157,19938,2,0,L|296:175,1,129.999994049073,0|8,0:0|0:1,0:0:0:0:
58,304,20300,2,0,L|186:322,1,129.999994049073,0|8,0:0|0:1,0:0:0:0:
337,299,20571,1,0,0:0:0:0:
383,275,20661,2,0,P|417:221|425:157,2,129.999994049073,0|8|0,0:0|0:1|0:0,0:0:0:0:
168,194,21203,5,10,0:1:0:0:
296,175,21384,1,0,0:0:0:0:
186,322,21565,1,8,0:1:0:0:
38,175,21745,1,0,0:0:0:0:
168,194,21926,1,8,0:1:0:0:
58,304,22107,2,0,L|37:164,1,129.999994049073,0|8,0:0|0:1,0:0:0:0:
383,275,22468,6,0,L|529:252,1,129.999994049073,2|8,0:0|0:1,0:0:0:0:
330,384,22830,1,0,0:0:0:0:
168,194,23010,2,0,L|330:169,1,129.999994049073,8|0,0:1|0:0,0:0:0:0:
115,303,23372,1,8,0:1:0:0:
145,85,23553,1,0,0:0:0:0:
243,281,23733,1,8,0:1:0:0:
424,156,23914,1,0,0:0:0:0:
424,156,24004,1,0,0:0:0:0:
424,156,24095,6,0,L|288:177,1,129.999994049073,10|0,0:1|0:0,0:0:0:0:
273,64,24456,2,0,L|144:84,1,129.999994049073,8|0,0:1|0:0,0:0:0:0:
168,194,24818,2,0,L|40:215,1,129.999994049073,8|0,0:1|0:0,0:0:0:0:
288,300,25179,2,0,L|160:321,1,129.999994049073,8|0,0:1|0:0,0:0:0:0:
424,156,25541,6,0,P|465:110|463:18,1,129.999994049073,10|0,0:1|0:0,0:0:0:0:
362,64,25812,1,0,0:0:0:0:
362,64,25902,1,8,0:0:0:0:
243,282,26083,5,8,0:1:0:0:
185,297,26173,1,0,0:0:0:0:
133,267,26263,1,8,0:1:0:0:
117,208,26354,1,8,0:1:0:0:
144,155,26444,1,8,0:1:0:0:
200,135,26534,1,8,0:1:0:0:
255,160,26625,1,4,0:0:0:0:
306,189,26715,1,4,0:0:0:0:
364,175,26806,1,4,0:0:0:0:
396,125,26896,1,4,0:0:0:0:
387,69,26986,5,14,0:1:0:0:
197,217,27167,1,0,0:0:0:0:
363,207,27348,2,0,L|386:68,1,139.999995727539,8|0,0:0|0:0,0:0:0:0:
75,236,27709,2,0,P|160:337|288:301,1,279.999991455078,8|8,0:1|0:0,0:0:0:0:
485,187,28251,6,0,L|462:327,1,139.999995727539,2|8,0:1|0:1,0:0:0:0:
386,68,28613,2,0,L|363:207,1,139.999995727539,0|8,0:0|0:0,0:0:0:0:
197,217,28974,2,0,L|174:357,1,139.999995727539,0|8,0:1|0:1,0:0:0:0:
98,98,29336,2,0,L|75:237,1,139.999995727539,0|8,0:0|0:0,0:0:0:0:
287,301,29697,1,0,0:0:0:0:
219,78,29878,6,0,L|174:355,1,279.999991455078,10|8,0:1|0:0,0:0:0:0:
98,98,30420,1,0,0:0:0:0:
287,301,30601,1,8,0:1:0:0:
75,236,30782,1,0,0:0:0:0:
363,206,30962,1,8,0:0:0:0:
51,373,31143,6,0,L|76:227,1,139.999995727539,2|8,0:0|0:1,0:0:0:0:
386,67,31504,2,0,L|362:211,1,139.999995727539,0|8,0:0|0:0,0:0:0:0:
98,98,31866,2,0,L|276:113,1,139.999995727539,0|8,0:0|0:1,0:0:0:0:
339,342,32227,2,0,L|161:327,1,139.999995727539,0|8,0:0|0:0,0:0:0:0:
98,98,32589,1,0,0:0:0:0:
362,204,32770,6,0,P|451:112|342:27,1,279.999991455078,10|8,0:1|0:0,0:0:0:0:
74,235,33312,1,0,0:0:0:0:
218,77,33492,1,8,0:1:0:0:
218,217,33673,2,0,L|219:30,1,139.999995727539,0|8,0:0|0:0,0:0:0:0:
362,204,34035,1,0,0:0:0:0:
362,204,34125,1,0,0:0:0:0:
362,204,34215,6,0,P|427:178|453:112,1,139.999995727539,10|0,0:1|0:0,0:0:0:0:
218,77,34577,1,8,0:0:0:0:
199,330,34757,1,0,0:0:0:0:
363,114,34938,1,8,0:1:0:0:
74,235,35119,1,0,0:0:0:0:
359,343,35300,2,0,L|362:178,1,139.999995727539,8|0,0:0|0:0,0:0:0:0:
218,77,35661,5,10,0:1:0:0:
452,116,35842,1,0,0:0:0:0:
218,217,36023,1,8,0:0:0:0:
362,24,36203,1,0,0:0:0:0:
463,249,36384,2,0,L|349:350,1,139.999995727539,8|0,0:1|0:0,0:0:0:0:
74,235,36745,2,0,L|202:121,1,139.999995727539,8|0,0:0|0:0,0:0:0:0:
361,203,37107,6,0,P|301:177|269:125,1,110.000003356934,10|0,0:1|0:0,0:0:0:0:
381,91,37378,1,0,0:0:0:0:
381,91,37468,1,8,0:0:0:0:
358,342,37649,1,8,0:1:0:0:
178,141,37830,5,8,0:1:0:0:
222,109,37920,1,8,0:1:0:0:
273,90,38010,1,8,0:1:0:0:
328,85,38101,1,8,0:1:0:0:
342,137,38191,1,4,0:0:0:0:
343,191,38281,1,12,0:0:0:0:
326,243,38372,1,12,0:0:0:0:
74,235,38553,5,14,0:1:0:0:
397,139,38733,1,8,0:1:0:0:
102,81,38914,1,8,0:1:0:0:
102,81,39276,1,12,0:1:0:0:
218,217,39456,5,4,0:0:0:0:
273,208,39546,1,4,0:0:0:0:
318,176,39636,1,4,0:0:0:0:
340,124,39727,1,4,0:0:0:0:
342,67,39818,6,0,B|294:59|294:59|276:74|276:74|219:66,1,120,14|0,0:1|0:0,0:0:0:0:
397,139,40179,5,8,0:1:0:0:
218,217,40360,1,8,0:0:0:0:
463,249,40541,1,0,0:0:0:0:
463,249,40631,1,0,0:0:0:0:
463,249,40721,5,8,0:1:0:0:
229,67,40902,1,8,0:1:0:0:
455,15,41083,1,8,0:0:0:0:
218,217,41263,1,8,0:1:0:0:
486,222,41444,5,14,0:1:0:0:
175,139,41625,1,8,0:1:0:0:
359,343,41806,1,8,0:0:0:0:
359,343,42167,5,8,0:1:0:0:
397,139,42348,1,8,0:1:0:0:
74,235,42529,1,8,0:0:0:0:
359,343,42709,6,0,B|457:215|457:215|396:139,1,255.000004863739,14|0,0:1|0:0,0:0:0:0:
342,67,43071,5,8,0:1:0:0:
199,330,43251,1,8,0:0:0:0:
102,81,43432,2,0,L|230:72,1,69.9999978637696,8|8,0:1|0:1,0:0:0:0:
295,208,43613,5,8,0:1:0:0:
284,262,43703,1,8,0:1:0:0:
250,306,43793,1,8,0:1:0:0:
199,330,43884,1,8,0:1:0:0:
143,328,43974,1,4,0:0:0:0:
94,301,44064,1,4,0:0:0:0:
61,254,44155,1,4,0:0:0:0:
55,198,44245,1,4,0:0:0:0:
72,144,44336,6,0,B|185:136|185:136|229:164|229:164|372:153,1,279.999991455078,14|8,0:1|0:0,0:0:0:0:
136,249,44878,1,0,0:0:0:0:
136,249,44968,1,0,0:0:0:0:
135,249,45059,2,0,P|135:329|175:386,1,139.999995727539,8|0,0:1|0:0,0:0:0:0:
389,384,45420,1,8,0:0:0:0:
245,294,45601,1,0,0:0:0:0:
508,244,45782,6,0,L|498:407,2,139.999995727539,10|0|8,0:1|0:0|0:0,0:0:0:0:
351,15,46324,1,0,0:0:0:0:
351,15,46414,1,0,0:0:0:0:
351,15,46504,2,0,L|342:162,1,139.999995727539,8|0,0:1|0:0,0:0:0:0:
508,244,46866,1,8,0:0:0:0:
455,15,47047,1,0,0:0:0:0:
229,164,47227,6,0,B|155:164|101:123|98:49|98:49|147:48|192:64,1,279.999991455078,10|8,0:1|0:0,0:0:0:0:
136,249,47770,1,0,0:0:0:0:
136,249,47860,1,0,0:0:0:0:
136,249,47950,2,0,P|64:226|-14:220,1,139.999995727539,8|0,0:1|0:0,0:0:0:0:
166,378,48312,1,8,0:0:0:0:
229,164,48492,1,0,0:0:0:0:
354,353,48673,6,0,B|435:321|435:321|236:292,1,279.999991455078,10|8,0:1|0:0,0:0:0:0:
0,261,49215,1,0,0:0:0:0:
0,261,49306,1,0,0:0:0:0:
0,261,49396,1,8,0:1:0:0:
166,378,49577,1,0,0:0:0:0:
181,60,49757,1,8,0:0:0:0:
0,261,49938,1,0,0:0:0:0:
354,353,50119,6,0,B|416:159|416:159|340:105,1,279.999991455078,14|8,0:1|0:0,0:0:0:0:
38,338,50661,1,0,0:0:0:0:
38,338,50751,1,0,0:0:0:0:
37,338,50842,2,0,P|96:374|165:378,1,139.999995727539,8|0,0:1|0:0,0:0:0:0:
364,212,51203,1,8,0:0:0:0:
136,249,51384,1,0,0:0:0:0:
259,361,51565,6,0,L|236:261,1,69.9999978637696,10|0,0:1|0:0,0:0:0:0:
25,176,51745,1,8,0:0:0:0:
85,127,51836,1,8,0:0:0:0:
161,121,51926,1,4,0:0:0:0:
229,155,52016,1,4,0:0:0:0:
287,204,52106,1,8,0:1:0:0:
364,212,52197,1,8,0:1:0:0:
433,177,52288,2,0,L|454:82,1,69.9999978637696,8|8,0:1|0:1,0:0:0:0:
136,249,52468,5,8,0:1:0:0:
136,249,52559,1,8,0:1:0:0:
136,249,52649,2,0,L|153:334,1,69.9999978637696,8|0,0:0|0:0,0:0:0:0:
341,87,52830,2,0,L|364:-12,1,69.9999978637696,8|0,0:1|0:0,0:0:0:0:
41,94,53010,6,0,B|-19:97|-19:97|85:127,1,170.000003242493,14|8,0:1|0:1,0:0:0:0:
421,236,53372,2,0,B|525:206|525:206|464:203,1,170.000003242493,8|8,0:0|0:1,0:0:0:0:
25,176,53733,5,8,0:0:0:0:
341,87,53914,1,8,0:1:0:0:
165,377,54095,1,8,0:1:0:0:
181,60,54276,5,8,0:1:0:0:
354,353,54456,1,8,0:1:0:0:
25,176,54637,1,8,0:0:0:0:
25,176,54998,6,0,B|135:309|204:184|303:226|303:226|251:92|183:115|96:60|96:60|107:113|141:155,1,675.000025749208,2|0,0:0|0:0,0:0:0:0:
421,236,55902,6,0,B|491:299|491:299|500:73,1,279.999991455078,14|8,0:1|0:0,0:0:0:0:
303,226,56444,2,0,L|297:366,1,139.999995727539,0|8,0:0|0:1,0:0:0:0:
498,113,56806,1,0,0:0:0:0:
134,146,56986,1,8,0:0:0:0:
297,365,57167,1,0,0:0:0:0:
367,105,57348,6,0,L|202:95,1,139.999995727539,10|0,0:1|0:0,0:0:0:0:
37,338,57709,1,8,0:0:0:0:
303,226,57890,1,0,0:0:0:0:
25,176,58071,1,8,0:1:0:0:
297,365,58251,1,0,0:0:0:0:
227,96,58432,1,8,0:0:0:0:
149,317,58613,1,0,0:0:0:0:
421,236,58794,6,0,B|501:211|501:211|302:176,1,279.999991455078,10|8,0:1|0:0,0:0:0:0:
11,341,59336,2,0,L|149:316,1,139.999995727539,0|8,0:0|0:1,0:0:0:0:
464,169,59697,2,0,L|319:143,1,139.999995727539,0|8,0:0|0:0,0:0:0:0:
80,101,60059,1,0,0:0:0:0:
308,283,60239,6,0,L|325:144,1,139.999995727539,10|0,0:1|0:0,0:0:0:0:
148,316,60601,1,8,0:0:0:0:
464,169,60782,2,0,L|486:1,1,139.999995727539,0|8,0:0|0:1,0:0:0:0:
324,144,61143,1,0,0:0:0:0:
445,307,61324,1,8,0:0:0:0:
482,30,61504,1,0,0:0:0:0:
212,187,61685,6,0,B|284:238|284:238|464:169,1,279.999991455078,10|8,0:1|0:0,0:0:0:0:
398,319,62227,2,0,L|280:235,1,139.999995727539,0|8,0:0|0:1,0:0:0:0:
464,169,62589,2,0,L|335:77,1,139.999995727539,0|8,0:0|0:0,0:0:0:0:
398,319,62950,1,0,0:0:0:0:
148,316,63131,6,0,L|34:234,1,139.999995727539,10|0,0:1|0:0,0:0:0:0:
283,237,63492,2,0,L|154:144,1,139.999995727539,8|0,0:0|0:0,0:0:0:0:
464,169,63854,2,0,P|439:249|361:271,1,139.999995727539,8|0,0:1|0:0,0:0:0:0:
169,155,64215,1,8,0:0:0:0:
378,72,64396,1,8,0:1:0:0:
430,51,64486,1,8,0:1:0:0:
482,30,64577,5,14,0:1:0:0:
398,319,64757,1,8,0:1:0:0:
304,18,64938,5,8,0:0:0:0:
288,334,65119,1,8,0:1:0:0:
121,35,65300,5,8,0:0:0:0:
186,366,65480,1,8,0:1:0:0:
430,51,65661,5,8,0:0:0:0:
34,234,65842,1,8,0:1:0:0:
297,365,66023,5,14,0:1:0:0:
352,357,66113,1,4,0:0:0:0:
393,319,66203,1,4,0:0:0:0:
405,264,66294,1,4,0:0:0:0:
384,211,66384,1,8,0:0:0:0:
336,181,66474,1,4,0:0:0:0:
282,182,66565,2,0,B|285:247|285:247|330:289,1,100,14|0,0:1|0:0,0:0:0:0:
501,211,66745,5,8,0:1:0:0:
460,141,66836,1,8,0:1:0:0:
395,94,66926,1,8,0:1:0:0:
317,75,67016,1,8,0:1:0:0:
237,90,67107,1,4,0:0:0:0:
170,134,67197,1,4,0:0:0:0:
126,201,67288,1,4,0:0:0:0:
112,279,67378,1,4,0:0:0:0:
129,358,67468,6,0,B|316:323|316:323|208:279,1,279.999991455078,14|8,0:1|0:0,0:0:0:0:
7,204,68010,2,0,L|20:347,2,139.999995727539,0|8|0,0:0|0:1|0:0,0:0:0:0:
282,182,68552,1,8,0:0:0:0:
112,279,68733,1,0,0:0:0:0:
275,57,68914,6,0,B|466:61|466:61|392:110,1,279.999991455078,10|8,0:1|0:0,0:0:0:0:
112,279,69456,1,0,0:0:0:0:
370,314,69637,1,8,0:1:0:0:
391,110,69818,1,0,0:0:0:0:
232,289,69998,1,8,0:0:0:0:
501,211,70179,1,0,0:0:0:0:
275,57,70360,6,0,B|194:111|194:111|236:311,1,279.999991455078,14|8,0:1|0:0,0:0:0:0:
332,167,70902,1,0,0:0:0:0:
83,141,71083,2,0,L|114:290,1,139.999995727539,14|0,0:1|0:0,0:0:0:0:
275,57,71444,1,8,0:0:0:0:
0,42,71625,1,0,0:0:0:0:
111,278,71805,6,0,L|276:251,1,139.999995727539,14|0,0:1|0:0,0:0:0:0:
505,104,72167,2,0,P|477:35|423:-2,1,139.999995727539,8|0,0:0|0:0,0:0:0:0:
83,141,72529,1,8,0:1:0:0:
83,141,72619,2,0,B|128:172|128:172|253:151,1,139.999995727539,8|0,0:0|0:0,0:0:0:0:
378,272,72890,2,0,B|333:241|333:241|208:262,1,139.999995727539,8|0,0:0|0:0,0:0:0:0:
0,297,73251,5,14,0:1:0:0:
212,157,73432,1,0,0:0:0:0:
129,358,73613,1,8,0:0:0:0:
52,118,73794,1,0,0:0:0:0:
0,327,73974,1,8,0:1:0:0:
248,255,74155,2,0,L|228:106,1,139.999995727539,0|8,0:0|0:0,0:0:0:0:
378,272,74516,1,0,0:1:0:0:
101,279,74697,6,0,L|80:124,1,139.999995727539,14|0,0:1|0:0,0:0:0:0:
304,29,75059,1,8,0:0:0:0:
256,294,75239,1,0,0:0:0:0:
330,140,75420,5,8,0:1:0:0:
256,118,75510,1,8,0:1:0:0:
190,158,75600,1,8,0:1:0:0:
177,234,75691,1,8,0:1:0:0:
127,293,75782,1,4,0:0:0:0:
50,291,75872,1,4,0:0:0:0:
4,229,75962,1,4,0:0:0:0:
25,154,76053,1,4,0:0:0:0:
95,124,76143,5,14,0:1:0:0:
129,358,76323,1,8,0:1:0:0:
0,42,76504,5,8,0:1:0:0:
267,213,76685,1,8,0:1:0:0:
17,180,76866,6,0,L|-5:4,1,139.999995727539,14|8,0:1|0:1,0:0:0:0:
307,211,77227,2,0,L|265:384,1,139.999995727539,8|8,0:1|0:1,0:0:0:0:
17,180,77589,6,0,B|6:93|6:93|67:44,1,139.999995727539,14|8,0:1|0:1,0:0:0:0:
150,340,77950,2,0,B|117:380|117:380|30:369,1,139.999995727539,8|8,0:1|0:1,0:0:0:0:
307,211,78312,2,0,B|347:243|347:243|336:330,1,139.999995727539,14|8,0:1|0:1,0:0:0:0:
191,125,78673,5,8,0:1:0:0:
512,196,78854,1,8,0:1:0:0:
150,340,79035,5,14,0:1:0:0:
410,99,79215,1,8,0:1:0:0:
95,124,79396,1,8,0:1:0:0:
462,326,79577,1,8,0:1:0:0:
374,0,79757,5,8,0:1:0:0:
322,56,79847,1,8,0:1:0:0:
299,129,79937,1,8,0:1:0:0:
310,205,80028,1,8,0:1:0:0:
300,281,80119,1,4,0:0:0:0:
238,327,80209,1,4,0:0:0:0:
161,317,80299,1,4,0:0:0:0:
112,256,80390,1,4,0:0:0:0:
122,179,80480,6,0,B|172:187|212:172|239:123|239:123|234:66|298:17|381:38|416:117|374:204|298:212|243:174|239:123|239:123|200:52|200:52|156:54|116:36|116:36|126:70|153:91,1,750,10|0,0:1|0:0,0:0:0:0:
279,266,81926,6,0,P|356:258|427:197,1,139.999995727539,14|0,0:1|0:0,0:0:0:0:
470,0,82287,1,8,0:0:0:0:
301,119,82468,1,0,0:0:0:0:
301,119,82559,1,0,0:0:0:0:
301,119,82649,1,8,0:1:0:0:
512,196,82830,1,0,0:0:0:0:
357,0,83010,1,8,0:0:0:0:
279,266,83191,6,0,B|321:271|350:284|350:284|391:263|455:261|455:261|408:253|361:214,1,279.999991455078,14|8,0:1|0:1,0:0:0:0:
122,179,83733,1,8,0:0:0:0:
313,380,83914,1,0,0:0:0:0:
313,380,84004,1,0,0:0:0:0:
313,380,84095,1,8,0:1:0:0:
301,119,84275,1,0,0:0:0:0:
150,340,84456,1,8,0:0:0:0:
117,36,84637,1,0,0:0:0:0:
117,36,84727,1,0,0:0:0:0:
117,36,84818,6,0,L|304:20,1,139.999995727539,14|0,0:1|0:0,0:0:0:0:
413,199,85179,1,8,0:0:0:0:
194,170,85360,1,0,0:0:0:0:
194,170,85450,1,0,0:0:0:0:
194,170,85540,1,8,0:1:0:0:
357,0,85721,1,0,0:0:0:0:
374,285,85902,1,8,0:0:0:0:
81,211,86083,2,0,P|74:124|185:49,1,209.999993591309,14|0,0:1|0:0,0:0:0:0:
360,48,86444,6,0,L|258:57,1,69.9999978637696,8|0,0:1|0:0,0:0:0:0:
194,170,86625,2,0,L|266:177,1,69.9999978637696,8|0,0:0|0:0,0:0:0:0:
374,285,86805,2,0,L|288:292,1,69.9999978637696,8|0,0:1|0:0,0:0:0:0:
114,373,86986,5,8,0:1:0:0:
61,317,87076,1,8,0:1:0:0:
65,240,87166,1,8,0:1:0:0:
125,191,87257,1,8,0:1:0:0:
201,194,87347,1,4,0:0:0:0:
277,195,87437,1,4,0:0:0:0:
332,141,87528,1,4,0:0:0:0:
330,63,87619,1,4,0:0:0:0:
273,11,87709,5,14,0:1:0:0:
256,192,87800,12,0,93492,0:0:0:0:
