osu file format v14

[General]
AudioFilename: optc.mp3
AudioLeadIn: 0
PreviewTime: 54998
Countdown: 0
SampleSet: Soft
StackLeniency: 0.5
Mode: 0
LetterboxInBreaks: 0
WidescreenStoryboard: 0

[Editor]
Bookmarks: 962,9637,15420,26986,38553,55902,67468,81926
DistanceSpacing: 0.8
BeatDivisor: 4
GridSize: 8
TimelineZoom: 2.999999

[Metadata]
Title:Cynthia No Hikari
TitleUnicode:シンシアの光
Artist:Eir Aoi
ArtistUnicode:藍井エイル
Creator:Shad0w1and
Version:Extreme
Source:ソードアート・オンライン -ロスト・ソング-
Tags:Sword Art Online Lost Song SAO Lami intoon Kencho Doormat Misure Pata-Mon
BeatmapID:1315103
BeatmapSetID:504005

[Difficulty]
HPDrainRate:6
CircleSize:3.5
OverallDifficulty:8.2
ApproachRate:9
SliderMultiplier:1.7
SliderTickRate:2

[Events]
//Background and Video events
Video,0,"optc.flv"
0,0,"BG1.jpg",0,0
//Break Periods
//Storyboard Layer 0 (Background)
//Storyboard Layer 1 (Fail)
//Storyboard Layer 2 (Pass)
//Storyboard Layer 3 (Foreground)
//Storyboard Sound Samples

[TimingPoints]
-483,361.44578313253,4,2,1,60,1,0
962,-83.3333333333333,4,2,1,60,0,0
8191,-76.9230769230769,4,2,1,60,0,0
9637,-71.4285714285714,4,2,1,80,0,0
14697,-71.4285714285714,4,2,1,75,0,0
15420,-76.9230769230769,4,2,1,60,0,0
25902,-66.6666666666667,4,2,1,60,0,0
26986,-71.4285714285714,4,2,1,70,0,0
37107,-90.9090909090909,4,2,1,70,0,0
38553,-50,4,2,1,80,0,0
38914,-133.333333333333,4,2,1,80,0,0
39456,-71.4285714285714,4,2,1,70,0,0
39818,-133.333333333333,4,2,1,80,0,0
40179,-71.4285714285714,4,2,1,80,0,0
41444,-50,4,2,1,80,0,0
41806,-133.333333333333,4,2,1,80,0,0
42167,-71.4285714285714,4,2,1,80,0,0
42709,-58.8235294117647,4,2,1,80,0,0
43432,-71.4285714285714,4,2,1,70,0,0
44336,-71.4285714285714,4,2,1,80,0,0
53010,-58.8235294117647,4,2,1,70,0,0
53372,-83.3333333333333,4,2,1,70,0,0
53733,-50,4,2,1,70,0,0
53914,-83.3333333333333,4,2,1,70,0,0
54276,-71.4285714285714,4,2,1,70,0,0
54998,-66.6666666666667,4,2,1,50,0,0
55902,-71.4285714285714,4,2,1,90,0,1
66023,-71.4285714285714,4,2,1,70,0,1
66565,-50,4,2,1,80,0,1
67468,-71.4285714285714,4,2,1,90,0,1
80480,-76.9230769230769,4,2,1,50,0,0
81926,-71.4285714285714,4,2,1,90,0,1
86806,-71.4285714285714,4,2,1,80,0,1
87709,-71.4285714285714,4,2,1,90,0,0
87800,-71.4285714285714,4,2,1,40,0,0
93492,-71.4285714285714,4,2,1,5,0,0

[Colours]
Combo1 : 255,238,119
Combo2 : 60,247,153
Combo3 : 79,109,255
Combo4 : 245,82,106

[HitObjects]
0,172,59,6,0,P|71:163|137:259,1,170,2|0,0:0|0:0,0:0:0:0:
54,331,601,2,0,P|44:292|58:214,1,85,2|0,0:0|0:0,0:0:0:0:
141,316,962,6,0,P|239:292|308:210,1,203.999993774414,2|0,0:0|0:0,0:0:0:0:
438,38,1504,2,0,P|410:139|395:258,1,203.999993774414,2|0,0:0|0:0,0:0:0:0:
484,260,2047,1,2,0:0:0:0:
320,126,2227,2,0,B|218:98|210:168|92:124|92:124|120:99|175:88,1,305.999990661621,2|0,0:0|0:0,0:0:0:0:
183,223,2950,6,0,P|157:273|138:325,2,101.999996887207,2|0|0,0:0|0:0|0:0,0:0:0:0:
0,172,3492,2,0,P|12:194|79:232,1,101.999996887207,2|0,0:0|0:0,0:0:0:0:
320,126,3854,6,0,B|306:80|277:43|277:43|228:82|203:158,1,203.999993774414,2|0,0:0|0:0,0:0:0:0:
419,263,4396,2,0,B|430:182|453:124|453:124|425:112|394:84,1,203.999993774414,2|0,0:0|0:0,0:0:0:0:
237,249,5119,2,0,P|117:212|212:132,1,305.999990661621,2|0,0:0|0:0,0:0:0:0:
237,249,5842,6,0,P|284:270|333:285,2,101.999996887207,2|0|0,0:0|0:0|0:0,0:0:0:0:
212,132,6384,1,2,0:0:0:0:
213,366,6565,1,0,0:0:0:0:
332,166,6745,5,2,0:0:0:0:
115,293,6926,1,0,0:0:0:0:
212,132,7107,5,0,0:0:0:0:
322,336,7288,1,0,0:0:0:0:
332,166,7468,5,2,0:0:0:0:
213,366,7649,1,0,0:0:0:0:
212,132,7830,5,0,0:0:0:0:
322,336,8010,1,0,0:0:0:0:
115,293,8191,5,2,0:0:0:0:
90,255,8282,1,0,0:0:0:0:
85,211,8372,1,0,0:0:0:0:
103,170,8462,1,0,0:0:0:0:
142,148,8553,5,0,0:0:0:0:
184,159,8643,1,0,0:0:0:0:
226,147,8733,1,0,0:0:0:0:
255,113,8824,1,0,0:0:0:0:
262,69,8914,6,0,B|213:51|213:51|166:21|166:21|187:97,1,165.749992412568,0|0,0:0|0:0,0:0:0:0:
300,178,9276,5,4,0:0:0:0:
262,245,9366,1,4,0:0:0:0:
302,310,9456,1,4,0:0:0:0:
265,378,9547,1,4,0:0:0:0:
224,313,9637,6,0,P|165:287|89:288,1,118.999996368408,14|0,0:1|0:0,0:0:0:0:
300,178,9998,2,0,B|343:117|334:51|334:51|263:15,1,178.499994552612,8|0,0:0|0:0,0:0:0:0:
294,31,10360,5,8,0:1:0:0:
443,162,10541,1,0,0:0:0:0:
184,159,10721,1,8,0:0:0:0:
322,336,10902,2,0,B|381:329|435:286|435:286|429:318|429:350,1,178.499994552612,14|0,0:1|0:0,0:0:0:0:
429,338,11263,5,8,0:1:0:0:
443,162,11444,1,8,0:0:0:0:
224,313,11625,1,0,0:0:0:0:
224,313,11715,1,0,0:0:0:0:
224,313,11806,5,8,0:1:0:0:
300,178,11986,1,0,0:0:0:0:
77,348,12167,1,8,0:0:0:0:
77,348,12529,6,0,P|54:296|-6:235,1,118.999996368408,14|0,0:1|0:0,0:0:0:0:
125,100,12890,2,0,P|177:71|238:71,1,118.999996368408,8|0,0:0|0:0,0:0:0:0:
322,336,13251,5,8,0:1:0:0:
208,196,13432,1,0,0:0:0:0:
443,162,13613,1,8,0:0:0:0:
224,313,13794,2,0,P|126:286|92:192,1,178.499994552612,14|0,0:1|0:0,0:0:0:0:
108,43,14155,6,0,P|123:91|132:137,1,59.4999981842042,8|0,0:1|0:0,0:0:0:0:
208,196,14336,2,0,P|213:167|221:139,1,59.4999981842042,8|0,0:0|0:0,0:0:0:0:
326,60,14516,2,0,P|328:90|329:119,1,59.4999981842042,8|0,0:1|0:0,0:0:0:0:
321,242,14697,5,8,0:1:0:0:
364,261,14787,1,8,0:1:0:0:
411,265,14877,1,8,0:1:0:0:
458,256,14968,1,8,0:1:0:0:
495,226,15059,5,4,0:0:0:0:
497,208,15150,1,4,0:0:0:0:
500,190,15240,1,4,0:0:0:0:
502,172,15330,1,4,0:0:0:0:
504,155,15420,6,0,P|446:150|359:140,1,110.499994941712,14|0,0:1|0:0,0:0:0:0:
210,249,15782,2,0,P|265:247|334:241,1,110.499994941712,8|0,0:1|0:0,0:0:0:0:
504,155,16143,1,8,0:1:0:0:
263,141,16324,1,0,0:0:0:0:
447,254,16504,1,8,0:1:0:0:
473,67,16685,6,0,P|429:102|393:143,1,110.499994941712,0|8,0:0|0:1,0:0:0:0:
319,261,17047,2,0,P|261:256|182:243,1,110.499994941712,0|8,0:0|0:1,0:0:0:0:
185,74,17408,2,0,P|239:99|266:161,1,110.499994941712,0|8,0:0|0:1,0:0:0:0:
87,245,17770,2,0,P|79:126|69:23,1,220.999989883423,0|0,0:0|0:0,0:0:0:0:
266,161,18312,6,0,P|251:213|208:248,1,110.499994941712,10|0,0:1|0:0,0:0:0:0:
37,344,18673,2,0,P|93:347|175:366,1,110.499994941712,8|0,0:1|0:0,0:0:0:0:
311,309,19035,1,8,0:1:0:0:
175,163,19215,1,0,0:0:0:0:
146,357,19396,1,8,0:1:0:0:
391,226,19577,6,0,P|345:196|291:197,1,110.499994941712,0|8,0:0|0:1,0:0:0:0:
74,192,19938,2,0,P|119:162|174:162,1,110.499994941712,0|8,0:0|0:1,0:0:0:0:
372,110,20300,2,0,P|326:80|271:80,1,110.499994941712,0|8,0:0|0:1,0:0:0:0:
291,196,20571,1,0,0:0:0:0:
291,196,20661,2,0,B|290:358|290:358|351:313,1,220.999989883423,0|0,0:0|0:0,0:0:0:0:
157,275,21203,5,10,0:1:0:0:
391,226,21384,1,0,0:0:0:0:
173,161,21565,1,8,0:1:0:0:
337,322,21745,1,0,0:0:0:0:
271,79,21926,1,8,0:1:0:0:
157,275,22107,2,0,P|214:258|286:227,1,110.499994941712,0|8,0:0|0:1,0:0:0:0:
443,151,22468,6,0,B|436:292|436:292|391:226,1,220.999989883423,2|0,0:0|0:0,0:0:0:0:
447,35,23010,1,8,0:1:0:0:
391,226,23191,1,0,0:0:0:0:
271,79,23372,1,8,0:1:0:0:
337,322,23553,1,0,0:0:0:0:
443,151,23733,2,0,L|325:152,1,110.499994941712,8|0,0:1|0:0,0:0:0:0:
183,164,24095,6,0,P|230:193|261:239,1,110.499994941712,10|0,0:1|0:0,0:0:0:0:
126,375,24456,2,0,P|127:320|156:274,1,110.499994941712,8|0,0:1|0:0,0:0:0:0:
237,352,24818,2,0,B|328:363|328:363|359:340|359:340|469:357,2,220.999989883423,8|8|10,0:1|0:1|0:1,0:0:0:0:
260,238,25721,1,0,0:0:0:0:
260,238,25812,1,0,0:0:0:0:
260,238,25902,6,0,L|341:229,1,63.7500024318696,8|0,0:0|0:0,0:0:0:0:
443,151,26083,2,0,L|349:125,1,63.7500024318696,8|0,0:1|0:0,0:0:0:0:
213,124,26263,5,8,0:1:0:0:
170,151,26353,1,8,0:1:0:0:
143,194,26444,1,8,0:1:0:0:
135,244,26535,1,8,0:1:0:0:
149,293,26625,5,4,0:0:0:0:
167,299,26715,1,4,0:0:0:0:
184,306,26806,1,4,0:0:0:0:
201,313,26896,1,4,0:0:0:0:
217,319,26986,6,0,P|268:304|346:290,1,118.999996368408,14|0,0:1|0:0,0:0:0:0:
512,198,27348,2,0,P|446:188|381:168,1,118.999996368408,8|0,0:0|0:0,0:0:0:0:
213,71,27709,2,0,P|244:128|266:217,1,118.999996368408,8|0,0:1|0:0,0:0:0:0:
217,319,28071,1,8,0:0:0:0:
131,147,28251,6,0,B|311:152|311:152|245:187,1,237.999992736817,2|0,0:1|0:0,0:0:0:0:
79,259,28794,1,8,0:0:0:0:
259,298,28974,2,0,L|259:143,1,118.999996368408,0|8,0:0|0:1,0:0:0:0:
79,259,29336,1,0,0:0:0:0:
364,368,29516,1,8,0:0:0:0:
364,368,29878,6,0,P|425:337|457:264,1,118.999996368408,10|0,0:1|0:0,0:0:0:0:
432,51,30239,1,8,0:0:0:0:
349,251,30420,1,0,0:0:0:0:
310,7,30601,1,8,0:1:0:0:
441,176,30782,1,0,0:0:0:0:
209,90,30962,1,8,0:0:0:0:
189,287,31143,6,0,B|149:121|149:121|228:79,1,237.999992736817,2|0,0:0|0:0,0:0:0:0:
349,251,31685,1,8,0:0:0:0:
50,217,31866,2,0,L|20:83,1,118.999996368408,0|8,0:0|0:1,0:0:0:0:
208,89,32227,1,0,0:0:0:0:
50,217,32408,1,8,0:0:0:0:
50,217,32770,6,0,P|53:288|117:338,2,118.999996368408,10|0|8,0:1|0:0|0:0,0:0:0:0:
235,69,33312,1,0,0:0:0:0:
189,287,33492,1,8,0:1:0:0:
117,66,33673,2,0,L|241:70,1,118.999996368408,0|8,0:0|0:0,0:0:0:0:
482,160,34035,6,0,B|311:154|311:154|369:249,1,237.999992736817,2|0,0:0|0:0,0:0:0:0:
442,36,34577,1,8,0:0:0:0:
345,211,34757,1,0,0:0:0:0:
236,70,34938,1,8,0:1:0:0:
482,160,35119,1,0,0:0:0:0:
208,202,35300,1,8,0:0:0:0:
208,202,35661,5,10,0:1:0:0:
372,41,35842,1,0,0:0:0:0:
349,216,36023,1,8,0:0:0:0:
236,70,36203,1,0,0:0:0:0:
482,160,36384,2,0,P|454:231|439:306,1,118.999996368408,8|0,0:1|0:0,0:0:0:0:
211,319,36745,2,0,P|147:306|107:248,1,118.999996368408,8|0,0:0|0:0,0:0:0:0:
193,38,37107,6,0,B|236:70|236:70|207:201,1,187.000005706787,10|8,0:1|0:0,0:0:0:0:
349,216,37649,1,8,0:1:0:0:
349,216,37739,1,8,0:1:0:0:
349,216,37830,5,8,0:1:0:0:
394,207,37920,1,8,0:1:0:0:
435,228,38010,1,8,0:1:0:0:
480,214,38101,1,8,0:1:0:0:
501,172,38191,5,4,0:0:0:0:
485,127,38282,1,12,0:0:0:0:
442,108,38372,1,12,0:0:0:0:
398,125,38462,1,12,0:0:0:0:
379,163,38553,6,0,P|336:184|291:180,1,85,14|0,0:1|0:0,0:0:0:0:
241,78,38733,2,0,P|283:77|320:97,1,85,8|0,0:1|0:0,0:0:0:0:
445,219,38914,6,0,P|465:173|450:115,1,95.6250036478044,8|0,0:0|0:0,0:0:0:0:
379,163,39276,1,12,0:1:0:0:
369,327,39456,5,4,0:0:0:0:
322,320,39546,1,4,0:0:0:0:
275,312,39636,1,4,0:0:0:0:
227,304,39727,1,4,0:0:0:0:
179,297,39818,6,0,P|143:246|146:192,1,95.6250036478044,14|0,0:1|0:0,0:0:0:0:
226,225,40179,1,8,0:1:0:0:
132,371,40360,1,8,0:0:0:0:
51,212,40541,1,0,0:0:0:0:
51,212,40631,1,0,0:0:0:0:
51,212,40721,5,8,0:1:0:0:
264,303,40902,1,8,0:1:0:0:
193,148,41083,5,8,0:0:0:0:
132,371,41263,1,8,0:1:0:0:
264,303,41444,6,0,P|298:271|309:226,1,85,14|0,0:1|0:0,0:0:0:0:
193,148,41625,2,0,P|202:189|225:224,1,85,8|0,0:1|0:0,0:0:0:0:
346,317,41806,6,0,P|340:270|309:235,1,95.6250036478044,8|0,0:0|0:0,0:0:0:0:
264,303,42167,1,8,0:1:0:0:
445,219,42348,1,8,0:1:0:0:
193,148,42529,1,8,0:0:0:0:
345,316,42709,6,0,B|345:252|358:178|358:178|342:218|307:236,1,216.750004134178,14|0,0:1|0:0,0:0:0:0:
193,148,43071,6,0,P|223:145|267:151,1,72.2500013780594,8|0,0:1|0:0,0:0:0:0:
179,240,43251,2,0,P|140:223|103:174,1,72.2500013780594,8|0,0:0|0:0,0:0:0:0:
148,67,43432,1,8,0:1:0:0:
193,55,43522,1,8,0:1:0:0:
239,67,43613,5,8,0:1:0:0:
272,100,43703,1,8,0:1:0:0:
286,145,43793,1,8,0:1:0:0:
275,191,43883,1,8,0:1:0:0:
243,226,43974,5,12,0:0:0:0:
226,231,44065,1,4,0:0:0:0:
209,236,44154,1,4,0:0:0:0:
191,241,44245,1,4,0:0:0:0:
173,246,44336,6,0,B|127:250|81:223|81:223|122:291|139:358,1,237.999992736817,14|8,0:1|0:0,0:0:0:0:
157,125,44878,1,0,0:0:0:0:
157,125,44968,1,0,0:0:0:0:
157,125,45059,2,0,B|183:74|246:50|246:50|203:11|108:24,1,237.999992736817,8|8,0:1|0:0,0:0:0:0:
272,175,45601,1,0,0:0:0:0:
452,166,45782,6,0,B|464:93|497:15|497:15|447:27|408:57,1,237.999992736817,10|8,0:1|0:0,0:0:0:0:
272,175,46324,1,0,0:0:0:0:
272,175,46414,1,0,0:0:0:0:
272,175,46504,2,0,B|203:158|180:74|180:74|152:115|166:167,1,237.999992736817,8|8,0:1|0:0,0:0:0:0:
298,54,47047,1,0,0:0:0:0:
423,265,47227,6,0,B|476:291|528:263|528:263|518:193|423:151,1,237.999992736817,10|8,0:1|0:0,0:0:0:0:
272,175,47770,1,0,0:0:0:0:
272,175,47860,1,0,0:0:0:0:
272,175,47950,2,0,P|182:87|244:32,1,237.999992736817,8|8,0:1|0:0,0:0:0:0:
451,165,48492,1,0,0:0:0:0:
318,298,48673,6,0,B|235:322|235:322|284:124,1,237.999992736817,10|8,0:1|0:0,0:0:0:0:
451,165,49216,1,0,0:0:0:0:
451,165,49306,1,0,0:0:0:0:
451,165,49396,5,8,0:1:0:0:
235,322,49577,1,0,0:0:0:0:
155,125,49757,1,8,0:0:0:0:
423,265,49938,1,0,0:0:0:0:
147,285,50119,6,0,B|86:288|86:288|156:124,1,237.999992736817,10|8,0:1|0:0,0:0:0:0:
318,298,50661,1,0,0:0:0:0:
318,298,50751,1,0,0:0:0:0:
318,298,50842,2,0,B|374:173|374:173|248:175,1,237.999992736817,8|8,0:1|0:0,0:0:0:0:
147,285,51384,1,0,0:0:0:0:
399,319,51565,2,0,L|424:262,1,59.4999981842042,10|0,0:1|0:0,0:0:0:0:
410,91,51745,5,8,0:0:0:0:
362,91,51835,1,8,0:0:0:0:
314,92,51925,1,4,0:0:0:0:
267,94,52016,1,4,0:0:0:0:
219,96,52107,5,8,0:1:0:0:
246,134,52196,1,8,0:1:0:0:
272,174,52287,1,8,0:1:0:0:
297,214,52378,1,8,0:1:0:0:
322,254,52468,5,8,0:1:0:0:
322,254,52559,1,8,0:1:0:0:
322,254,52649,2,0,L|396:254,1,59.4999981842042,8|0,0:0|0:0,0:0:0:0:
235,323,52830,2,0,L|169:321,1,59.4999981842042,8|0,0:1|0:0,0:0:0:0:
373,342,53010,6,0,B|385:206|385:206|364:238|320:254,1,216.750004134178,14|0,0:1|0:0,0:0:0:0:
373,342,53372,6,0,P|429:326|486:328,1,101.999996887207,8|0,0:0|0:0,0:0:0:0:
291,149,53733,6,0,P|236:134|189:115,1,85,8|0,0:0|0:0,0:0:0:0:
213,262,53914,6,0,P|269:230|284:127,1,152.999995330811,8|0,0:1|0:0,0:0:0:0:
112,225,54276,6,0,B|185:225|185:225|212:261,1,118.999996368408,8|0,0:1|0:0,0:0:0:0:
391,185,54637,2,0,B|318:185|318:185|290:148,1,118.999996368408,8|0,0:0|0:0,0:0:0:0:
75,64,54998,6,0,B|66:31|40:14|15:12|15:12|42:63|12:88|41:142|41:142|87:155|125:143|149:100|149:100|165:186|147:227|147:227|117:227|102:223,1,510.000019454957
275,323,55902,6,0,P|345:269|360:184,1,178.499994552612,14|0,0:1|0:0,0:0:0:0:
209,106,56263,2,0,P|170:102|108:95,1,59.4999981842042,8|0,0:0|0:0,0:0:0:0:
244,208,56444,2,0,P|291:195|362:184,1,118.999996368408,8|0,0:1|0:0,0:0:0:0:
443,28,56806,1,8,0:1:0:0:
209,106,56986,1,8,0:0:0:0:
469,196,57167,2,0,P|521:85|427:29,1,237.999992736817,10|0,0:1|0:0,0:0:0:0:
244,208,57709,1,8,0:0:0:0:
442,114,57890,5,0,0:0:0:0:
275,323,58071,1,8,0:1:0:0:
298,113,58251,1,0,0:0:0:0:
392,283,58432,1,8,0:0:0:0:
163,185,58613,1,0,0:0:0:0:
412,105,58794,6,0,L|387:324,1,178.499994552612,10|0,0:1|0:0,0:0:0:0:
301,185,59155,2,0,L|223:166,1,59.4999981842042,8|0,0:0|0:0,0:0:0:0:
391,282,59336,2,0,P|446:263|532:242,1,118.999996368408,8|0,0:1|0:0,0:0:0:0:
500,41,59697,2,0,P|444:56|411:105,1,118.999996368408,8|8,0:1|0:0,0:0:0:0:
243,170,60059,2,0,P|204:46|270:70,1,237.999992736817,10|0,0:1|0:0,0:0:0:0:
391,282,60601,1,8,0:0:0:0:
185,301,60782,6,0,L|162:184,1,118.999996368408,8|0,0:1|0:0,0:0:0:0:
75,64,61143,1,0,0:0:0:0:
301,185,61324,1,8,0:0:0:0:
20,197,61504,1,0,0:0:0:0:
288,20,61685,6,0,B|328:133|328:133|289:205,1,178.499994552612,10|0,0:1|0:0,0:0:0:0:
197,119,62047,2,0,L|135:114,1,59.4999981842042,8|0,0:0|0:0,0:0:0:0:
300,184,62227,2,0,P|345:171|428:158,1,118.999996368408,8|0,0:1|0:0,0:0:0:0:
185,301,62589,2,0,P|112:268|29:247,1,118.999996368408,8|8,0:1|0:0,0:0:0:0:
288,20,62950,6,0,P|365:97|299:184,1,237.999992736817,10|0,0:1|0:0,0:0:0:0:
20,197,63492,2,0,B|-16:131|-16:131|19:80,1,118.999996368408,8|0,0:0|0:0,0:0:0:0:
173,198,63854,2,0,B|209:264|209:264|174:315,1,118.999996368408,8|0,0:1|0:0,0:0:0:0:
20,197,64215,1,8,0:0:0:0:
280,103,64396,1,8,0:1:0:0:
324,87,64486,1,8,0:1:0:0:
369,71,64577,5,14,0:1:0:0:
52,27,64757,1,8,0:1:0:0:
389,178,64938,5,8,0:0:0:0:
20,197,65119,1,8,0:1:0:0:
381,334,65300,5,8,0:0:0:0:
30,307,65480,1,8,0:1:0:0:
389,178,65661,5,8,0:0:0:0:
161,362,65842,2,0,L|75:331,1,59.4999981842042,8|0,0:1|0:0,0:0:0:0:
20,197,66023,5,14,0:1:0:0:
21,150,66113,1,4,0:0:0:0:
49,112,66203,1,4,0:0:0:0:
94,98,66294,1,4,0:0:0:0:
140,109,66384,2,0,P|181:125|221:131,1,59.4999981842042,8|0,0:0|0:0,0:0:0:0:
322,72,66565,6,0,B|252:56|252:56|211:79|211:79|187:154,1,170,14|8,0:1|0:1,0:0:0:0:
389,178,66836,1,8,0:1:0:0:
389,178,66926,2,0,L|420:77,1,85,8|8,0:1|0:1,0:0:0:0:
288,164,67107,5,4,0:0:0:0:
266,237,67197,1,4,0:0:0:0:
245,310,67287,1,4,0:0:0:0:
224,384,67378,1,4,0:0:0:0:
321,332,67468,6,0,L|149:281,1,178.499994552612,14|0,0:1|0:0,0:0:0:0:
371,234,67829,2,0,L|426:167,1,59.4999981842042,8|0,0:0|0:0,0:0:0:0:
320,331,68010,2,0,B|281:312|254:268|262:214|262:214|159:185,1,237.999992736817,8|0,0:1|0:0,0:0:0:0:
224,384,68552,1,8,0:0:0:0:
371,234,68733,2,0,B|437:155|437:155|295:116,1,237.999992736817,10|0,0:1|0:0,0:0:0:0:
149,281,69275,1,8,0:0:0:0:
371,234,69456,5,0,0:0:0:0:
140,109,69637,1,12,0:1:0:0:
346,93,69817,1,0,0:0:0:0:
149,281,69998,1,8,0:0:0:0:
371,234,70179,1,0,0:0:0:0:
14,137,70360,6,0,B|-19:185|-19:185|48:326,1,178.499994552612,14|0,0:1|0:0,0:0:0:0:
165,162,70721,2,0,L|131:90,1,59.4999981842042,8|0,0:0|0:0,0:0:0:0:
149,281,70902,2,0,B|226:281|226:281|264:229,1,118.999996368408,10|4,0:1|0:1,0:0:0:0:
356,18,71263,2,0,B|279:18|279:18|241:70,1,118.999996368408,8|8,0:1|0:0,0:0:0:0:
371,234,71625,2,0,B|480:234|480:234|447:149|447:149|384:149,1,237.999992736817,10|0,0:1|0:0,1:1:0:0:
254,237,72167,2,0,L|257:394,1,118.999996368408,8|0,0:0|0:0,0:0:0:0:
114,234,72529,5,8,0:1:0:0:
114,234,72619,2,0,B|46:207|46:207|2:223,1,118.999996368408,8|0,0:0|0:0,0:0:0:0:
144,344,72890,2,0,B|212:371|212:371|256:355,1,118.999996368408,8|0,0:0|0:0,0:0:0:0:
409,149,73251,5,14,0:1:0:0:
254,237,73432,1,0,0:0:0:0:
481,235,73613,1,8,0:0:0:0:
272,106,73794,1,0,0:0:0:0:
390,318,73974,1,8,0:1:0:0:
387,107,74155,2,0,B|329:92|329:92|248:111,1,118.999996368408,8|8,0:1|0:0,0:0:0:0:
114,234,74516,6,0,B|64:83|64:83|130:21,1,237.999992736817,14|0,0:1|0:0,0:0:0:0:
272,106,75059,1,8,0:0:0:0:
114,234,75239,1,0,0:0:0:0:
399,260,75420,5,8,0:1:0:0:
410,214,75511,1,8,0:1:0:0:
401,168,75601,1,8,0:1:0:0:
372,130,75691,1,8,0:1:0:0:
330,107,75782,6,0,L|254:106,1,59.4999981842042,8|0,0:0|0:0,0:0:0:0:
453,31,75962,2,0,L|520:30,1,59.4999981842042,8|0,0:1|0:0,0:0:0:0:
297,214,76143,5,14,0:1:0:0:
512,163,76323,1,8,0:1:0:0:
272,106,76504,1,8,0:1:0:0:
390,318,76685,1,8,0:1:0:0:
115,329,76866,6,0,B|52:331|52:331|115:230,1,178.499994552612,14|0,0:1|0:0,0:0:0:0:
0,90,77227,2,0,B|62:87|62:87|0:188,1,178.499994552612,8|0,0:1|0:0,0:0:0:0:
216,288,77589,6,0,P|225:201|173:132,1,178.499994552612,14|0,0:1|0:0,0:0:0:0:
114,233,77950,2,0,B|88:276|88:276|216:288,1,178.499994552612,8|0,0:1|0:0,0:0:0:0:
274,186,78312,2,0,B|300:143|300:143|172:131,1,178.499994552612,14|0,0:1|0:0,0:0:0:0:
336,289,78673,6,0,L|379:216,1,59.4999981842042,8|0,0:1|0:0,0:0:0:0:
172,131,78854,2,0,L|129:204,1,59.4999981842042,8|0,0:1|0:0,0:0:0:0:
216,288,79035,5,14,0:1:0:0:
356,18,79215,1,8,0:1:0:0:
1,185,79396,1,8,0:1:0:0:
366,237,79577,1,8,0:1:0:0:
121,28,79757,5,8,0:1:0:0:
110,72,79847,1,8,0:1:0:0:
98,118,79938,1,8,0:1:0:0:
88,163,80028,1,8,0:1:0:0:
135,163,80118,5,4,0:0:0:0:
180,176,80209,1,4,0:0:0:0:
220,200,80299,1,4,0:0:0:0:
252,234,80389,1,4,0:0:0:0:
271,273,80480,6,0,B|193:243|126:289|126:289|174:176|203:30|203:30|170:115|125:176|23:173|-41:98|-24:23|34:-21|91:11|88:46,1,828.749962062837,10|0,0:1|0:0,0:0:0:0:
36,223,81926,6,0,P|95:230|157:218,1,118.999996368408,14|0,0:1|0:0,0:0:0:0:
344,64,82288,2,0,P|274:112|252:177,1,118.999996368408,8|0,0:0|0:0,0:0:0:0:
380,190,82559,1,0,0:0:0:0:
380,190,82649,5,8,0:1:0:0:
203,30,82830,1,0,0:0:0:0:
271,273,83010,1,8,0:0:0:0:
36,223,83191,2,0,P|53:146|160:103,1,178.499994552612,14|0,0:1|0:0,0:0:0:0:
259,140,83552,5,8,0:1:0:0:
171,348,83733,1,8,0:0:0:0:
380,190,83914,1,0,0:0:0:0:
380,190,84004,1,0,0:0:0:0:
380,190,84095,5,8,0:1:0:0:
171,348,84275,1,0,0:0:0:0:
135,101,84456,2,0,L|153:219,1,118.999996368408,8|0,0:0|0:0,0:0:0:0:
171,348,84727,1,0,0:0:0:0:
171,348,84818,5,14,0:1:0:0:
380,190,84998,1,0,0:0:0:0:
153,219,85179,2,0,P|107:181|87:126,1,118.999996368408,8|0,0:0|0:0,0:0:0:0:
207,114,85450,1,0,0:0:0:0:
207,114,85541,5,8,0:1:0:0:
171,348,85721,1,0,0:0:0:0:
380,190,85902,1,8,0:0:0:0:
19,190,86083,2,0,L|53:408,1,178.499994552612,14|0,0:1|0:0,0:0:0:0:
46,366,86444,5,8,0:1:0:0:
153,219,86625,1,8,0:0:0:0:
9,131,86805,2,0,L|20:197,1,59.4999981842042,8|0,0:1|0:0,0:0:0:0:
72,316,86986,5,8,0:1:0:0:
110,343,87076,1,8,0:1:0:0:
157,349,87167,1,8,0:1:0:0:
203,338,87257,1,8,0:1:0:0:
250,340,87348,5,4,0:0:0:0:
265,294,87439,1,4,0:0:0:0:
302,265,87529,1,4,0:0:0:0:
296,217,87619,1,4,0:0:0:0:
256,192,87709,5,14,0:1:0:0:
256,192,87800,12,0,93492,0:0:0:0:
