osu file format v14

[General]
AudioFilename: optc.mp3
AudioLeadIn: 0
PreviewTime: 54998
Countdown: 0
SampleSet: Soft
StackLeniency: 0.5
Mode: 0
LetterboxInBreaks: 0
WidescreenStoryboard: 0

[Editor]
Bookmarks: 962,9637,15420,26986,38553,55902,67468,81926
DistanceSpacing: 0.9
BeatDivisor: 2
GridSize: 32
TimelineZoom: 1.1

[Metadata]
Title:Cynthia No Hikari
TitleUnicode:シンシアの光
Artist:Eir Aoi
ArtistUnicode:藍井エイル
Creator:Shad0w1and
Version:Easy
Source:ソードアート・オンライン -ロスト・ソング-
Tags:Sword Art Online Lost Song SAO Lami intoon Kencho Doormat Misure Pata-Mon
BeatmapID:1315101
BeatmapSetID:504005

[Difficulty]
HPDrainRate:2
CircleSize:2.5
OverallDifficulty:2
ApproachRate:3
SliderMultiplier:1
SliderTickRate:1

[Events]
//Background and Video events
Video,0,"optc.flv"
0,0,"BG9.jpg",0,0
//Break Periods
2,6945,8197
//Storyboard Layer 0 (Background)
//Storyboard Layer 1 (Fail)
//Storyboard Layer 2 (Pass)
//Storyboard Layer 3 (Foreground)
//Storyboard Sound Samples

[TimingPoints]
-483,361.44578313253,4,2,1,60,1,0
9637,-100,4,2,1,80,0,0
15420,-100,4,2,1,60,0,0
26986,-100,4,2,1,70,0,0
55902,-100,4,2,1,90,0,1
80480,-100,4,2,1,60,0,0
81926,-100,4,2,1,90,0,1
87709,-100,4,2,1,90,0,0

[Colours]
Combo1 : 255,238,119
Combo2 : 60,247,153
Combo3 : 79,109,255
Combo4 : 245,82,106

[HitObjects]
208,351,962,6,0,B|130:364|81:312|-6:341|-6:341|2:308|50:284,1,300,2|0,0:0|0:0,0:0:0:0:
134,252,2408,2,0,B|171:198|142:91|142:91|103:164|51:200,1,300,2|0,0:0|0:0,0:0:0:0:
50,284,3854,6,0,B|81:352|166:358|210:297|210:297|231:348|231:348|312:365,1,300,2|0,0:0|0:0,0:0:0:0:
367,342,5300,2,0,B|410:327|450:286|450:286|422:274|399:253,1,150,2|2,0:0|0:0,0:0:0:0:
328,218,6203,2,0,P|303:172|383:126,1,150,2|2,0:0|0:0,0:0:0:0:
368,120,9637,6,0,B|307:117|264:89|264:89|215:128|215:128|179:106|179:106|136:98|136:98|106:52,1,300,14|8,0:1|0:0,0:0:0:0:
69,51,10902,2,0,B|41:71|18:83|18:83|40:142|56:213,1,150,14|8,0:1|0:0,0:0:0:0:
55,212,11625,2,0,P|21:255|89:303,1,150,8|8,0:1|0:0,0:0:0:0:
166,336,12529,6,0,B|206:288|284:266|284:266|292:310|310:341,1,200,14|8,0:1|0:1,0:0:0:0:
343,340,13432,1,8,0:1:0:0:
426,305,13794,2,0,P|441:235|472:146,1,150,14|8,0:1|0:0,0:0:0:0:
438,125,14516,2,0,P|362:108|298:163,1,150,8|8,0:1|0:0,0:0:0:0:
244,212,15420,6,0,P|185:210|143:173,2,100,14|8|8,0:1|0:1|0:1,0:0:0:0:
218,125,16504,1,8,0:1:0:0:
131,100,16866,2,0,P|76:118|-1:124,2,100,8|8|8,0:1|0:1|0:1,0:0:0:0:
194,35,17950,1,8,0:1:0:0:
281,58,18312,6,0,L|314:176,2,100,10|8|8,0:1|0:1|0:1,0:0:0:0:
358,12,19396,1,8,0:1:0:0:
436,55,19757,2,0,L|404:165,2,100,8|8|8,0:1|0:1|0:1,0:0:0:0:
506,111,20842,1,8,0:1:0:0:
496,200,21203,6,0,B|447:250|425:308|425:308|365:261|365:261|324:296|273:279,1,300,10|8,0:1|0:1,0:0:0:0:
303,194,22649,2,0,B|277:143|221:113|221:113|179:144|128:146|128:146|165:164|182:207,1,300,0|8,0:0|0:1,0:0:0:0:
162,296,24095,6,0,P|119:272|94:230,2,100,10|8|8,0:1|0:1|0:1,0:0:0:0:
225,361,25179,1,8,0:1:0:0:
309,329,25541,2,0,P|318:271|346:172,1,150,10|8,0:1|0:1,0:0:0:0:
385,193,26263,2,0,P|431:188|484:131,1,100,8|8,0:1|0:0,0:0:0:0:
398,104,26986,6,0,P|365:68|341:21,2,100,14|8|8,0:1|0:0|0:1,0:0:0:0:
385,193,28071,1,8,0:0:0:0:
295,196,28432,2,0,P|256:231|223:291,1,100,8|8,0:1|0:0,0:0:0:0:
284,343,29155,2,0,P|340:337|409:314,1,100,8|8,0:1|0:0,0:0:0:0:
403,237,29878,6,0,P|449:248|514:258,2,100,10|8|8,0:1|0:0|0:1,0:0:0:0:
381,149,30962,1,8,0:0:0:0:
303,103,31324,2,0,P|259:126|173:158,1,100,8|8,0:1|0:0,0:0:0:0:
148,81,32047,2,0,P|87:64|34:63,1,100,8|8,0:1|0:0,0:0:0:0:
0,137,32770,6,0,P|36:251|57:347,1,200,10|8,0:1|0:1,0:0:0:0:
135,366,33854,1,8,0:0:0:0:
217,330,34215,2,0,P|276:250|232:166,1,200,0|8,0:0|0:1,0:0:0:0:
145,164,35300,1,8,0:0:0:0:
92,240,35661,6,0,P|144:255|205:235,2,100,10|8|8,0:1|0:0|0:1,0:0:0:0:
56,157,36745,1,8,0:0:0:0:
1,228,37107,2,0,P|57:325|115:331,1,150,10|8,0:1|0:1,0:0:0:0:
118,363,37830,2,0,P|174:354|243:353,1,100,8|8,0:1|0:0,0:0:0:0:
302,382,38553,6,0,P|344:363|374:313,1,100,14|8,0:1|0:0,0:0:0:0:
286,290,39276,2,0,B|277:230|294:177|294:177|331:164,1,150,12|14,0:1|0:1,0:0:0:0:
412,136,40179,1,8,0:1:0:0:
345,75,40541,2,0,P|279:56|202:19,1,150,8|8,0:1|0:0,0:0:0:0:
178,106,41444,6,0,P|194:159|206:211,1,100,14|8,0:1|0:0,0:0:0:0:
157,279,42167,2,0,P|106:288|42:254,1,100,8|8,0:1|0:0,0:0:0:0:
20,253,42709,2,0,P|29:207|31:152,1,100,14|8,0:1|0:1,0:0:0:0:
42,110,43251,2,0,L|104:101,1,50,8|8,0:0|0:1,0:0:0:0:
260,257,44336,6,0,P|313:310|400:311,1,150,14|8,0:1|0:0,0:0:0:0:
425,297,45059,2,0,P|437:237|461:169,1,100,8|8,0:1|0:0,0:0:0:0:
503,128,45782,2,0,P|471:57|397:42,1,150,10|8,0:1|0:0,0:0:0:0:
362,28,46505,2,0,L|342:128,1,100,8|8,0:1|0:0,0:0:0:0:
285,195,47227,6,0,P|216:223|128:163,1,150,10|8,0:1|0:0,0:0:0:0:
111,171,47950,2,0,L|115:313,1,100,8|8,0:1|0:0,0:0:0:0:
180,331,48673,2,0,P|213:353|288:344,2,100,10|8|8,0:1|0:0|0:1,0:0:0:0:
244,267,49757,1,8,0:0:0:0:
332,281,50119,6,0,P|402:265|428:164,1,150,10|8,0:1|0:0,0:0:0:0:
423,155,50842,2,0,B|383:118|383:118|252:130,1,150,8|8,0:1|0:0,0:0:0:0:
251,152,51565,2,0,P|126:126|151:250,1,300,10|8,0:1|0:0,0:0:0:0:
202,324,53010,6,0,P|261:320|309:324,1,100,14|8,0:1|0:0,0:0:0:0:
390,305,53733,2,0,L|393:388,1,50,8|8,0:0|0:1,0:0:0:0:
482,354,54276,2,0,L|474:224,1,100,8|8,0:1|0:0,0:0:0:0:
475,254,55902,6,0,B|400:288|323:247|323:247|320:202|293:170|293:170|248:172|206:146,1,300,14|8,0:1|0:0,0:0:0:0:
183,87,57348,2,0,P|152:122|162:206,1,100,8|8,0:1|0:0,0:0:0:0:
200,245,58071,2,0,P|191:306|151:341,1,100,8|8,0:1|0:0,0:0:0:0:
111,260,58794,6,0,B|199:250|242:231|242:231|290:261|290:261|327:234|327:234|358:242|421:245,1,300,10|8,0:1|0:0,0:0:0:0:
476,222,60239,2,0,P|498:191|503:104,1,100,8|8,0:1|0:0,0:0:0:0:
443,68,60962,2,0,P|387:70|309:54,1,100,8|8,0:1|0:0,0:0:0:0:
259,96,61685,6,0,P|227:57|171:14,2,100,10|8|8,0:1|0:0|0:1,0:0:0:0:
237,183,62770,1,8,0:0:0:0:
153,215,63131,2,0,P|141:265|142:333,2,100,8|8|8,0:1|0:0|0:1,0:0:0:0:
98,142,64215,1,8,0:0:0:0:
37,75,64577,6,0,P|74:55|150:68,2,100,14|8|8,0:1|0:0|0:0,0:0:0:0:
10,161,65661,2,0,L|24:249,1,50,8|8,0:0|0:1,0:0:0:0:
26,254,66023,1,14,0:1:0:0:
138,328,66565,6,0,B|217:330|250:264|250:264|287:280|343:284,1,200,14|4,0:1|0:0,0:0:0:0:
354,271,67468,6,0,B|367:212|446:84|446:84|406:95|321:92,1,300,14|8,0:1|0:0,0:0:0:0:
267,74,68914,2,0,P|218:53|187:5,2,100,8|8|12,0:1|0:0|0:1,0:0:0:0:
295,159,69998,1,8,0:0:0:0:
230,222,70360,6,0,P|173:210|95:203,1,100,14|8,0:1|0:0,0:0:0:0:
91,285,71083,2,0,P|123:331|172:369,1,100,12|8,0:1|0:0,0:0:0:0:
243,338,71806,2,0,B|297:350|347:334|347:334|356:291|321:238,1,200,12|8,0:1|0:1,0:0:0:0:
295,159,72890,1,8,0:0:0:0:
230,222,73251,6,0,P|373:204|314:72,1,300,14|8,0:1|0:0,0:0:0:0:
295,159,74697,2,0,P|152:141|211:9,1,300,12|8,0:1|0:0,0:0:0:0:
230,97,76143,6,0,P|273:76|326:28,1,100,14|8,0:1|0:1,0:0:0:0:
398,72,76866,1,8,0:1:0:0:
408,161,77227,1,8,0:1:0:0:
485,207,77589,2,0,P|455:261|434:308,1,100,14|8,0:1|0:1,0:0:0:0:
351,317,78312,1,8,0:1:0:0:
269,278,78673,1,8,0:1:0:0:
180,296,79035,6,0,P|136:265|121:205,1,100,14|8,0:1|0:1,0:0:0:0:
209,213,79757,2,0,B|230:143|193:79|193:79|289:101,1,200,8|10,0:1|0:1,0:0:0:0:
252,92,81926,6,0,B|314:88|372:57|372:57|397:99|397:99|443:119|443:119|457:160|457:160|426:198,1,300,14|8,0:1|0:0,0:0:0:0:
444,228,83191,2,0,P|393:255|334:304,1,100,14|8,0:1|0:1,0:0:0:0:
314,273,83733,1,8,0:0:0:0:
224,259,84095,2,0,P|197:301|183:356,1,100,8|8,0:1|0:0,0:0:0:0:
94,361,84818,6,0,P|38:333|19:291,1,100,14|8,0:1|0:0,0:0:0:0:
14,211,85541,2,0,P|61:180|110:142,1,100,8|8,0:1|0:0,0:0:0:0:
98,108,86083,1,14,0:1:0:0:
186,91,86444,2,0,L|245:140,1,50,8|8,0:1|0:0,0:0:0:0:
236,166,86806,2,0,P|179:244|291:244,1,250,8|14,0:1|0:1,0:0:0:0:
