osu file format v7

[General]
AudioFilename: Super Scription of Data.mp3
AudioLeadIn: 0
PreviewTime: 78108
Countdown: 0
SampleSet: Normal
StackLeniency: 0.5
Mode: 0
LetterboxInBreaks: 1

[Editor]
DistanceSpacing: 0.800000011920929
BeatDivisor: 4
GridSize: 8

[Metadata]
Title:Super Scription of Data
Artist:Eiko Shimamiya
Creator:jockeytiyan
Version:Easy
Source:Higurashi no Naku Koro ni Rei
Tags:Ost Visual Novel Anime Teara Alvisto

[Difficulty]
HPDrainRate:2
CircleSize:3
OverallDifficulty:2
SliderMultiplier:1.6
SliderTickRate:4

[Events]
//Background and Video events
0,0,"image.png"
//Break Periods
2,69922,76889
//Storyboard Layer 0 (Background)
//Storyboard Layer 1 (Fail)
//Storyboard Layer 2 (Pass)
//Storyboard Layer 3 (Foreground)
//Storyboard Sound Samples
//Background Colour Transformations
3,100,0,0,0

[TimingPoints]
34813,545.454545454545,4,1,0,65,1,0
42722,-100,4,2,0,65,0,0
43267,-100,4,1,0,65,0,0
78454,-100,4,1,0,65,0,1
96176,-100,4,1,0,70,0,0
97131,-100,4,1,0,0,0,0
97403,-100,4,1,0,65,0,0

[Colours]
Combo1 : 232,248,29
Combo2 : 255,60,60
Combo3 : 78,95,248

[HitObjects]
256,112,41903,1,4
136,160,42449,1,4
72,272,42994,1,4
184,208,43540,2,0,B|264:272|352:192,2,160,4|8|4
256,104,45176,1,8
256,232,45722,5,0
368,168,46267,1,8
256,104,46813,1,4
256,232,47358,6,0,B|176:240|136:168,1,120,0|4
304,128,48449,1,0
432,152,48994,1,8
304,128,49540,2,0,B|112:88,1,160,0|4
104,216,50631,6,0,B|248:312,1,160,8|0
176,192,51722,2,0,B|304:112|240:256,2,160,0|4|8
288,248,53358,2,0,B|312:96|512:240|512:40,1,320,0|4
384,72,54994,5,8
328,184,55540,1,0
288,304,56085,6,0,B|256:456|216:280,1,160,8|4
192,184,57176,1,0
128,72,57722,1,8
256,104,58267,1,0
208,224,58813,6,0,B|136:328|256:400|392:328|288:200,2,320,4|4|4
256,192,61267,12,0,65358
256,192,65631,12,4,69722
384,128,78449,6,0,B|336:216|224:152,2,160,2|10|2
440,240,80085,2,0,B|344:208|264:304,1,160,10|2
168,248,81176,1,10
168,248,81449,1,2
256,192,82813,5,2
256,192,83358,2,0,B|384:144|240:96,1,160,2|10
256,192,84449,2,0,B|128:240|272:288,1,160,2|10
208,168,85540,1,2
328,216,86085,1,10
208,264,86631,1,2
208,136,87176,6,0,B|248:48|416:88,1,160,2|12
400,192,88267,2,0,B|392:312|216:256,1,160,2|12
232,160,89358,2,0,B|128:160,1,80,2|0
152,224,89903,2,0,B|248:224,1,80,2|0
88,96,91540,5,2
88,96,92085,1,2
216,112,92631,2,0,B|296:184,1,80,2|2
208,168,93176,2,0,B|136:232,1,80,2|2
264,288,93994,5,0
312,328,94267,1,2
360,280,94540,1,0
312,240,94813,1,2
312,112,95358,1,2
312,112,95631,1,2
192,264,96176,1,2
192,264,96449,2,2,B|144:360|296:424|328:280,2,240,2|2|6
