osu file format v6

[General]
AudioFilename: Higurashi_no_Naku_Koro_ni_-_Higurashi_no_Naku_Koro_ni_TV_size.mp3
AudioLeadIn: 1996
PreviewTime: 68810
Countdown: 0
SampleSet: Soft
StackLeniency: 0.7
Mode: 0
LetterboxInBreaks: 1

[Editor]
Bookmarks: 2821,7392,11964,13964,23107,32250,50535,68821,84821,89392
DistanceSpacing: 1
BeatDivisor: 4
GridSize: 8

[Metadata]
Title:Higurashi no Naku Koro ni (TV size)
Artist:Eiko Shimamiya
Creator:osuplayer111
Version:Insane
Source:Higurashi no Naku Koro ni
Tags:Anime xxheroxx Armin v2b

[Difficulty]
HPDrainRate:8
CircleSize:5
OverallDifficulty:8
SliderMultiplier:2.4
SliderTickRate:0.5

[Events]
//Background and Video events
0,0,"Minitokyo.Higurashi.no.Naku.Koro.ni.Wallpapers_238710.jpg"
Video,-320,"Higurashi No Naku Koro Ni Opening.avi"
//Break Periods
//Storyboard Layer 0 (Background)
//Storyboard Layer 1 (Fail)
//Storyboard Layer 2 (Pass)
//Storyboard Layer 3 (Foreground)
//Storyboard Sound Samples
//Background Colour Transformations
3,100,163,162,255

[TimingPoints]
240,571.428571428571,4,2,0,50,1,0
2821,-100,4,2,0,75,0,0
4239,-200,4,2,0,50,0,0
4821,-100,4,2,0,0,0,0
4964,-100,4,2,0,50,0,0
7392,-100,4,2,0,75,0,0
8811,-200,4,2,0,50,0,0
9392,-100,4,2,0,0,0,0
9535,-100,4,2,0,50,0,0
10249,-100,4,2,0,0,0,0
11392,-100,4,1,0,50,0,0
11964,-100,4,2,0,75,0,0
13382,1714.28571428571,4,1,0,50,1,0
13492,-100,4,2,0,50,0,0
13953,571.428571428571,4,2,0,100,1,0
14105,-100,4,1,0,75,0,0
20963,-100,4,2,0,100,0,0
22524,-200,4,2,0,100,0,0
23248,-100,4,1,0,76,0,0
30105,-100,4,2,0,100,0,0
32391,-100,4,1,0,76,0,0
36810,-200,4,1,0,76,0,0
38534,-100,4,1,0,76,0,0
40534,-100,4,2,0,100,0,0
40677,-100,4,1,0,75,0,0
45810,-200,4,1,0,76,0,0
46534,-100,4,1,0,76,0,0
48238,-200,4,1,0,76,0,0
48820,-100,4,1,0,76,0,0
50534,-100,4,2,0,100,0,0
50677,-100,4,1,0,75,0,0
55820,-100,4,2,0,100,0,0
56105,-100,4,2,0,0,0,0
56391,-100,4,1,0,75,0,0
59105,-100,4,2,0,100,0,0
59248,-100,4,1,0,76,0,0
68820,-100,4,2,0,100,0,1
68962,-100,4,1,0,76,0,1
74820,-100,4,2,0,100,0,1
75677,-100,4,1,0,100,0,1
77105,-100,4,2,0,100,0,1
77248,-100,4,1,0,75,0,1
77962,-100,4,2,0,100,0,1
78105,-100,4,1,0,75,0,1
78248,-100,4,1,0,75,0,1
82810,-100,4,1,0,75,0,0
83962,-100,4,2,0,100,0,0
84248,-100,4,2,0,74,0,0
84820,-100,4,1,0,76,0,0
85105,-100,4,1,0,76,0,0
87095,1714.28571428571,4,2,1,100,1,0
87676,-100,4,2,1,75,0,0
88247,-100,4,2,1,50,0,0
88819,-100,4,2,1,26,0,0
89380,571.428571428571,4,2,1,0,1,0

[Colours]
Combo1 : 0,0,160
Combo2 : 232,65,23
Combo3 : 233,22,101
Combo4 : 255,255,255
Combo5 : 128,0,128

[HitObjects]
256,256,525,2,0,B|192:144|328:96|240:24,1,240
128,32,1382,2,0,B|192:144|56:192|144:264,1,240,0|2
192,360,2240,1,0
320,360,2525,1,2
256,248,2811,5,0
256,136,3097,1,0
320,136,3239,2,0,B|456:136,1,120
439,137,3668,1,0
504,248,3954,1,0
376,248,4239,2,0,B|248:248,1,120
256,136,5097,6,0,B|144:200|96:64|24:152,1,240,2|0
32,264,5954,1,0
112,352,6240,2,0,B|184:256|232:256|296:360,1,240,0|0
416,352,7097,1,0
472,248,7382,6,0,B|472:120,1,120,2|0
416,88,7811,2,0,B|360:40|288:96,1,120,2|0
256,40,8240,2,0,B|200:-8|128:56,1,120,2|0
64,152,8811,2,0,B|-16:200|80:248,1,120,2|0
256,360,9668,6,0,B|304:248|208:184|280:96,1,240,2|0
256,208,10382,12,0,11240
256,192,11668,5,0
256,72,11954,6,0,B|392:72,1,120,2|0
415,21,12382,2,0,B|479:69|399:144,1,120,2|0
466,168,12811,2,0,B|418:232|343:151,1,120,2|0
256,160,13382,2,0,B|216:200|272:240,1,80,0|4
40,352,14238,5,0
40,224,14524,1,0
40,160,14667,1,0
120,80,14953,1,0
226,31,15238,2,0,B|290:31,2,60
224,96,15667,1,0
256,152,15810,1,0
256,352,16238,6,0,B|256:224,1,120
312,192,16667,1,0
360,240,16810,1,0
408,192,16953,1,0
472,96,17238,2,0,B|416:48|352:104,1,120
312,56,17667,1,0
192,40,17952,2,0,B|120:40,1,60
64,64,18238,2,0,B|64:128,1,60
64,192,18524,5,4
128,296,18810,2,0,B|192:296,1,60
208,360,19095,2,0,B|272:360,1,60
256,248,19524,2,0,B|208:192|264:128,1,120
256,72,19952,1,0
376,40,20238,1,0
440,40,20381,2,0,B|544:128|408:224,1,180,0|4
48,192,21095,5,2
152,128,21381,2,0,B|152:64,1,60,0|2
360,256,21810,2,0,B|360:320,1,60,0|2
464,192,22238,1,0
464,192,22524,2,0,B|464:64,1,120,2|4
256,352,23381,5,0
256,232,23667,2,0,B|256:144,1,60
256,48,24095,1,0
136,32,24381,2,0,B|64:32,1,60
40,144,24810,1,0
40,144,24952,2,0,B|-40:240|80:336,1,180
160,344,25667,5,0
216,312,25810,1,0
272,344,25952,1,0
328,312,26095,2,0,B|384:344|456:312,1,120
480,192,26667,2,0,B|416:192,1,60
408,72,27095,2,0,B|383:40|348:80,1,60
256,112,27381,2,0,B|281:144|316:104,1,60
200,72,27667,6,0,B|175:40|140:80,1,60,4|0
96,112,27952,1,0
40,144,28095,1,0
96,184,28238,1,0
40,224,28381,2,0,B|8:280|48:360,2,120
96,184,29095,1,0
216,232,29381,1,0
256,176,29524,1,0
296,232,29667,1,0
256,288,29810,2,0,B|256:360,1,60,0|4
256,176,30238,6,0,B|256:40,1,120,2|0
320,32,30667,2,0,B|384:0|448:40,1,120,2|0
504,48,31095,2,0,B|536:112|496:176,1,120,2|0
472,352,31667,2,0,B|400:352,1,60,2|0
312,304,31952,2,0,B|392:304,1,60
256,352,32238,1,4
40,192,32524,6,0,B|32:72|152:56,1,180
256,72,33238,1,0
256,8,33381,1,0
376,40,33667,2,0,B|504:40,1,120
496,40,34095,1,0
400,192,34381,1,0
336,192,34524,1,0
176,192,34810,5,0
112,192,34952,1,0
40,288,35238,2,0,B|32:368|168:368,1,120
184,360,35667,2,0,B|192:280|56:280,1,120
256,32,36524,5,0
256,32,36667,1,0
256,32,36810,2,0,B|416:40|488:136|480:264,1,360
392,344,38810,2,0,B|312:344,1,60
280,304,39095,2,0,B|208:304,1,60
168,344,39381,1,0
56,296,39667,1,0
24,240,39810,2,0,B|0:176|32:112,1,120
120,40,40381,6,0,B|192:40,1,60,0|4
216,96,40667,1,0
256,40,40810,1,0
328,40,40952,2,0,B|392:40,2,60
256,40,41381,1,4
256,344,41667,6,0,B|296:280|224:232|264:160,1,180
376,192,42381,1,0
440,192,42524,1,0
312,192,42810,2,0,B|248:152|200:224|128:184,1,180
16,192,43524,1,0
16,256,43667,1,0
16,128,43952,5,0
16,64,44095,2,0,B|72:32|144:64,1,120
256,56,44667,1,0
312,24,44810,2,0,B|448:24,1,120
432,24,45238,1,0
256,192,45524,5,0
256,192,45667,1,0
256,192,45810,2,0,B|256:344,1,150
256,342,46667,1,0
160,272,46953,1,0
96,272,47095,2,0,B|64:272|48:232,1,60
40,176,47381,1,0
96,72,47667,6,0,B|160:24|216:80,1,120
256,32,48095,1,0
256,32,48238,2,0,B|320:80|384:16,1,120
488,32,49095,1,0
488,352,49381,5,4
24,352,49667,1,0
24,32,49953,1,0
256,32,50238,1,0
256,192,50524,6,0,B|256:328,2,120,4|0|0
136,192,51381,1,0
136,192,51524,2,0,B|8:192,2,120
136,192,52238,1,0
376,192,52524,5,0
376,192,52667,1,0
376,192,52810,2,0,B|512:192,2,120
256,32,53667,2,0,B|256:96,1,60
256,160,53953,2,0,B|224:216|312:272|232:360,1,180
88,248,54810,2,0,B|32:192|88:136,1,120
192,192,55381,1,0
128,192,55524,1,0
400,192,55953,6,0,B|456:136|384:80,1,120,2|0
256,32,56524,5,0
256,352,56810,1,0
256,104,57095,1,0
256,280,57381,1,0
208,192,57667,1,0
144,192,57810,1,0
296,192,58095,1,0
360,192,58238,1,0
200,280,58524,1,0
312,104,58810,1,0
312,280,59095,6,0,B|248:208|120:208|224:80,1,240,4|0
120,192,59953,2,0,B|48:192,1,60
60,192,60238,1,4
456,192,60810,1,0
368,32,61095,5,0
144,352,61381,1,0
256,192,61667,1,0
256,192,61810,2,0,B|256:64,1,120
256,72,62238,1,0
256,248,62524,2,0,B|256:376,1,120,4|0
256,16,63095,1,0
48,192,63381,5,0
88,136,63524,1,0
128,192,63667,1,0
256,192,63953,2,0,B|368:272|496:176,1,240
368,64,64810,1,0
328,128,64953,2,0,B|256:48|256:48|152:48,1,180
72,192,65810,2,0,B|144:272|144:272|248:272,1,180
312,344,66524,1,4
408,272,66810,5,0
472,240,66953,1,0
408,200,67095,1,0
472,168,67238,1,0
408,128,67381,1,0
472,96,67524,1,0
408,56,67667,1,0
344,88,67810,1,0
280,56,67953,1,0
216,88,68095,1,0
152,56,68238,1,0
88,88,68381,1,0
32,136,68524,2,0,B|32:208,2,60,0|0|4
216,352,69095,5,0
256,296,69238,1,0
296,352,69381,2,0,B|360:376|424:344,1,120
480,352,69810,2,0,B|528:256|464:160,1,180
472,56,70524,2,0,B|408:56,1,60
368,104,70810,1,0
304,104,70953,1,0
256,56,71095,1,0
72,32,71381,5,0
136,64,71524,1,0
72,104,71667,2,0,B|32:160|80:224,1,120
32,272,72095,2,0,B|120:344|216:256,1,180
296,344,72810,2,0,B|320:368|351:344,1,60
408,280,73095,2,0,B|384:256|353:280,1,60
416,344,73381,2,0,B|440:368|471:344,1,60
480,280,73667,6,0,B|520:216|464:152,2,120
408,280,74381,1,0
408,168,74667,1,0
408,168,74810,1,2
304,224,75095,1,2
240,224,75238,1,0
272,160,75381,1,2
272,96,75524,1,0
272,32,75667,1,4
96,96,75953,6,0,B|32:96,2,60
72,216,76524,1,0
72,216,76667,2,0,B|56:288|144:328,1,120
192,304,77095,2,0,B|224:224|152:184,1,120,4|0
216,88,77667,1,0
256,32,77810,1,0
328,32,77953,1,4
448,32,78238,5,0
512,32,78381,1,0
480,96,78524,1,0
512,192,78810,1,0
512,192,78953,2,0,B|568:272|496:376,1,180
416,280,79667,1,0
352,280,79810,1,0
288,280,79953,1,0
352,280,80095,1,0
288,280,80238,1,0
80,352,80524,5,0
56,288,80667,2,0,B|24:224,1,60
56,128,81095,1,0
120,128,81238,1,0
192,32,81524,1,0
256,32,81667,1,0
328,128,81953,2,0,B|400:128,1,60
456,104,82238,2,0,B|456:176,1,60
456,164,82524,1,4
256,352,82810,5,0
256,32,83095,1,0
256,192,83381,1,0
256,192,83524,2,0,B|176:192,1,60
256,192,83810,1,0
256,192,83953,2,0,B|336:192,1,60,2|0
256,192,84238,1,2
32,192,84524,1,2
96,192,84667,1,4
160,192,84810,1,4
480,192,85095,6,0,B|352:192,2,120
224,360,85953,1,0
288,24,86381,1,0
160,192,86810,1,0
160,192,87095,2,0,B|232:120|288:240|352:184|424:248|480:176,1,320,4|0
