osu file format v9

[General]
AudioFilename: stage 07.mp3
AudioLeadIn: 0
PreviewTime: 41147
Countdown: 1
SampleSet: Soft
StackLeniency: 0.7
Mode: 0
LetterboxInBreaks: 1

[Editor]
DistanceSpacing: 0.7
BeatDivisor: 8
GridSize: 4

[Metadata]
Title:In My Heart The Ties
Artist:Eiichiro Yanagi
Creator:hinruni
Version:symphonia
Source:Koumajou Densetsu - Stranger's Requiem
Tags:touhouvania 2 levesterz

[Difficulty]
HPDrainRate:5
CircleSize:5
OverallDifficulty:3
ApproachRate:4
SliderMultiplier:1.79999990463257
SliderTickRate:1

[Events]
//Background and Video events
0,0,"bg1.jpg"
//Break Periods
2,55758,60479
2,109524,121926
2,163291,168012
//Storyboard Layer 0 (Background)
//Storyboard Layer 1 (Fail)
//Storyboard Layer 2 (Pass)
//Storyboard Layer 3 (Foreground)
//Storyboard Sound Samples
//Background Colour Transformations
3,100,163,162,255

[TimingPoints]
2272,480.05760691283,4,2,1,50,1,0
4192,-200,4,2,1,50,0,0
4672,-100,4,2,1,30,0,0
7672,-100,4,2,1,5,0,0
7792,-100,4,2,1,50,0,0
9472,-100,4,2,1,30,0,0
9592,-100,4,2,1,50,0,0
10673,-200,4,2,0,50,0,0
11153,-100,4,2,1,5,0,0
11393,-100,4,2,1,50,0,0
16073,-100,4,1,0,30,0,0
17393,-100,4,2,0,50,0,0
20034,-100,4,2,1,50,0,0
20754,-100,4,2,0,50,0,0
24114,-100,4,2,1,50,0,0
24594,-100,4,2,0,50,0,0
24954,-100,4,2,0,50,0,0
27475,-200,4,2,0,50,0,0
27955,-100,4,2,1,50,0,0
28435,-100,4,2,0,50,0,0
32035,-100,4,2,0,30,0,0
32995,-100,4,2,0,50,0,0
33955,-100,4,1,0,30,0,0
34195,-100,4,2,1,50,0,0
34915,-100,4,2,0,50,0,0
35876,-100,4,1,0,30,0,0
36836,-100,4,2,0,50,0,0
38276,-100,4,2,1,50,0,0
38756,-100,4,2,0,50,0,0
39236,-100,4,2,1,50,0,0
39716,-100,4,2,0,50,0,0
40196,-100,4,2,1,50,0,0
40436,-100,4,2,0,50,0,0
43556,-200,4,2,1,50,0,0
44037,-100,4,2,1,50,0,0
44517,-100,4,2,0,50,0,0
46437,-100,4,2,1,50,0,0
49557,-100,4,2,0,50,0,0
51717,-100,4,2,0,30,0,0
51837,-100,4,2,0,50,0,0
61799,-100,4,2,0,30,0,0
63239,-100,4,2,1,30,0,0
63479,-100,4,2,0,50,0,0
64199,-100,4,2,0,5,0,0
64439,-100,4,2,0,50,0,0
65159,-100,4,2,1,30,0,0
65340,-100,4,2,0,50,0,0
71160,-100,4,2,1,50,0,0
71402,-100,4,2,1,50,0,0
73320,-100,4,2,0,50,0,0
78361,-100,4,2,0,50,0,1
78601,-100,4,2,0,50,0,0
81361,-100,4,2,0,50,0,0
88682,-100,4,2,1,50,0,0
88922,-100,4,2,0,50,0,0
89642,-200,4,2,1,50,0,0
90362,-100,4,2,0,50,0,0
105484,-100,4,2,0,30,0,0
105724,-100,4,2,0,50,0,0
107524,-100,4,2,0,5,0,0
107644,-100,4,2,0,50,0,0
123246,-100,4,1,0,30,0,0
124926,-100,4,2,0,50,0,0
128047,-100,4,2,1,30,0,0
128167,-100,4,2,0,50,0,0
131167,-200,4,2,1,50,0,0
131647,-100,4,2,1,50,0,0
132127,-100,4,2,0,50,0,0
135007,-200,4,2,0,50,0,0
135487,-100,4,2,1,50,0,0
135968,-100,4,2,0,50,0,0
138848,-200,4,2,0,50,0,0
139328,-100,4,2,1,30,0,0
140288,-100,4,2,0,50,0,0
151089,-200,4,2,1,50,0,0
151569,-100,4,2,1,50,0,0
153970,-100,4,2,1,30,0,0
155650,-100,4,2,1,50,0,0
157090,-100,4,2,0,50,0,0
163091,-100,4,2,0,30,0,0
169332,-100,4,2,0,50,0,0
169572,-100,4,2,0,5,0,0
169692,-100,4,2,0,50,0,0
170292,-100,4,2,0,5,0,0
170412,-100,4,2,0,50,0,0
170772,-100,4,2,1,50,0,0
171252,-100,4,2,1,50,0,1
171732,-100,4,2,0,50,0,0
176532,-100,4,2,1,30,0,0
176772,-100,4,2,0,50,0,0
179893,-100,4,2,0,5,0,0
180133,-100,4,2,0,50,0,0
180433,-100,4,2,0,30,0,0
180613,-100,4,2,0,50,0,0
185894,-100,4,2,0,50,0,1
186134,-100,4,2,0,50,0,0
189494,-200,4,2,1,50,0,0
190454,-100,4,2,0,50,0,0
196215,-100,4,2,1,50,0,0
196455,-100,4,2,0,50,0,0
201975,-100,4,2,1,30,0,0
202336,-100,4,2,0,50,0,0
217097,-100,4,2,0,5,0,0

[Colours]
Combo1 : 255,0,128
Combo2 : 249,91,244
Combo3 : 255,0,0
Combo4 : 188,12,61

[HitObjects]
176,44,2271,1,0
176,44,2392,1,0
220,88,2632,1,0
156,108,2872,1,0
156,108,2992,1,0
96,128,3232,2,0,B|44:160|44:200,1,89.9999952316285
32,260,3712,5,0
80,276,3952,1,0
128,300,4192,2,0,B|160:320|168:320,2,44.9999976158142
140,240,4912,1,0
160,180,5152,1,0
252,88,5632,1,6
344,176,6112,5,0
344,176,6232,1,0
352,256,6472,1,0
332,316,6712,1,0
332,316,6832,1,0
252,220,7312,5,2
252,96,7672,1,0
252,96,7792,1,0
152,172,8272,1,0
252,96,8752,2,0,B|292:120|288:176,2,89.9999952316285
232,156,9472,1,12
136,240,9952,5,0
136,240,10072,1,0
180,292,10312,1,0
240,308,10552,1,0
240,308,10673,2,0,B|336:308|336:308,1,89.9999952316285,2|0
364,252,11393,2,0,B|376:224|384:196|356:160,1,89.9999952316285
436,224,11993,2,0,B|440:172|400:124,2,89.9999952316285
440,224,12593,2,0,B|424:300|396:304|388:308,1,89.9999952316285
316,208,13313,1,6
256,96,13793,5,0
256,92,13913,1,0
208,140,14153,1,0
184,188,14393,1,0
256,192,14513,12,0,15713
172,160,16073,5,2
248,108,16433,1,6
256,200,16793,1,2
172,160,17153,1,6
68,92,17633,6,2,B|68:180,1,89.9999952316285
64,182,17993,1,0
60,276,18353,1,0
124,276,18593,2,2,B|212:272,1,89.9999952316285
213,272,18954,1,0
308,268,19314,1,0
372,264,19554,1,0
372,264,19674,1,0
372,264,19794,1,0
276,104,20514,5,2
308,160,20754,1,2
308,160,20874,1,2
244,156,21114,1,2
244,156,21234,1,2
216,100,21474,6,2,B|200:116|184:132|192:184,1,89.9999952316285,0|0
191,182,21834,1,0
104,220,22314,1,0
104,220,22434,1,0
56,300,22794,2,0,B|140:352,2,89.9999952316285,0|0|2
56,300,23394,1,0
56,300,23514,1,2
56,300,23634,1,2
244,312,24354,5,2
244,248,24594,2,2,B|244:200,1,44.9999976158143
244,140,24954,2,2,B|244:88,1,44.9999976158143
308,96,25314,6,0,B|296:56|288:44|232:32,1,89.9999952316285
248,36,25674,2,0,B|224:36|200:44|184:96,1,89.9999952316285
185,89,26034,1,0
248,100,26274,2,0,B|248:204,2,89.9999952316285
188,84,26994,1,0
188,148,27234,1,2
188,180,27355,1,2
188,212,27475,2,2,B|188:280|188:296|188:308,1,89.9999952316285,2|0
248,300,28195,5,2
312,300,28435,1,2
344,300,28555,1,2
408,304,28795,1,2
440,304,28915,1,2
440,240,29155,2,0,B|440:144,1,89.9999952316285
440,152,29515,1,0
440,56,29875,2,2,B|396:12|340:28|316:32|284:48|284:76,1,179.999990463257
280,132,30595,1,0
280,196,30835,1,0
280,260,31075,1,2
280,292,31195,1,2
280,324,31315,1,2
92,332,32035,5,4
92,268,32275,1,4
92,172,32635,1,4
96,76,32995,5,2
160,144,33355,1,2
224,76,33715,1,2
288,76,33955,2,2,B|376:76,1,89.9999952316285,2|0
392,136,34435,1,0
396,200,34675,1,8
396,264,34915,1,2
396,296,35035,1,2
396,344,35215,2,2,B|312:348,1,67.4999964237214,2|2
264,348,35636,5,0
200,348,35876,2,0,B|92:344,2,89.9999952316285,0|2|0
200,224,36836,6,0,B|168:192|160:144|200:112,1,89.9999952316285
177,142,37196,1,0
268,160,37556,1,0
276,224,37796,2,2,B|340:212|328:128,1,89.9999952316285
268,160,38276,1,2
208,52,38756,2,2,B|196:44|176:48|144:64|152:112,1,89.9999952316285
212,108,39236,1,2
336,84,39716,2,2,B|312:48|280:40|244:52,1,89.9999952316285
276,104,40196,1,2
200,204,40676,5,0
152,244,40916,1,0
140,272,41036,2,0,B|144:320|192:340,1,89.9999952316285
224,344,41396,1,0
260,292,41636,1,2
280,268,41756,1,2
316,216,41996,1,2
332,188,42116,1,2
360,132,42356,1,0
360,64,42596,1,2
336,44,42716,1,2
304,40,42836,1,2
276,48,42956,1,2
208,112,43316,5,0
164,156,43556,2,0,B|96:212,1,89.9999952316285
112,336,44517,6,0,B|200:340,1,89.9999952316285
248,340,44937,1,2
328,344,45237,1,0
392,344,45477,2,0,B|448:340|464:288,1,89.9999952316285
400,284,45957,2,0,B|428:224|488:240,1,89.9999952316285
480,176,46437,1,2
468,20,46917,2,0,B|416:44|416:88,1,89.9999952316285
480,80,47397,2,0,B|464:132|416:148,1,89.9999952316285
416,84,47877,1,2
316,156,48357,5,0
296,184,48477,1,0
256,192,48597,12,0,49557
256,192,50037,5,0
188,128,50397,1,0
116,68,50757,1,0
60,100,50997,1,0
96,148,51237,1,0
8,228,51717,1,4
120,288,52197,5,0
120,288,52318,1,0
184,292,52558,1,2
248,296,52798,1,0
248,296,52918,1,0
372,304,53398,5,0
436,304,53638,1,0
436,240,53878,2,0,B|436:136,2,89.9999952316285,0|2|0
436,148,54838,2,0,B|336:148,3,89.9999952316285,0|2|0|2
248,40,61799,6,2,B|248:144,1,89.9999952316285,2|0
248,130,62159,1,0
248,224,62519,2,0,B|248:320,1,89.9999952316285,2|0
248,314,62879,1,0
344,324,63239,1,2
468,332,63719,2,0,B|508:288|480:248,1,89.9999952316285
481,251,64139,1,0
476,184,64439,1,2
452,124,64679,2,0,B|404:88|356:88,1,89.9999952316285
308,72,65159,1,2
184,60,65639,5,0
100,104,65999,1,0
52,184,66359,1,0
48,248,66599,2,2,B|60:312|124:344,1,89.9999952316285
228,200,67559,6,2,B|224:88,1,89.9999952316285,0|0
224,110,67979,1,2
320,112,68339,1,2
316,176,68519,2,0,B|344:228|272:268,1,89.9999952316285
232,272,69000,2,0,B|172:276|152:200,1,89.9999952316285
232,240,69480,1,2
248,92,70020,1,2
292,208,70440,1,2
248,92,70920,1,2
124,76,71400,6,0,B|92:64|48:92|40:124,1,89.9999952316285
46,108,71820,1,0
112,152,72120,1,0
152,200,72360,2,0,B|224:268,1,89.9999952316285
272,320,72900,1,0
364,256,73320,5,0
408,208,73620,1,2
408,208,73740,1,2
420,144,73980,1,2
420,144,74100,1,2
420,96,74280,1,0
256,188,75000,5,0
256,192,75240,12,0,76200
256,192,76680,6,0,B|256:136,2,44.9999976158143
208,232,77160,2,0,B|144:228,2,44.9999976158143
252,276,77641,2,0,B|252:336,2,44.9999976158143
304,236,78121,1,0
344,188,78361,1,0
364,248,78601,1,0
404,200,78841,1,0
384,140,79081,6,0,B|384:116|376:96|348:44,1,89.9999952316285
354,55,79501,1,0
244,40,79861,1,0
196,44,80041,2,0,B|100:40,2,89.9999952316285
108,132,81001,1,2
128,240,81361,1,2
224,244,81721,1,2
288,248,81961,1,2
428,44,82921,6,0,B|396:80|416:136,1,89.9999952316285
464,92,83401,2,0,B|472:120|472:136|436:176,2,89.9999952316285
392,172,84301,1,0
280,84,84841,6,2,B|260:56|240:44|196:60,1,89.9999952316285
228,116,85321,1,0
148,216,85802,2,2,B|180:264|244:232,1,89.9999952316285
200,180,86282,1,0
312,240,86762,2,0,B|352:276|396:240,1,89.9999952316285
352,196,87242,1,0
352,132,87482,1,0
404,96,87722,2,2,B|360:60|312:88,1,89.9999952316285
352,132,88202,1,0
232,96,88682,5,2
232,160,88922,1,2
232,160,89042,1,2
236,224,89282,1,2
236,224,89402,1,2
240,292,89642,6,0,B|264:304|308:288,2,67.4999964237214
180,280,90602,1,0
140,32,91562,5,0
80,144,92042,1,0
200,136,92522,1,0
92,68,93002,1,0
144,184,93482,1,0
168,60,93963,1,0
300,60,94443,5,2
300,156,94803,1,2
304,220,95043,1,0
304,252,95163,1,0
188,344,95643,5,0
108,248,96123,1,0
224,200,96603,1,0
132,112,97083,1,0
152,172,97323,1,0
272,208,97803,1,0
396,192,98283,5,0
396,192,98403,1,0
396,256,98643,1,2
396,320,98883,1,0
396,320,99003,1,0
272,324,99483,1,0
148,320,99963,1,0
144,196,100443,1,0
140,72,100923,2,0,B|228:72,1,89.9999952316285
356,80,101643,1,0
272,172,102123,5,0
272,172,102243,1,0
276,236,102484,1,2
272,300,102724,1,0
272,300,102844,1,0
148,304,103324,6,0,B|88:304|84:292|80:264,1,89.9999952316285
64,204,103804,2,0,B|64:112,1,89.9999952316285
68,48,104284,2,0,B|92:32|140:28|148:64,1,89.9999952316285
144,120,104764,1,2
156,184,105004,2,2,B|172:208|204:228|244:184,1,89.9999952316285
240,132,105484,1,4
364,108,105964,5,0
364,108,106084,1,0
364,172,106324,1,2
360,236,106564,1,0
360,236,106684,1,0
236,252,107164,5,0
140,252,107524,1,0
140,252,107644,1,0
144,128,108124,1,0
268,120,108604,2,0,B|328:136|340:152|352:160,2,89.9999952316285
268,56,109324,1,0
248,52,123246,5,2
248,148,123606,1,2
248,52,123966,1,2
172,108,124326,1,2
248,52,124686,1,2
372,64,125166,6,2,B|372:160,1,89.9999952316285,2|0
372,156,125526,1,0
368,252,125886,1,0
304,252,126126,2,2,B|208:252,1,89.9999952316285,2|0
214,252,126486,1,0
120,252,126846,1,0
120,184,127086,5,2
120,152,127206,1,2
120,120,127327,1,2
288,40,128047,5,2
288,104,128287,1,2
288,104,128407,1,2
288,168,128647,1,2
288,168,128767,1,2
288,232,129007,5,0
248,316,129367,2,0,B|232:332|208:328|160:300|156:260,2,112.499994039536
344,316,130327,2,0,B|384:312|400:280,2,67.4999964237214
288,284,130927,1,2
288,252,131047,1,2
288,220,131167,2,0,B|288:124,1,89.9999952316285
288,68,131887,5,2
224,64,132127,1,2
224,64,132247,1,2
160,64,132487,1,2
160,64,132607,1,2
96,72,132847,5,0
88,168,133207,1,0
92,264,133567,1,2
92,328,133807,1,0
188,328,134167,1,0
284,332,134527,1,0
348,328,134767,5,2
380,328,134887,1,2
412,328,135007,2,2,B|440:332|480:296|492:268,1,89.9999952316285,2|0
488,220,135728,1,2
484,156,135968,1,2
484,156,136088,1,2
480,92,136328,1,2
480,92,136448,1,2
416,92,136688,5,0
320,92,137048,1,0
224,92,137408,1,0
160,88,137648,2,0,B|88:88|76:124,1,89.9999952316285
72,180,138128,1,0
64,276,138488,1,2
96,276,138608,1,2
128,276,138728,1,2
160,276,138848,2,2,B|248:276,1,89.9999952316285,2|0
312,272,139568,5,4
376,268,139808,1,4
336,180,140168,1,4
424,212,140528,5,0
432,112,140888,1,0
348,72,141248,1,0
284,76,141488,1,0
252,76,141608,1,0
188,72,141848,1,0
156,76,141968,1,0
92,80,142208,1,0
88,144,142448,5,2
88,176,142568,1,2
88,208,142688,1,2
88,240,142808,1,2
92,336,143168,1,0
148,336,143408,2,2,B|240:336,1,89.9999952316285
300,336,143888,2,2,B|392:336,1,89.9999952316285
452,340,144369,2,0,B|456:288|404:276,1,89.9999952316285
403,275,144729,1,0
308,264,145089,5,0
244,268,145329,2,0,B|148:264,1,89.9999952316285
92,264,145809,2,2,B|92:216|148:204,1,89.9999952316285,2|0
216,208,146289,2,0,B|308:208,1,89.9999952316285
368,220,146769,2,2,B|360:184|352:160|320:152,1,89.9999952316285,2|0
256,152,147249,2,0,B|160:148,1,89.9999952316285
104,148,147729,1,0
92,272,148209,6,0,B|184:272,1,89.9999952316285
212,272,148569,1,0
308,272,148929,1,0
372,276,149169,1,2
404,276,149289,1,2
468,280,149529,1,2
468,280,149649,2,0,B|468:192,1,89.9999952316285,2|0
464,128,150129,5,2
464,96,150249,1,2
464,64,150369,1,2
460,32,150489,1,2
364,36,150849,5,0
304,36,151089,2,0,B|212:36,1,89.9999952316285
88,44,152049,5,0
80,156,152470,1,0
80,236,152770,1,0
80,300,153010,2,0,B|124:336|156:292,1,89.9999952316285
152,228,153490,2,0,B|152:136,1,89.9999952316285
160,76,153970,1,2
280,32,154450,1,2
304,156,154930,1,2
396,68,155410,1,2
400,192,155890,5,0
400,232,156010,1,0
256,192,156130,12,0,157090
148,120,157570,5,0
216,52,157930,1,0
264,136,158290,1,0
212,172,158530,1,0
276,200,158770,1,0
352,300,159250,1,0
228,320,159730,5,0
228,320,159850,1,0
164,320,160090,1,2
100,324,160330,1,0
100,324,160450,1,0
76,200,160931,2,0,B|116:116,1,89.9999952316285
176,136,161411,2,0,B|208:220,1,89.9999952316285
268,204,161891,2,0,B|232:116,1,89.9999952316285
296,104,162371,2,0,B|332:192,1,89.9999952316285
392,172,162851,6,0,B|352:84,1,89.9999952316285,0|4
232,188,169332,6,2,B|224:172|180:108,1,89.9999952316285,2|0
183,112,169692,1,0
100,156,170052,2,2,B|152:232,1,89.9999952316285,2|0
148,232,170412,1,0
236,280,170772,1,2
360,308,171252,2,0,B|360:220,1,89.9999952316285
360,218,171672,1,0
352,140,171972,1,0
352,76,172212,2,2,B|316:12|284:84,1,89.9999952316285,2|0
288,136,172692,2,2,B|288:244,1,89.9999952316285,2|0
288,288,173172,2,0,B|272:320|232:332|204:296|200:296,1,89.9999952316285
216,304,173532,1,0
192,212,173892,1,2
192,148,174132,1,2
436,48,175092,6,2,B|404:36|368:32|332:56,1,89.9999952316285,2|0
376,84,175512,1,2
392,176,175872,1,2
440,176,176052,2,0,B|436:232|376:236,1,89.9999952316285
320,240,176532,1,2
196,240,177012,6,0,B|152:284|100:232,1,89.9999952316285
156,196,177493,1,2
104,80,177973,2,0,B|136:36|192:76,1,89.9999952316285
148,120,178513,1,2
256,60,178933,6,0,B|260:164,1,89.9999952316285
259,149,179353,1,0
336,156,179653,2,0,B|328:184|312:208|268:212,2,89.9999952316285,0|2|0
336,76,180373,1,6
444,64,180853,5,0
448,124,181093,1,2
448,124,181213,1,2
452,204,181453,1,2
452,204,181573,1,2
452,252,181873,1,0
272,200,182533,1,0
256,192,182773,12,0,183733
252,220,184213,5,2
256,96,184693,1,2
188,200,185173,1,2
300,140,185654,1,0
248,172,185894,1,2
200,132,186134,1,2
184,200,186374,1,2
140,152,186614,6,0,B|104:196|144:244,1,89.9999952316285
180,256,187034,1,0
260,260,187334,1,0
324,260,187574,2,0,B|392:292|332:328,1,89.9999952316285
260,328,188114,1,0
124,324,188534,5,0
124,212,188894,1,0
124,132,189254,1,0
128,72,189494,2,0,B|196:72|196:72,2,67.4999964237214,2|0|0
64,76,190454,2,0,B|64:160,1,67.4999964237214
56,208,190874,1,0
68,276,191174,1,0
68,276,191414,2,0,B|156:276,1,89.9999952316285
220,272,191894,1,0
216,148,192374,5,2
292,48,192854,1,2
364,152,193334,1,2
288,252,193814,1,2
416,256,194295,6,0,B|420:348,1,89.9999952316285
420,344,194715,1,0
344,348,195015,1,2
276,348,195255,2,0,B|180:348,1,89.9999952316285
108,340,195735,1,2
104,228,196215,5,2
104,164,196455,1,2
104,164,196575,1,2
104,100,196815,1,2
104,100,196935,1,2
256,192,197175,12,0,197895
264,192,198135,6,0,B|280:208|296:244|232:288|220:268|192:248,2,134.999992847443
200,184,199095,5,0
236,64,199575,1,0
296,176,200055,1,2
340,56,200535,1,2
388,172,201015,1,2
320,280,201495,1,2
252,176,201975,1,2
156,176,202336,1,2
92,176,202576,1,2
92,176,202696,1,2
72,300,203176,6,0,B|160:304,1,89.9999952316285,2|0
224,304,203656,2,0,B|312:308,1,89.9999952316285,2|0
376,312,204136,2,2,B|476:316,1,89.9999952316285,2|0
476,252,204616,1,0
472,188,204856,2,0,B|468:96,1,89.9999952316285,2|0
468,36,205336,1,0
336,92,205816,5,0
336,92,205936,1,0
280,124,206176,1,2
228,84,206416,1,0
228,84,206536,1,0
120,148,207016,5,0
56,256,207496,1,0
120,148,207976,1,0
188,44,208456,2,2,B|220:24|260:60|244:84,1,89.9999952316285,2|0
188,196,209176,1,0
312,224,209656,5,0
312,224,209776,1,0
312,164,210016,1,2
308,100,210256,1,0
308,100,210376,1,0
392,196,210857,5,2
320,300,211337,1,2
232,208,211817,1,2
308,100,212297,1,0
304,36,212537,1,2
308,160,213017,1,0
324,288,213497,5,0
324,288,213617,1,0
260,292,213857,1,2
196,288,214097,1,0
256,192,214217,12,0,217097
