osu file format v9

[General]
AudioFilename: stage 07.mp3
AudioLeadIn: 0
PreviewTime: 41147
Countdown: 1
SampleSet: Soft
StackLeniency: 0.7
Mode: 0
LetterboxInBreaks: 1

[Editor]
DistanceSpacing: 0.9
BeatDivisor: 4
GridSize: 4

[Metadata]
Title:In My Heart The Ties
Artist:Eiichiro Yanagi
Creator:hinruni
Version:Normal
Source:Koumajou Densetsu - Stranger's Requiem
Tags:touhouvania 2 levesterz

[Difficulty]
HPDrainRate:1
CircleSize:4
OverallDifficulty:1
ApproachRate:2
SliderMultiplier:0.999999904632569
SliderTickRate:1

[Events]
//Background and Video events
0,0,"bg1.jpg"
//Break Periods
2,55758,60239
2,105684,121686
2,163291,167892
//Storyboard Layer 0 (Background)
//Storyboard Layer 1 (Fail)
//Storyboard Layer 2 (Pass)
//Storyboard Layer 3 (Foreground)
//Storyboard Sound Samples
//Background Colour Transformations
3,100,163,162,255

[TimingPoints]
2272,480.05760691283,3,2,0,50,1,0
5632,-100,3,2,0,30,0,0
6112,-100,3,2,0,50,0,0
13313,-100,3,2,1,50,0,0
17633,-100,3,2,0,50,0,0
35876,-100,3,2,1,50,0,0
36356,-100,3,2,0,50,0,0
63749,-100,3,2,0,50,0,1
63849,-100,3,2,0,50,0,1
78875,-100,3,2,0,50,0,0
84638,-100,3,1,0,30,0,0
86558,-100,3,2,0,30,0,0
171394,-100,3,2,0,50,0,1
186200,-100,3,2,0,50,0,0
192322,-100,3,1,0,30,0,0
194333,-100,3,2,0,30,0,0

[Colours]
Combo1 : 255,0,128
Combo2 : 249,91,244
Combo3 : 255,0,0
Combo4 : 188,12,61

[HitObjects]
56,48,2271,2,0,B|208:44,1,149.999985694885
292,48,3472,2,0,B|400:48,1,99.9999904632569
424,132,4432,1,2
336,136,4912,2,0,B|272:136,1,49.9999952316285
196,140,5632,1,4
236,220,6112,6,0,B|376:220|376:220,1,124.999988079071
368,332,7312,1,2
280,340,7792,2,0,B|160:344|160:344,1,99.9999904632569
228,268,8752,2,2,B|228:208,1,49.9999952316285
220,128,9472,1,0
308,120,9952,6,2,B|372:124|384:164|380:236,1,149.999985694885
252,328,11633,1,0
164,340,12113,1,0
76,332,12593,2,0,B|76:264,1,49.9999952316285
68,192,13313,1,2
116,116,13793,6,0,B|140:116|152:104|176:128|220:156|220:160|272:140,1,149.999985694885
60,36,15713,6,0,B|180:144,1,149.999985694885
84,240,17153,1,4
36,312,17633,5,8
124,320,18113,2,0,B|176:320,1,49.9999952316285
220,320,18593,2,0,B|272:320,1,49.9999952316285
356,288,19314,1,2
396,264,19554,2,0,B|436:224,1,49.9999952316285
432,80,20514,6,8,B|400:40|324:44|324:44,1,99.9999904632569
252,56,21474,2,0,B|208:48|160:60|136:76,2,99.9999904632569
172,164,23154,2,2,B|200:196|240:200|276:180,1,99.9999904632569
172,84,24354,1,0
216,84,24594,2,0,B|324:88,1,99.9999904632569
320,132,25314,5,0
312,220,25794,2,0,B|204:220|204:220|208:228,1,99.9999904632569
76,216,26994,1,0
76,172,27234,2,0,B|80:108,1,49.9999952316285
192,52,28195,1,2
236,52,28435,2,0,B|336:52,1,99.9999904632569
352,92,29155,5,0
356,228,29875,1,0
356,272,30115,1,0
232,216,30835,1,0
232,260,31075,2,0,B|228:316|228:316,1,49.9999952316285
96,276,32035,1,2
100,232,32275,2,0,B|100:132,1,99.9999904632569
96,88,32995,5,0
220,36,33715,1,2
236,80,33955,2,0,B|260:148,3,49.9999952316285
256,180,34915,6,0,B|252:196|232:228|160:236,1,99.9999904632569
140,224,35636,1,0
120,184,35876,1,2
80,104,36356,1,2
148,48,36836,6,0,B|200:36|256:56,2,99.9999904632569
204,116,38276,1,0
120,152,38756,2,0,B|148:196|212:204,2,99.9999904632569
196,108,40196,1,2
268,52,40676,6,0,B|304:92|272:160,1,99.9999904632569
256,184,41396,1,0
232,224,41636,2,0,B|208:256|172:252,3,49.9999952316285
148,264,42596,6,0,B|84:256,1,49.9999952316285
36,192,43316,2,0,B|60:120|136:76,1,149.999985694885
220,72,44517,1,2
308,96,44997,2,0,B|348:120|372:136|384:168,1,99.9999904632569
432,212,45957,1,0
364,268,46437,6,0,B|244:272,2,99.9999904632569
356,180,47877,1,0
348,92,48357,2,0,B|348:28,1,49.9999952316285
256,192,48837,12,4,55558
140,288,61799,6,0,B|140:176|140:176|92:144|84:104|96:64|132:36|156:44|172:44|192:44|192:44,1,299.999971389771
260,48,63719,1,0
268,136,64199,2,0,B|160:108,1,99.9999904632569
108,92,65159,1,8
104,204,65639,5,0
100,272,65999,1,0
100,340,66359,1,0
100,340,66599,2,0,B|204:344,1,99.9999904632569,0|4
288,328,67559,6,0,B|340:292|348:272|348:196,2,149.999985694885
276,240,69480,1,0
224,164,69960,1,0
168,92,70440,1,0
100,32,70920,1,0
100,120,71400,6,0,B|104:232|104:232|40:240|32:348|72:348|136:344|136:344,1,299.999971389771
220,340,73320,2,2,B|260:348|236:284|292:276,1,99.9999904632569
332,356,74280,2,0,B|396:340|412:304,1,99.9999904632569
428,260,75000,5,0
432,216,75240,1,0
396,76,76200,5,0
308,60,76680,1,0
220,68,77160,1,0
132,88,77641,1,0
60,144,78121,1,0
28,232,78601,1,0
28,320,79081,6,0,B|88:336|136:320|188:264|176:224,1,199.999980926514
192,140,80521,1,4
196,52,81001,2,0,B|252:28|300:36|356:48|396:104,1,199.999980926514
320,256,82921,5,2
320,168,83401,2,0,B|320:96,2,49.9999952316285
320,260,84361,1,0
408,260,84841,2,2,B|480:260,2,49.9999952316285
320,260,85802,2,2,B|256:260,2,49.9999952316285
228,264,86762,6,2,B|172:264|144:236|140:192|160:136|224:140|224:140,1,199.999980926514
280,204,88202,1,6
340,140,88682,6,2,B|395:140|423:168|427:211|407:267|344:264|344:264,1,199.999980926514
228,352,90362,6,0,B|228:188,1,149.999985694885,0|8
152,240,91562,6,0,B|128:232|104:212|88:156,1,99.9999904632569,0|8
120,80,92522,2,0,B|160:40|248:52|228:52,1,99.9999904632569,0|8
300,68,93482,2,0,B|348:104|368:160,1,99.9999904632569,0|8
332,232,94443,2,0,B|308:260|276:280|244:284|220:276|220:276,2,124.999988079071
388,160,96123,5,0
396,72,96603,1,0
308,56,97083,2,0,B|272:56|240:44|184:48|156:88,1,149.999985694885,0|4
92,132,98283,6,0,B|60:164|44:176|44:224|68:280,1,149.999985694885
132,208,99483,5,8
132,296,99963,1,0
220,300,100443,1,8
160,232,100923,2,0,B|164:164,2,49.9999952316285
160,232,101643,1,0
244,200,102123,6,0,B|288:200|296:252,2,74.9999928474427
224,288,103324,5,0
176,212,103804,2,0,B|116:240|148:300|148:300,1,99.9999904632569
228,332,104764,2,0,B|280:332,1,49.9999952316285
356,288,105484,1,0
80,236,123246,6,4,B|124:276|164:312|228:256|212:232|188:200|236:164|260:152|304:148|368:176|384:244,1,399.999961853028
264,308,125886,1,0
192,252,126366,1,0
132,320,126846,1,0
128,324,127086,2,8,B|132:280|132:216,1,99.9999904632569
80,136,129007,5,0
208,96,129727,2,0,B|236:92|256:84|288:76|320:80|368:96|380:116|392:148,1,199.999980926514
396,180,130927,2,0,B|412:240|356:284,1,99.9999904632569
196,64,132847,6,0,B|264:140,1,99.9999904632569
264,184,133567,2,0,B|192:264,1,99.9999904632569
176,172,134527,1,0
132,176,134767,2,0,B|64:176,4,49.9999952316285
292,92,136688,6,0,B|232:64,1,49.9999952316285,0|0
156,64,137408,2,0,B|120:112,2,49.9999952316285
200,72,138128,2,0,B|224:84|240:108,1,49.9999952316285
268,136,138608,2,0,B|296:192|264:236,1,99.9999904632569
84,36,140528,6,0,B|108:12|168:16|192:44,1,99.9999904632569
136,116,141488,2,2,B|132:216,1,99.9999904632569
88,296,142448,2,0,B|112:332|144:332|184:300,1,99.9999904632569
208,276,143168,1,0
240,248,143408,1,0
292,176,143888,1,4
268,88,144369,6,0,B|308:72|336:80|360:132,1,99.9999904632569
364,160,145089,1,0
360,204,145329,2,0,B|328:268,2,49.9999952316285
372,116,146289,1,0
328,36,146769,1,0
240,32,147249,1,0
152,44,147729,1,4
84,104,148209,5,0
80,168,148569,1,0
80,236,148929,2,0,B|88:280|88:308,1,49.9999952316285
120,344,149529,1,0
188,344,149889,1,0
232,344,150129,2,0,B|264:348|308:296|292:272,1,99.9999904632569
300,236,150849,5,0
300,192,151089,1,0
300,104,151569,1,4
216,68,152049,6,0,B|184:48|136:48|100:72|72:76|36:100|32:136,1,199.999980926514
128,132,153490,1,0
216,128,153970,1,0
244,212,154450,1,0
156,232,154930,1,0
184,316,155410,1,0
272,320,155890,2,0,B|284:336|336:320,1,49.9999952316285
256,192,156370,12,0,163091
132,60,169452,6,0,B|136:168|136:168|92:204|108:236|112:256|152:252|180:252|200:248|208:224|208:200|192:184|208:188,1,299.999971389771
204,112,171252,1,0
252,32,171732,2,0,B|272:44|292:56|308:112,2,99.9999904632569
192,100,173172,1,0
100,108,173892,2,0,B|104:152|128:184|168:208|216:208|216:208,1,149.999985694885
188,116,175092,6,0,B|232:140|272:180|272:220|224:256|188:272,1,199.999980926514
148,192,176532,1,0
84,132,177012,1,0
84,44,177493,1,0
172,28,177973,1,0
232,96,178453,1,0
144,104,178933,2,0,B|96:128,1,49.9999952316285
144,200,179653,1,0
164,240,179893,1,0
224,272,180853,6,0,B|260:284|296:292|328:256|340:248|320:252,2,99.9999904632569
224,136,182533,5,0
224,136,182773,1,0
380,228,183733,5,0
404,140,184213,1,0
368,56,184693,1,0
284,36,185173,1,0
196,44,185654,1,0
112,76,186134,1,0
56,148,186614,6,0,B|44:196|40:232|60:264|136:316,1,199.999980926514
176,236,188054,1,0
264,240,188534,1,0
272,328,189014,2,0,B|332:328|360:312|364:280,1,99.9999904632569
404,120,190454,6,0,B|428:116|448:156|460:180|448:220,1,99.9999904632569
364,192,191414,2,0,B|344:228|360:256|396:288,1,99.9999904632569
456,336,192374,1,2
312,344,192854,1,2
224,336,193334,1,2
144,292,193814,1,2
84,224,194295,6,0,B|68:180|84:140|96:124|112:108|136:100|132:80|200:88,1,199.999980926514,0|8
272,112,195735,1,0
348,160,196215,2,0,B|376:200|368:240|344:248,1,99.9999904632569
252,248,197175,1,4
128,200,197895,5,0
128,200,198135,1,0
244,64,199095,1,4
320,116,199575,1,4
352,200,200055,1,4
308,276,200535,5,0
224,304,201015,1,0
148,252,201495,1,0
140,164,201975,2,0,B|148:140|160:124|180:112|236:104,1,99.9999904632569
340,160,203176,5,0
296,240,203656,1,0
204,272,204136,1,0
116,264,204616,1,0
116,264,204856,1,0
128,196,205336,1,0
164,88,205816,6,0,B|188:68|224:52|244:48|280:64|300:100,1,149.999985694885
224,144,207016,1,0
180,224,207496,1,0
248,284,207976,1,0
312,224,208456,1,0
416,312,209176,5,0
440,224,209656,6,0,B|452:184|444:140|388:80,1,149.999985694885
308,68,210857,2,0,B|284:56|232:64|200:84,1,99.9999904632569
124,104,211817,2,0,B|76:128|56:148|48:184,1,99.9999904632569
52,169,212537,1,0
48,256,213017,1,0
120,308,213497,6,0,B|164:344|232:344|276:332,1,149.999985694885
256,192,214457,12,0,217097
