osu file format v9

[General]
AudioFilename: stage 07.mp3
AudioLeadIn: 0
PreviewTime: 41147
Countdown: 1
SampleSet: Soft
StackLeniency: 0.7
Mode: 0
LetterboxInBreaks: 1

[Editor]
DistanceSpacing: 1
BeatDivisor: 8
GridSize: 4

[Metadata]
Title:In My Heart The Ties
Artist:Eiichiro Yanagi
Creator:hinruni
Version:Hard
Source:Koumajou Densetsu - Stranger's Requiem
Tags:touhouvania 2 levesterz

[Difficulty]
HPDrainRate:4
CircleSize:5
OverallDifficulty:3
ApproachRate:4
SliderMultiplier:1.99999990463257
SliderTickRate:2

[Events]
//Background and Video events
0,0,"bg1.jpg"
//Break Periods
2,55758,60479
2,109524,121926
2,163171,168012
//Storyboard Layer 0 (Background)
//Storyboard Layer 1 (Fail)
//Storyboard Layer 2 (Pass)
//Storyboard Layer 3 (Foreground)
//Storyboard Sound Samples
//Background Colour Transformations
3,100,163,162,255

[TimingPoints]
2272,480.05760691283,4,2,1,50,1,0
2392,-133.333333333333,4,2,0,50,0,0
5632,-133.333333333333,4,2,1,50,0,0
6112,-133.333333333333,4,2,0,50,0,0
7792,-133.333333333333,4,2,1,50,0,0
9963,-133.333333333333,4,2,0,50,0,0
15714,-100,4,2,0,50,0,0
36356,-100,4,2,1,50,0,0
36836,-100,4,2,0,50,0,0
38276,-100,4,2,1,50,0,0
38756,-100,4,2,0,50,0,0
47997,-100,4,2,0,30,0,0
48717,-100,4,2,0,50,0,0
49077,-100,4,2,0,30,0,0
49557,-100,4,2,0,50,0,0
54358,-100,4,2,1,30,0,0
63719,-133.333333333333,4,2,1,50,0,1
78363,-133.333333333333,4,2,0,50,0,0
79081,-100,4,2,0,50,0,0
171252,-133.333333333333,4,2,0,50,0,1
185910,-133.333333333333,4,2,0,50,0,0
186614,-100,4,2,0,50,0,0

[Colours]
Combo1 : 255,0,128
Combo2 : 249,91,244
Combo3 : 255,0,0
Combo4 : 188,12,61

[HitObjects]
88,44,2272,1,0
88,44,2392,1,0
16,72,2632,1,2
80,112,2872,1,0
80,112,2992,5,0
304,116,3712,1,2
304,48,3952,2,0,B|332:12|376:60,1,74.9999941885474
376,128,4432,1,0
452,128,4672,1,0
460,200,4912,1,0
384,192,5152,2,2,B|324:196|344:256,1,74.9999941885474,0|0
348,312,5632,1,2
200,308,6112,5,0
200,308,6232,1,0
124,308,6472,1,2
52,288,6712,1,0
52,288,6832,1,0
44,212,7072,5,0
56,136,7312,1,0
92,68,7552,1,0
164,52,7792,2,0,B|196:120,1,74.9999941885474,2|0
272,120,8272,2,0,B|300:48,1,74.9999941885474,2|0
372,36,8752,2,2,B|444:60|460:88|460:156,1,149.999988377095,0|0
460,216,9472,1,6
352,320,9952,5,0
352,320,10072,1,0
276,328,10312,1,2
200,328,10552,1,0
200,328,10673,1,0
44,120,11513,5,0
44,120,11633,1,0
132,52,11993,1,0
132,52,12113,1,0
156,124,12353,1,0
172,196,12593,1,0
200,268,12833,2,0,B|252:296|260:232,1,74.9999941885474
240,172,13313,1,4
324,48,13793,5,0
324,48,13913,1,0
380,96,14153,1,0
404,168,14393,1,0
404,168,14513,1,0
416,240,14753,2,0,B|400:276|388:296|360:308|324:328|276:344|224:312,1,224.999982565642
172,268,15713,5,2
128,120,16073,1,2
248,28,16433,1,2
368,116,16793,1,2
316,256,17153,1,2
196,96,17633,6,0,B|128:68|76:88,1,99.9999952316285
96,84,17993,2,0,B|16:112|28:184,1,99.9999952316285
27,150,18353,1,0
124,176,18593,1,0
108,324,18954,2,0,B|172:356|212:300,1,99.9999952316285
200,316,19314,1,0
244,228,19554,5,2
244,228,19674,1,2
244,228,19794,1,2
272,140,20034,2,0,B|296:96,3,49.9999976158143
296,96,20514,5,0
392,64,20754,1,2
392,64,20874,1,2
488,96,21114,1,2
488,96,21234,1,2
488,196,21474,5,0
484,344,21834,2,0,B|436:364|372:344,1,99.9999952316285
385,347,22194,1,0
372,248,22434,2,0,B|320:208|268:256,1,99.9999952316285
279,246,22794,1,0
184,360,23154,1,0
100,304,23394,5,2
100,304,23514,1,2
100,304,23634,1,2
48,216,23874,2,0,B|24:152,2,49.9999976158143
92,124,24354,1,0
192,124,24594,1,2
192,124,24714,1,2
140,208,24954,1,2
140,208,25074,1,2
240,212,25314,6,0,B|344:212,1,99.9999952316285
340,212,25674,1,0
280,76,26034,1,2
180,80,26274,2,0,B|184:196,1,99.9999952316285
184,180,26634,1,0
280,76,26994,1,2
380,72,27234,5,2
380,72,27355,1,2
380,72,27475,1,2
468,116,27715,2,0,B|472:176,2,49.9999976158143
416,204,28195,1,0
424,304,28435,1,2
424,304,28555,1,2
340,248,28795,1,2
340,248,28915,1,2
332,148,29155,6,0,B|284:116|208:148,1,99.9999952316285
235,138,29515,2,0,B|192:168|180:188|180:224,1,99.9999952316285
180,216,29875,1,0
256,284,30115,2,0,B|248:292|224:320|152:320,1,99.9999952316285
165,319,30475,2,0,B|108:336|72:256,1,99.9999952316285
83,278,30835,1,0
52,184,31075,5,2
52,184,31195,1,2
52,184,31315,1,2
56,84,31555,2,0,B|96:56,2,49.9999976158143
152,64,32035,5,4
196,164,32275,5,4
300,56,32635,5,4
448,48,32995,6,0,B|452:164,1,99.9999952316285
452,148,33355,1,0
424,296,33715,5,2
336,340,33955,1,0
336,340,34075,1,0
236,340,34315,1,0
236,340,34435,1,0
140,312,34675,1,2
68,244,34915,5,2
68,244,35035,1,2
68,244,35155,1,2
68,244,35275,1,2
60,140,35515,1,0
60,140,35636,1,0
124,64,35876,2,0,B|168:44|192:44|228:72,1,99.9999952316285
228,164,36356,2,0,B|284:192|328:152,1,99.9999952316285,2|0
332,56,36836,2,0,B|384:32|432:64,1,99.9999952316285
440,160,37316,2,0,B|444:272,2,99.9999952316285
284,284,38276,2,0,B|176:288,1,99.9999952316285,2|0
84,288,38756,6,0,B|8:280|40:208,1,99.9999952316285
36,120,39236,2,0,B|36:20,1,99.9999952316285
136,28,39716,2,0,B|244:28,2,99.9999952316285
336,40,40676,1,0
480,76,41036,1,0
464,224,41396,1,0
364,236,41636,1,2
364,236,41756,1,2
220,188,42116,1,0
128,300,42476,1,2
128,300,42596,5,2
128,300,42716,1,2
128,300,42836,1,2
128,300,42956,1,2
24,192,43316,1,0
36,92,43556,2,0,B|48:16|188:24|200:128,1,199.999990463257
108,148,44277,5,2
112,248,44517,2,0,B|80:292|20:260,1,99.9999952316285
112,248,44997,2,0,B|168:284|216:256,1,99.9999952316285
216,168,45477,1,0
376,48,45957,1,0
216,172,46437,1,0
404,236,46917,1,0
236,344,47397,1,0
84,212,47877,1,0
84,212,47997,5,0
84,212,48117,1,0
84,212,48237,1,0
84,212,48357,5,0
84,212,48477,1,0
68,112,48717,1,0
152,56,48957,1,0
152,56,49077,1,4
352,64,49557,5,0
476,220,50037,1,0
364,320,50397,1,0
264,200,50757,1,0
364,192,50997,1,0
288,128,51237,1,0
88,136,51717,1,2
176,316,52197,5,0
176,316,52318,1,0
276,316,52558,1,2
376,320,52798,1,0
376,320,52918,1,0
196,236,53398,2,0,B|236:144,2,99.9999952316285
260,48,54358,1,2
360,220,54838,2,0,B|296:144,2,99.9999952316285
280,280,55558,1,2
120,40,61799,5,2
208,160,62159,1,2
68,216,62519,1,2
36,92,62879,1,2
148,216,63239,1,2
240,96,63719,6,0,B|288:60|336:68|360:88|372:132,1,149.999988377095
396,184,64439,1,0
388,264,64679,2,0,B|376:300|340:324,1,74.9999941885474
268,332,65159,2,0,B|220:340|188:328,1,74.9999941885474
124,300,65639,1,0
64,204,65999,1,0
80,88,66359,1,0
148,56,66599,1,2
136,132,66839,2,0,B|156:136|172:144|208:120,2,74.9999941885474
140,208,67559,6,0,B|200:220|220:188,1,74.9999941885474
260,168,67979,1,0
368,136,68339,1,0
400,184,68519,2,0,B|436:252,1,74.9999941885474
440,324,69000,2,0,B|356:328,1,74.9999941885474
292,328,69480,2,0,B|208:328,1,74.9999941885474
124,324,70020,1,0
116,192,70440,2,0,B|116:112,1,74.9999941885474
120,44,70920,1,0
268,40,71400,6,0,B|268:120,1,74.9999941885474
228,156,71820,1,0
268,260,72180,1,0
300,308,72360,2,0,B|316:320|336:332|376:304|372:328,1,74.9999941885474
368,216,72900,1,0
376,84,73320,5,0
252,40,73620,1,0
252,40,73740,1,0
176,48,73980,1,0
176,48,74100,1,0
124,68,74280,2,0,B|80:128|80:140|104:192|124:208,1,149.999988377095
192,224,75000,5,0
256,192,75240,12,0,76200
216,188,76680,5,0
288,320,77160,1,0
360,188,77641,1,0
324,124,77881,1,0
252,96,78121,1,0
176,96,78361,1,0
108,124,78601,1,0
56,176,78841,1,0
44,276,79081,6,0,B|80:312|136:320,1,99.9999952316285
232,328,79561,1,0
356,332,79861,1,0
428,308,80041,2,0,B|464:300|480:280|488:220,1,99.9999952316285
472,112,80581,1,0
304,64,81001,6,0,B|264:156,1,99.9999952316285
212,100,81421,1,0
88,76,81721,2,0,B|140:176,1,99.9999952316285
216,224,82201,2,0,B|220:328,2,99.9999952316285
208,124,82921,5,0
280,52,83161,2,0,B|320:60|340:76|364:112,1,99.9999952316285
408,220,83701,1,0
400,296,83881,2,0,B|360:336|304:344,1,99.9999952316285
212,344,84361,2,0,B|172:348|104:312,1,99.9999952316285
156,228,84841,5,0
260,56,85321,1,0
372,228,85802,1,0
156,228,86282,1,0
88,40,86762,6,0,B|64:76|44:112|44:128,1,99.9999952316285
40,204,87182,1,0
132,320,87542,1,0
208,320,87722,6,0,B|240:328|272:324|308:308,1,99.9999952316285
396,224,88262,1,0
396,48,88682,5,0
296,36,88922,1,0
220,36,89102,1,0
120,44,89342,1,0
120,44,89462,1,0
256,192,89642,12,0,90362
256,204,90602,6,0,B|220:192|224:144|264:128|292:132|324:148|332:192|328:228|328:244|312:260|268:280|232:284|208:256|200:236|200:236,1,299.999985694885
176,160,91562,5,0
336,280,92042,1,0
260,92,92522,1,0
208,284,93002,1,0
368,164,93482,1,0
208,284,93963,1,0
236,88,94443,1,0
248,188,94803,1,0
328,248,95043,1,0
328,248,95163,1,0
128,240,95643,6,0,B|144:188|192:156,1,99.9999952316285
264,100,96123,2,0,B|324:96|368:136,1,99.9999952316285
400,216,96603,2,0,B|400:268|340:308,1,99.9999952316285
264,344,97083,2,0,B|200:360|172:320,2,99.9999952316285
256,236,97803,1,0
320,44,98283,5,0
320,44,98403,1,0
416,72,98643,1,0
460,160,98883,1,0
460,160,99003,1,0
360,140,99243,6,0,B|268:200,1,99.9999952316285
116,316,99963,2,0,B|200:252,1,99.9999952316285
276,196,100443,1,0
92,120,100923,2,0,B|168:192,1,99.9999952316285
316,320,101643,2,0,B|232:244,1,99.9999952316285
144,276,102123,5,0
144,276,102243,1,0
64,216,102484,1,0
36,116,102724,1,0
36,116,102844,1,0
220,192,103324,5,0
408,120,103804,1,0
400,320,104284,1,0
300,148,104764,1,0
352,232,105004,1,0
244,64,105484,1,0
44,76,105964,5,0
44,76,106084,1,0
28,176,106324,1,0
72,268,106564,1,0
72,268,106684,1,0
260,180,107164,6,0,B|144:184,1,99.9999952316285
260,180,107644,2,0,B|376:180,1,99.9999952316285
260,180,108124,2,0,B|256:80,1,99.9999952316285
260,180,108604,2,0,B|264:284,1,99.9999952316285
464,304,109324,1,0
104,56,123246,6,0,B|120:52|176:36|192:96,1,99.9999952316285
188,85,123606,2,0,B|224:108|232:152|192:184,1,99.9999952316285
204,172,123966,1,0
56,180,124326,2,0,B|32:212|36:236|72:268,1,99.9999952316285
72,264,124686,1,0
272,288,125166,6,0,B|312:296|332:272|324:216,1,99.9999952316285
325,226,125526,1,0
216,124,125886,1,0
304,76,126126,2,0,B|340:112|352:136|340:176,1,99.9999952316285
343,163,126486,1,0
204,224,126846,1,0
124,164,127086,5,0
124,164,127206,1,0
124,164,127327,1,0
424,164,128047,1,0
424,264,128287,1,0
424,264,128407,1,0
364,344,128647,1,0
364,344,128767,1,0
316,256,129007,6,0,B|268:280|224:272|208:256,1,99.9999952316285
217,262,129367,1,0
324,156,129727,1,0
328,56,129967,2,0,B|268:32|212:48,1,99.9999952316285
230,43,130327,1,0
324,160,130687,1,0
224,156,130927,5,0
224,156,131047,1,0
224,156,131167,1,0
124,160,131407,2,0,B|76:156,2,49.9999976158143
140,260,131887,1,0
228,308,132127,1,0
228,308,132247,1,0
328,304,132487,1,0
328,304,132607,1,0
264,228,132847,6,0,B|272:192|312:172|356:192,1,99.9999952316285
416,252,133327,1,0
452,160,133567,1,0
408,72,133807,1,0
260,52,134167,1,0
112,52,134527,1,0
36,116,134767,5,0
36,116,134887,1,0
36,116,135007,1,0
32,220,135247,2,0,B|32:276,2,49.9999976158143
28,320,135728,1,0
128,324,135968,1,0
128,324,136088,1,0
228,324,136328,1,0
228,324,136448,1,0
328,328,136688,6,0,B|380:332|420:284,1,99.9999952316285
415,288,137048,2,0,B|448:260|452:240|428:188,1,99.9999952316285
348,248,137528,2,0,B|272:180,1,99.9999952316285
216,72,138068,2,0,B|176:76|136:100|164:168,1,124.999994039536
88,228,138608,5,0
88,228,138728,1,0
88,228,138848,1,0
188,240,139088,2,0,B|248:244,2,49.9999976158143
176,140,139568,1,0
180,40,139808,1,0
312,108,140168,1,0
448,48,140528,6,0,B|476:76|480:108|452:152,1,99.9999952316285
384,204,141008,1,0
284,208,141248,1,0
180,136,141548,1,0
296,40,141908,1,0
392,120,142208,1,0
292,124,142448,1,0
292,124,142628,1,0
292,124,142748,1,0
292,124,142868,1,0
192,52,143168,5,0
92,68,143408,2,0,B|92:168,1,99.9999952316285
164,236,143888,1,0
344,320,144369,6,0,B|400:320|416:248,1,99.9999952316285
412,260,144729,1,0
300,160,145089,1,0
388,112,145329,2,0,B|452:152|428:208,1,99.9999952316285
344,236,145809,1,0
180,124,146289,6,0,B|172:156|168:172|212:224,1,99.9999952316285
176,124,146769,2,0,B|180:84|168:44|132:36,1,99.9999952316285
40,52,147249,6,0,B|28:72|20:112|40:156,1,99.9999952316285
52,248,147729,2,0,B|76:280|100:300|136:300,1,99.9999952316285
232,312,148209,2,0,B|280:316|328:292,1,99.9999952316285
328,291,148569,1,0
360,144,148929,2,0,B|396:184|364:252,1,99.9999952316285
369,238,149289,1,0
256,188,149589,1,0
144,128,149889,1,0
104,220,150129,1,0
104,220,150249,1,0
104,220,150369,1,0
104,220,150489,1,0
52,360,150849,5,0
152,356,151089,2,0,B|256:356,1,99.9999952316285
352,360,151569,1,0
360,160,152049,5,0
248,260,152410,1,0
116,188,152770,1,0
168,100,153010,1,0
328,220,153490,1,0
256,32,153970,1,0
200,224,154450,1,0
356,100,154930,1,0
156,116,155410,1,0
156,116,155530,1,0
156,116,155650,1,0
156,116,155770,1,0
156,116,155890,5,0
156,116,156010,1,0
248,156,156250,1,0
332,212,156490,1,0
332,212,156610,1,0
132,228,157090,5,0
32,56,157570,1,0
48,256,158050,1,0
120,324,158290,1,0
220,324,158530,1,0
316,296,158770,1,0
320,96,159250,1,0
128,48,159730,5,0
128,48,159850,1,0
56,116,160090,1,0
40,216,160330,1,0
40,216,160450,1,0
236,184,160931,5,0
404,76,161411,1,0
416,276,161891,1,0
228,340,162371,1,0
224,92,162971,1,0
52,56,169332,5,0
160,164,169692,1,0
256,48,170052,1,0
160,164,170412,1,0
28,280,170772,1,0
160,292,171252,6,0,B|240:296,1,74.9999941885474
292,296,171672,1,0
300,184,172032,1,0
244,184,172212,2,0,B|156:184,1,74.9999941885474
96,188,172692,1,0
84,40,173172,2,0,B|160:40,1,74.9999941885474
160,40,173532,1,0
272,48,173892,1,0
348,48,174132,2,0,B|360:72|360:96|348:120,3,74.9999941885474
272,128,175092,5,0
140,132,175512,1,0
84,228,175872,1,0
140,232,176052,2,0,B|224:236,1,74.9999941885474
288,232,176532,2,0,B|364:232,1,74.9999941885474
436,236,177012,1,0
376,96,177493,1,0
228,92,177973,1,0
80,88,178453,1,0
56,236,178933,5,0
180,196,179353,1,0
272,260,179713,1,0
328,264,179893,1,0
384,104,180433,1,0
252,108,180853,5,0
160,100,181153,1,0
160,100,181273,1,0
84,96,181513,1,0
84,96,181633,1,0
28,100,181813,1,0
224,208,182533,5,0
152,224,182773,2,0,B|172:256|192:272|216:284|284:248,2,149.999988377095
148,76,184213,1,0
296,56,184693,1,0
440,96,185173,5,0
460,168,185413,1,0
464,244,185654,1,0
420,304,185894,1,0
356,344,186134,1,0
280,340,186374,1,0
180,344,186614,6,0,B|132:344|104:332|84:324,1,99.9999952316285
36,268,187034,1,0
40,144,187334,1,0
108,72,187574,2,0,B|152:56|208:80,1,99.9999952316285
332,96,188114,1,0
332,272,188534,2,0,B|332:168,1,99.9999952316285
332,96,188954,1,0
216,136,189254,1,0
216,236,189494,2,0,B|216:304,6,49.9999976158143
216,136,190454,6,0,B|100:136,1,99.9999952316285
32,188,190934,1,0
76,304,191174,2,0,B|180:304,1,99.9999952316285
376,300,191894,2,0,B|256:300,1,99.9999952316285
216,220,192374,2,0,B|216:112,1,99.9999952316285
312,152,192854,1,0
112,152,193334,1,0
216,324,193814,1,0
416,324,194295,6,0,B|416:224,1,99.9999952316285
416,124,194775,2,0,B|412:20,1,99.9999952316285
312,24,195255,2,0,B|200:28,1,99.9999952316285
112,28,195735,1,0
12,200,196215,5,0
144,192,196515,1,0
144,192,196635,1,0
244,192,196875,1,0
244,192,196995,1,0
256,192,197175,12,0,197895
256,192,198135,12,0,199095
188,224,199575,5,0
360,124,200055,1,0
160,112,200535,1,0
320,232,201015,1,0
252,44,201495,1,0
452,40,201975,5,0
460,192,202336,1,0
460,292,202576,1,0
460,292,202696,1,0
268,312,203176,6,0,B|168:312,1,99.9999952316285
164,212,203656,2,0,B|168:312,1,99.9999952316285
68,312,204136,2,0,B|68:204,1,99.9999952316285
68,112,204616,2,0,B|68:212,1,99.9999952316285
240,112,205336,1,0
440,112,205816,5,0
440,112,205936,1,0
444,212,206176,1,0
448,312,206416,1,0
448,312,206536,1,0
280,200,207016,2,0,B|280:96,1,99.9999952316285
280,200,207496,2,0,B|280:304,1,99.9999952316285
280,200,207976,2,0,B|168:200|168:200,1,99.9999952316285
280,200,208456,2,0,B|384:200,3,99.9999952316285
200,284,209656,5,0
200,284,209776,1,0
112,328,210016,1,0
52,260,210256,1,0
52,260,210376,1,0
128,72,210857,6,0,B|128:192,1,99.9999952316285
28,176,211337,2,0,B|136:176,1,99.9999952316285
228,176,211817,2,0,B|120:176,1,99.9999952316285
120,276,212297,1,0
220,276,212537,2,0,B|328:280,1,99.9999952316285
420,268,213017,1,0
296,108,213497,5,0
296,108,213617,1,0
196,120,213857,1,0
256,200,214097,1,0
256,192,214217,12,0,217337
