osu file format v12

[General]
AudioFilename: Eiffel 65 - Viaggia Insieme a Me.mp3
AudioLeadIn: 2000
PreviewTime: 90368
Countdown: 0
SampleSet: Soft
StackLeniency: 0.7
Mode: 0
LetterboxInBreaks: 0
WidescreenStoryboard: 0

[Editor]
Bookmarks: 113661
DistanceSpacing: 0.8
BeatDivisor: 4
GridSize: 4
TimelineZoom: 1

[Metadata]
Title:Viaggia Insieme a Me
TitleUnicode:Viaggia Insieme a Me
Artist:Eiffel 65
ArtistUnicode:Eiffel 65
Creator:Lally
Version:Normal
Source:
Tags:italodance italian album chewin travel with
BeatmapID:367172
BeatmapSetID:148477

[Difficulty]
HPDrainRate:3
CircleSize:3
OverallDifficulty:3
ApproachRate:4
SliderMultiplier:1.4
SliderTickRate:1

[Events]
//Background and Video events
0,0,"uguu.jpg",0,0
//Break Periods
2,67980,77754
//Storyboard Layer 0 (Background)
//Storyboard Layer 1 (Fail)
//Storyboard Layer 2 (Pass)
//Storyboard Layer 3 (Foreground)
//Storyboard Sound Samples
//Background Colour Transformations
3,100,163,162,255

[TimingPoints]
16,705.882352941176,4,2,90,40,1,0
11310,-133.333333333333,4,2,90,70,0,0
19780,-133.333333333333,4,2,90,20,0,0
21898,-100,4,2,90,70,0,0
22604,-100,4,2,90,30,0,0
22692,-100,4,2,90,70,0,0
33898,-100,4,2,90,30,0,0
34074,-100,4,2,90,70,0,0
45192,-100,4,2,69,80,0,0
48015,-100,4,2,90,80,0,0
48192,-100,4,2,69,80,0,0
53663,-100,4,2,90,80,0,0
53839,-100,4,2,69,80,0,0
67780,-100,4,2,90,80,0,0
79251,-100,4,2,69,60,0,0
89663,-100,4,2,90,60,0,0
90368,-100,4,2,69,100,0,1
100957,-100,4,2,69,100,0,0
101663,-83.3333333333333,4,2,69,100,0,1
112957,-83.3333333333333,4,2,69,100,0,0

[Colours]
Combo1 : 249,81,85
Combo2 : 157,255,255
Combo3 : 89,172,255
Combo4 : 253,166,166

[HitObjects]
104,184,16,6,0,P|92:128|68:104,2,70,2|0|2,0:0|0:0|0:0,0:0:0:0:
156,284,1427,1,2,0:0:0:0:
195,244,1780,1,0,0:0:0:0:
234,204,2133,1,2,0:0:0:0:
304,116,2839,6,0,L|312:44,2,70,2|0|2,0:0|0:0|0:0,0:0:0:0:
348,220,4251,1,2,0:0:0:0:
387,259,4604,1,0,0:0:0:0:
426,298,4957,1,2,0:0:0:0:
324,348,5663,38,0,L|272:360,2,35,2|0|0,0:0|0:0|0:0,0:0:0:0:
368,312,6368,2,0,L|392:236,1,70,2|0,0:0|0:0,0:0:0:0:
380,192,7074,2,0,L|344:120,2,70,2|2|2,0:0|0:0|0:0,0:0:0:0:
256,192,8486,12,0,10604,0:0:0:0:
203,308,11310,38,0,B|192:252|80:240|56:164|148:68|216:152,1,315.000012016297,4|0,0:0|0:0,0:0:0:0:
296,152,14133,2,0,B|364:68|456:164|432:240|320:252|304:320,1,315.000012016297,2|0,0:0|0:0,0:0:0:0:
384,340,16957,2,0,B|444:300|528:216|488:116|432:72,1,315.000012016297,2|0,0:0|0:0,0:0:0:0:
256,192,19780,12,0,21898,0:0:0:0:
108,152,22604,6,0,P|136:212|216:240,1,140,6|0,0:0|0:0,0:0:0:0:
311,240,24015,2,0,P|374:213|404:152,1,140,0|0,0:0|0:0,0:0:0:0:
416,96,25074,1,0,0:0:0:0:
412,40,25427,6,0,P|340:72|268:60,2,140,2|0|0,0:0|0:0|0:0,0:0:0:0:
500,112,27545,1,0,0:0:0:0:
452,212,28251,2,0,B|420:212|404:328|344:328,1,140,2|0,0:0|0:0,0:0:0:0:
256,308,29663,2,0,L|256:208,2,70,0|0|0,0:0|0:0|0:0,0:0:0:0:
143,320,31074,38,0,B|108:328|92:212|60:212,1,140,2|0,0:0|0:0,0:0:0:0:
24,172,32133,1,0,0:0:0:0:
12,116,32486,2,0,P|52:48|128:44,1,140,0|0,0:0|0:0,0:0:0:0:
204,96,33898,6,0,B|264:136|372:52|372:52|468:88,1,280,6|0,0:0|0:0,0:0:0:0:
464,196,36015,2,0,L|396:320,2,140,0|2|0,0:0|0:0|0:0,0:0:0:0:
452,140,37780,1,0,0:0:0:0:
420,96,38133,2,0,P|356:44|272:56,1,140,0|0,0:0|0:0,0:0:0:0:
212,112,39545,38,0,B|232:208|96:240|44:164|44:164|-24:240|72:328,1,420,2|0,0:0|0:0,0:0:0:0:
256,192,42368,12,0,44486,0:0:0:0:
128,240,45192,6,0,P|156:160|216:128,1,140,4|8,0:0|0:0,0:0:0:0:
312,116,46604,2,0,P|384:96|424:36,1,140,2|8,0:0|0:0,0:0:0:0:
460,148,48015,2,0,L|432:304,1,140,2|8,0:0|0:0,0:0:0:0:
412,336,49074,1,0,0:0:0:0:
376,376,49427,2,0,P|332:344|220:344,1,140,2|8,0:0|0:0,0:0:0:0:
136,320,50839,38,0,P|80:280|76:188,1,140,4|8,0:0|0:0,0:0:0:0:
92,164,51898,1,0,0:0:0:0:
116,116,52251,2,0,P|188:152|276:140,1,140,2|8,0:0|0:0,0:0:0:0:
256,192,53663,12,8,55780,0:0:0:0:
192,156,56486,6,0,P|156:132|144:80,2,70,4|0|8,0:0|0:0|0:0,0:0:0:0:
300,188,57898,2,0,P|360:200|420:260,1,140,2|8,0:0|0:0,0:0:0:0:
444,304,58957,1,0,0:0:0:0:
480,348,59310,2,0,L|476:180,1,140,4|8,0:0|0:0,0:0:0:0:
456,100,60721,1,2,0:0:0:0:
356,52,61427,1,8,0:0:0:0:
288,140,62133,38,0,P|232:196|160:200,1,140,4|8,0:0|0:0,0:0:0:0:
120,184,63192,1,0,0:0:0:0:
72,156,63545,2,0,P|52:208|88:300,1,140,2|8,0:0|0:0,0:0:0:0:
172,344,64957,1,2,0:0:0:0:
280,316,65663,1,8,0:0:0:0:
352,232,66368,2,0,P|400:264|408:284,2,70,2|0|8,0:0|0:0|0:0,0:0:0:0:
256,172,67780,5,6,0:0:0:0:
72,120,79074,38,0,P|32:76|-8:72,2,70,6|0|8,0:0|0:0|0:0,0:0:0:0:
108,164,80133,1,0,0:0:0:0:
136,212,80486,2,0,P|180:244|280:220,1,140,2|8,0:0|0:0,0:0:0:0:
348,164,81898,6,0,P|388:120|428:116,2,70,2|0|8,0:0|0:0|0:0,0:0:0:0:
312,208,82957,1,0,0:0:0:0:
284,256,83310,2,0,P|240:288|140:264,1,140,2|8,0:0|0:0,0:0:0:0:
72,208,84721,38,0,P|56:132|120:88,1,140,4|8,0:0|0:0,0:0:0:0:
208,108,86133,2,0,P|300:116|360:68,1,140,4|8,0:0|0:0,0:0:0:0:
256,192,87545,12,2,89663,0:0:0:0:
204,152,90368,22,0,P|188:108|168:96,2,70,4|0|8,0:0|0:0|0:0,0:0:0:0:
216,264,91780,2,0,P|264:308|360:308,1,140,2|8,0:0|0:0,0:0:0:0:
388,292,92839,1,0,0:0:0:0:
404,236,93192,2,0,P|424:152|468:116,2,140,4|8|2,0:0|0:0|0:0,0:0:0:0:
416,348,95310,1,8,0:0:0:0:
352,256,96015,6,0,P|288:196|224:188,1,140,4|8,0:0|0:0,0:0:0:0:
184,196,97074,2,0,P|128:220|96:216,1,70,0|2,0:0|0:0,0:0:0:0:
24,160,98133,1,8,0:0:0:0:
68,56,98839,2,0,P|140:40|216:84,1,140,4|8,0:0|0:0,0:0:0:0:
313,65,100251,2,0,P|377:39|444:56,1,140,2|8,0:0|0:0,0:0:0:0:
432,192,101663,38,0,P|376:232|312:320,1,167.999994873047,4|8,0:0|0:0,0:0:0:0:
195,310,103074,2,0,P|146:242|80:192,1,167.999994873047,2|8,0:0|0:0,0:0:0:0:
28,164,104133,1,0,0:0:0:0:
16,108,104486,2,0,P|64:56|176:60,1,167.999994873047,4|8,0:0|0:0,0:0:0:0:
264,100,105898,2,0,P|328:140|420:116,1,167.999994873047,2|8,0:0|0:0,0:0:0:0:
456,80,106957,1,0,0:0:0:0:
472,136,107310,6,0,P|468:212|420:292,1,167.999994873047,4|8,0:0|0:0,0:0:0:0:
324,356,108721,1,2,0:0:0:0:
236,276,109427,2,0,P|192:244|156:240,1,83.9999974365235,8|0,0:0|0:0,0:0:0:0:
108,228,110133,2,0,P|128:152|208:100,1,167.999994873047,4|8,0:0|0:0,0:0:0:0:
313,102,111545,2,0,P|381:148|404:228,2,167.999994873047,2|8|2,0:0|0:0|0:0,0:0:0:0:
