osu file format v12

[General]
AudioFilename: Eiffel 65 - Viaggia Insieme a Me.mp3
AudioLeadIn: 2000
PreviewTime: 90368
Countdown: 0
SampleSet: Soft
StackLeniency: 0.7
Mode: 0
LetterboxInBreaks: 0
WidescreenStoryboard: 0

[Editor]
DistanceSpacing: 0.9
BeatDivisor: 4
GridSize: 4
TimelineZoom: 1

[Metadata]
Title:Viaggia Insieme a Me
TitleUnicode:Viaggia Insieme a Me
Artist:Eiffel 65
ArtistUnicode:Eiffel 65
Creator:Lally
Version:Hard
Source:
Tags:italodance italian album chewin travel with
BeatmapID:367171
BeatmapSetID:148477

[Difficulty]
HPDrainRate:5
CircleSize:4
OverallDifficulty:5
ApproachRate:7
SliderMultiplier:2
SliderTickRate:1

[Events]
//Background and Video events
0,0,"uguu.jpg",0,0
//Break Periods
2,67980,78174
//Storyboard Layer 0 (Background)
//Storyboard Layer 1 (Fail)
//Storyboard Layer 2 (Pass)
//Storyboard Layer 3 (Foreground)
//Storyboard Sound Samples
//Background Colour Transformations
3,100,163,162,255

[TimingPoints]
16,705.882352941176,4,2,90,40,1,0
11310,-133.333333333333,4,2,90,30,0,0
11398,-133.333333333333,4,2,90,70,0,0
22604,-100,4,2,90,30,0,0
22692,-100,4,2,90,70,0,0
33898,-100,4,2,90,30,0,0
34074,-100,4,2,90,70,0,0
45192,-100,4,2,69,80,0,0
48015,-100,4,2,90,80,0,0
48192,-100,4,2,69,80,0,0
53663,-100,4,2,90,80,0,0
53839,-100,4,2,69,80,0,0
67780,-100,4,2,90,80,0,0
79074,-100,4,2,90,50,0,0
79251,-100,4,2,69,60,0,0
89663,-100,4,2,90,60,0,0
90368,-100,4,2,69,100,0,1
100957,-100,4,2,69,100,0,0
101663,-83.3333333333333,4,2,69,100,0,1
111545,-83.3333333333333,4,2,69,100,0,1
112957,-100,4,2,69,100,0,0

[Colours]
Combo1 : 249,81,85
Combo2 : 157,255,255
Combo3 : 89,172,255
Combo4 : 253,166,166

[HitObjects]
196,216,16,5,2,0:0:0:0:
324,296,368,2,0,P|344:264|344:244,1,50,0|0,0:0|0:0,0:0:0:0:
340,176,721,2,0,P|296:197|272:240,1,100,2|0,0:0|0:0,0:0:0:0:
248,312,1251,1,0,0:0:0:0:
188,360,1427,2,0,P|144:368|92:344,2,100,2|0|2,0:0|0:0|0:0,0:0:0:0:
188,360,2839,5,2,0:0:0:0:
184,212,3192,2,0,L|184:152,1,50,0|0,0:0|0:0,0:0:0:0:
112,188,3545,2,0,P|112:232|152:280,1,100,2|0,0:0|0:0,0:0:0:0:
220,280,4074,1,0,0:0:0:0:
256,216,4251,2,0,P|284:168|336:148,2,100,2|0|2,0:0|0:0|0:0,0:0:0:0:
256,216,5663,38,0,L|300:248,2,50,2|0|0,0:0|0:0|0:0,0:0:0:0:
196,172,6192,2,0,L|152:140,1,50,2|2,0:0|0:0,0:0:0:0:
400,320,7074,1,2,0:0:0:0:
472,188,7427,1,2,0:0:0:0:
320,192,7780,1,2,0:0:0:0:
320,192,8486,6,0,P|320:148|332:136,1,50,2|0,0:0|0:0,0:0:0:0:
384,100,8839,2,0,P|392:76|386:53,2,50,0|2|0,0:0|0:0|0:0,0:0:0:0:
236,76,9545,2,0,L|180:64,1,50,2|2,0:0|0:0,0:0:0:0:
156,136,9898,2,0,L|188:184,1,50,2|0,0:0|0:0,0:0:0:0:
256,156,10251,2,0,L|316:116,1,50,2|2,0:0|0:0,0:0:0:0:
198,286,11310,22,0,B|133:245|66:294|1:231|31:154|94:158|94:158|96:82|183:90|202:147|178:202,1,450.000017166138,4|0,0:0|0:0,0:0:0:0:
314,286,14133,2,0,B|378:245|446:294|510:231|480:154|418:158|418:158|415:82|328:90|309:147|334:202,1,450.000017166138,2|0,0:0|0:0,0:0:0:0:
256,127,16957,38,0,B|168:59|92:155|100:235|200:279|256:336|256:336|333:270,1,450.000017166138,2|0,0:0|0:0,0:0:0:0:
256,127,19780,2,0,B|344:59|420:155|412:235|312:279|256:336|256:336|179:270,1,450.000017166138,2|0,0:0|0:0,0:0:0:0:
80,164,22604,22,0,P|119:193|168:194,1,100,6|0,0:0|0:0,0:0:0:0:
252,164,23310,2,0,P|312:128|368:136,1,100,0|0,0:0|0:0,0:0:0:0:
384,128,23839,1,0,0:0:0:0:
432,128,24015,2,0,P|448:52|424:8,2,100,0|0|0,0:0|0:0|0:0,0:0:0:0:
384,204,25074,2,0,P|360:232|356:256,1,50,0|0,0:0|0:0,0:0:0:0:
372,288,25427,6,0,P|316:272|260:280,1,100,2|0,0:0|0:0,0:0:0:0:
200,324,26133,2,0,P|150:326|102:311,1,100,0|0,0:0|0:0,0:0:0:0:
64,288,26663,1,0,0:0:0:0:
36,252,26839,2,0,P|32:192|52:132,1,100,0|0,0:0|0:0,0:0:0:0:
92,80,27545,1,0,0:0:0:0:
176,112,27898,2,0,P|212:128|244:128,1,50,0|0,0:0|0:0,0:0:0:0:
252,96,28251,38,0,P|224:144|280:276,1,200,2|0,0:0|0:0,0:0:0:0:
356,296,29310,2,0,P|392:288|432:304,1,50,0|0,0:0|0:0,0:0:0:0:
448,296,29663,2,0,P|404:244|408:184,1,100,0|0,0:0|0:0,0:0:0:0:
420,128,30368,1,0,0:0:0:0:
268,28,31074,5,2,0:0:0:0:
248,208,31780,1,0,0:0:0:0:
420,128,32486,2,0,P|440:96|460:84,2,50,0|0|0,0:0|0:0|0:0,0:0:0:0:
412,172,33015,2,0,P|392:228|304:252,1,150,0|0,0:0|0:0,0:0:0:0:
244,196,33898,38,0,P|204:152|152:152,1,100,6|0,0:0|0:0,0:0:0:0:
80,116,34604,1,0,0:0:0:0:
16,180,34957,2,0,P|40:200|64:204,1,50,0|0,0:0|0:0,0:0:0:0:
104,204,35310,2,0,P|128:252|108:316,1,100,0|0,0:0|0:0,0:0:0:0:
44,344,36015,1,0,0:0:0:0:
121,296,36368,2,0,P|160:304|184:320,1,50,0|0,0:0|0:0,0:0:0:0:
200,340,36721,6,0,P|260:352|388:272,1,200,2|0,0:0|0:0,0:0:0:0:
420,208,37780,1,0,0:0:0:0:
364,140,38133,2,0,P|352:88|376:36,2,100,0|0|0,0:0|0:0|0:0,0:0:0:0:
420,208,39192,2,0,P|456:248|456:280,1,50,0|0,0:0|0:0,0:0:0:0:
476,284,39545,38,0,P|392:256|288:308,1,200,2|0,0:0|0:0,0:0:0:0:
220,348,40604,2,0,P|248:372|268:376,2,50,0|0|0,0:0|0:0|0:0,0:0:0:0:
172,272,41310,2,0,P|148:232|100:208,1,100,0|0,0:0|0:0,0:0:0:0:
180,48,42368,6,0,P|200:124|316:168,1,200,2|0,0:0|0:0,0:0:0:0:
348,160,43251,1,0,0:0:0:0:
388,140,43427,2,0,L|360:248,2,100,0|0|0,0:0|0:0|0:0,0:0:0:0:
400,96,44310,1,0,0:0:0:0:
100,312,45192,38,0,L|128:204,1,100,4|0,0:0|0:0,0:0:0:0:
212,196,45898,2,0,L|240:88,2,100,8|0|2,0:0|0:0|0:0,0:0:0:0:
196,284,46957,1,0,0:0:0:0:
264,340,47310,1,8,0:0:0:0:
324,276,47663,2,0,P|360:232|380:228,1,50,0|0,0:0|0:0,0:0:0:0:
396,236,48015,6,0,P|356:200|356:136,1,100,2|0,0:0|0:0,0:0:0:0:
384,72,48721,1,8,0:0:0:0:
296,88,49074,2,0,P|256:88|228:76,1,50,0|0,0:0|0:0,0:0:0:0:
216,52,49427,2,0,P|236:120|216:156,1,100,2|0,0:0|0:0,0:0:0:0:
152,192,50133,1,8,0:0:0:0:
156,104,50486,38,0,P|185:115|202:131,1,50,0|0,0:0|0:0,0:0:0:0:
224,156,50839,2,0,P|232:208|208:252,1,100,4|0,0:0|0:0,0:0:0:0:
124,272,51545,2,0,P|160:324|208:340,1,100,8|0,0:0|0:0,0:0:0:0:
152,192,52251,2,0,P|100:192|52:232,2,100,2|0|8,0:0|0:0|0:0,0:0:0:0:
284,314,53663,5,2,0:0:0:0:
319,148,54368,1,8,0:0:0:0:
407,183,54721,2,0,P|428:170|445:151,2,50,0|0|2,0:0|0:0|0:0,0:0:0:0:
361,163,55251,1,0,0:0:0:0:
319,148,55427,2,0,P|264:164|236:208,1,100,0|8,0:0|0:0,0:0:0:0:
404,264,56486,38,0,P|348:260|300:192,1,100,4|0,0:0|0:0,0:0:0:0:
288,196,57015,1,0,0:0:0:0:
260,164,57192,2,0,P|200:128|144:136,1,100,8|0,0:0|0:0,0:0:0:0:
80,128,57898,2,0,P|64:52|88:8,2,100,2|0|8,0:0|0:0|0:0,0:0:0:0:
128,204,58957,2,0,P|152:232|156:256,1,50,0|0,0:0|0:0,0:0:0:0:
140,288,59310,6,0,P|196:272|252:280,1,100,4|0,0:0|0:0,0:0:0:0:
312,324,60015,2,0,P|361:326|409:311,1,100,8|0,0:0|0:0,0:0:0:0:
448,288,60545,1,0,0:0:0:0:
476,252,60721,2,0,P|480:192|460:132,1,100,2|0,0:0|0:0,0:0:0:0:
420,80,61427,1,8,0:0:0:0:
336,112,61780,2,0,P|300:128|268:128,1,50,0|0,0:0|0:0,0:0:0:0:
260,96,62133,38,0,P|288:144|232:276,1,200,4|8,0:0|0:0,0:0:0:0:
156,296,63192,2,0,P|120:288|80:304,1,50,0|0,0:0|0:0,0:0:0:0:
64,296,63545,2,0,P|108:244|104:184,1,100,2|0,0:0|0:0,0:0:0:0:
92,128,64251,1,8,0:0:0:0:
244,28,64957,5,2,0:0:0:0:
264,208,65663,1,8,0:0:0:0:
92,128,66368,2,0,P|72:96|52:84,2,50,2|0|0,0:0|0:0|0:0,0:0:0:0:
128,212,67074,2,0,P|148:268|208:288,1,100,8|0,0:0|0:0,0:0:0:0:
256,340,67780,37,6,0:0:0:0:
138,255,79074,6,0,P|169:214|222:197,1,100,6|0,0:0|0:0,0:0:0:0:
300,180,79780,2,0,P|320:124|292:68,2,100,8|0|2,0:0|0:0|0:0,0:0:0:0:
264,208,80663,1,0,0:0:0:0:
232,240,80839,2,0,P|212:296|240:352,1,100,0|8,0:0|0:0,0:0:0:0:
404,332,81898,38,0,P|424:276|396:220,1,100,2|0,0:0|0:0,0:0:0:0:
356,168,82604,2,0,L|288:84,1,100,8|0,0:0|0:0,0:0:0:0:
204,100,83310,2,0,L|272:184,1,100,2|0,0:0|0:0,0:0:0:0:
316,252,84015,1,8,0:0:0:0:
376,320,84368,2,0,P|424:300|432:300,1,50,0|0,0:0|0:0,0:0:0:0:
460,320,84721,6,0,P|436:256|476:128,1,200,4|8,0:0|0:0,0:0:0:0:
488,44,85780,2,0,P|440:60|424:60,1,50,0|0,0:0|0:0,0:0:0:0:
400,44,86133,2,0,P|400:112|296:196,1,200,4|8,0:0|0:0,0:0:0:0:
216,196,87192,1,0,0:0:0:0:
256,192,87545,12,2,89663,0:0:0:0:
304,272,90368,6,0,P|256:260|214:191,1,100,4|0,0:0|0:0,0:0:0:0:
200,60,91074,2,0,P|244:80|274:126,1,100,8|0,0:0|0:0,0:0:0:0:
204,328,91780,2,0,P|161:306|129:261,1,100,2|0,0:0|0:0,0:0:0:0:
88,77,92486,2,0,P|132:96|162:143,1,100,8|0,0:0|0:0,0:0:0:0:
180,180,93015,1,0,0:0:0:0:
196,224,93192,6,0,P|210:265|268:312,1,100,4|0,0:0|0:0,0:0:0:0:
332,340,93898,1,8,0:0:0:0:
320,252,94251,1,0,0:0:0:0:
256,192,94604,2,0,P|304:164|360:176,2,100,2|0|8,0:0|0:0|0:0,0:0:0:0:
200,264,95663,2,0,P|148:284|120:284,1,50,0|0,0:0|0:0,0:0:0:0:
116,304,96015,38,0,P|116:244|8:128,1,200,4|8,0:0|0:0,0:0:0:0:
24,48,97074,2,0,P|64:60|84:56,1,50,0|0,0:0|0:0,0:0:0:0:
104,28,97427,2,0,P|80:92|112:224,1,200,2|8,0:0|0:0,0:0:0:0:
396,328,98839,6,0,P|420:264|388:132,1,200,4|8,0:0|0:0,0:0:0:0:
332,72,99898,2,0,P|368:28|384:24,2,50,0|0|2,0:0|0:0|0:0,0:0:0:0:
324,116,100427,1,0,0:0:0:0:
312,160,100604,2,0,P|288:220|244:244,1,100,0|8,0:0|0:0,0:0:0:0:
68,336,101663,38,0,P|96:256|80:192,1,119.999996337891,4|0,0:0|0:0,0:0:0:0:
72,180,102192,1,0,0:0:0:0:
48,140,102368,2,0,P|116:140|176:100,1,119.999996337891,8|0,0:0|0:0,0:0:0:0:
220,40,103074,5,2,0:0:0:0:
352,136,103427,1,0,0:0:0:0:
196,184,103780,1,8,0:0:0:0:
220,40,104133,38,0,P|264:40|276:48,1,59.9999981689454,0|0,0:0|0:0,0:0:0:0:
308,83,104486,2,0,P|356:147|356:207,1,119.999996337891,4|0,0:0|0:0,0:0:0:0:
322,273,105192,1,8,0:0:0:0:
250,336,105545,2,0,P|210:324|174:340,1,59.9999981689454,0|0,0:0|0:0,0:0:0:0:
145,333,105898,2,0,P|85:300|64:237,1,119.999996337891,2|0,0:0|0:0,0:0:0:0:
72,160,106604,2,0,L|144:56,1,119.999996337891,8|0,0:0|0:0,0:0:0:0:
368,52,107310,6,0,L|296:156,1,119.999996337891,4|0,0:0|0:0,0:0:0:0:
272,192,107839,1,0,0:0:0:0:
240,228,108015,2,0,P|196:284|192:352,1,119.999996337891,8|0,0:0|0:0,0:0:0:0:
280,368,108721,2,0,P|324:312|328:244,1,119.999996337891,2|0,0:0|0:0,0:0:0:0:
316,168,109427,1,8,0:0:0:0:
276,80,109780,2,0,P|216:64|184:68,1,59.9999981689454,0|0,0:0|0:0,0:0:0:0:
172,52,110133,38,0,P|200:112|156:208,1,119.999996337891,4|0,0:0|0:0,0:0:0:0:
160,200,110663,1,0,0:0:0:0:
128,232,110839,2,0,L|260:248,1,119.999996337891,8|0,0:0|0:0,0:0:0:0:
256,192,111545,12,2,112957,0:0:0:0:
