osu file format v11

[General]
AudioFilename: Eiffel 65 - Move Your Body (Nightcore Mix).mp3
AudioLeadIn: 0
PreviewTime: 89833
Countdown: 0
SampleSet: Normal
StackLeniency: 0.7
Mode: 0
LetterboxInBreaks: 0

[Editor]
DistanceSpacing: 1
BeatDivisor: 4
GridSize: 4

[Metadata]
Title:Move Your Body (Nightcore Mix)
TitleUnicode:Move Your Body (Nightcore Mix)
Artist:Eiffel 65
ArtistUnicode:Eiffel 65
Creator:Lally
Version:Insane
Source:
Tags:remix europop [Te][Amo]
BeatmapID:184578
BeatmapSetID:59602

[Difficulty]
HPDrainRate:6
CircleSize:4
OverallDifficulty:7
ApproachRate:9
SliderMultiplier:1.80000000596046
SliderTickRate:1

[Events]
//Background and Video events
0,0,"nya.png"
//Break Periods
2,52179,60980
2,127507,138523
//Storyboard Layer 0 (Background)
//Storyboard Layer 1 (Fail)
//Storyboard Layer 2 (Pass)
//Storyboard Layer 3 (Foreground)
//Storyboard Sound Samples
//Background Colour Transformations
3,100,0,0,0

[TimingPoints]
1761,369.253492522617,4,1,0,100,1,0
13577,-100,4,1,1,30,0,0
14315,-100,4,1,1,20,0,0
15054,-100,4,1,1,10,0,0
15792,-100,4,1,1,5,0,0
16531,-100,4,1,1,80,0,0
16623,-100,4,1,1,80,0,0
27608,-100,4,1,1,25,0,0
28347,-100,4,1,1,80,0,1
51979,-100,4,1,1,80,0,0
63057,-100,4,1,1,30,0,0
63795,-100,4,1,1,70,0,0
66195,-100,4,1,1,50,0,0
66564,-100,4,1,1,80,0,0
88720,-100,4,1,1,40,0,0
89089,-100,4,1,1,80,0,0
90381,-100,4,1,1,80,0,1
112906,-100,4,1,1,100,0,0
126014,-100,4,1,1,95,0,0
126199,-100,4,1,1,90,0,0
126384,-100,4,1,1,80,0,0
126568,-100,4,1,1,80,0,0
126753,-100,4,1,1,75,0,0
126937,-100,4,1,1,70,0,0
127122,-100,4,1,1,60,0,0
127307,-100,4,1,1,30,0,0
139123,-100,4,1,1,70,0,0
150939,-100,4,1,1,80,0,0
161093,-100,4,1,1,10,0,0
161463,-100,4,1,1,80,0,0
162755,-100,4,1,1,80,0,1
186387,-100,4,1,1,80,0,0

[Colours]
Combo1 : 255,255,255
Combo2 : 255,0,255
Combo3 : 0,128,255
Combo4 : 255,255,0

[HitObjects]
256,192,13577,12,2,15792,0:0:0
172,48,16531,6,0,P|136:132|166:220,1,180.000000596046,4|8,0:0|0:0,0:0:0
96,272,17085,1,0,0:0:0
136,296,17177,1,0,0:0:0
180,312,17269,2,0,B|228:296|236:240,1,90.000000298023
215,148,17638,2,0,B|167:164|159:220,1,90.000000298023,8|0,0:0|0:0,0:0:0
340,268,18008,2,0,B|416:248|428:152|384:92,1,180.000000596046,0|8,0:0|0:0,0:0:0
256,48,18562,5,0,0:0:0
168,64,18746,2,0,B|176:116|120:140,1,90.000000298023
192,200,19115,1,8,0:0:0
128,136,19300,2,0,B|91:96|31:98,2,90.000000298023,0|4|0,0:0|0:0|0:0,0:0:0
192,200,19854,1,8,0:0:0
272,240,20039,5,0,0:0:0
272,240,20131,1,0,0:0:0
272,240,20223,1,0,0:0:0
192,200,20408,2,0,B|216:148|276:154,1,90.000000298023,0|8,0:0|0:0,0:0:0
348,284,20777,2,0,B|331:328|264:330,1,90.000000298023
188,340,21146,1,0,0:0:0
124,280,21331,1,8,0:0:0
108,192,21516,1,0,0:0:0
172,128,21700,6,0,B|179:179|250:247|334:227,1,180.000000596046,0|8,0:0|0:0,0:0:0
392,204,22254,1,0,0:0:0
384,116,22439,2,0,B|377:65|302:0|220:18,1,180.000000596046,4|8,0:0|0:0,0:0:0
160,28,22993,1,0,0:0:0
223,91,23177,2,0,P|259:175|231:259,1,180.000000596046,0|8,0:0|0:0,0:0:0
160,308,23731,1,0,0:0:0
88,256,23916,2,0,P|62:175|98:91,1,180.000000596046,0|8,0:0|0:0,0:0:0
98,91,24470,1,0,0:0:0
148,16,24654,6,0,B|220:96|140:184,1,180.000000596046,0|8,0:0|0:0,0:0:0
208,240,25208,1,0,0:0:0
272,176,25393,2,0,B|372:224|348:256|312:232|392:160,1,180.000000596046,4|8,0:0|0:0,0:0:0
304,80,25947,5,0,0:0:0
304,80,26039,1,0,0:0:0
304,80,26131,1,0,0:0:0
224,32,26316,1,0,0:0:0
144,72,26500,2,0,P|108:100|116:144,1,90.000000298023,0|8,0:0|0:0,0:0:0
172,208,26870,2,0,P|208:180|200:136,1,90.000000298023
112,140,27239,2,0,P|76:168|84:212,1,90.000000298023,8|0,0:0|0:0,0:0:0
82,208,27608,6,0,B|26:112|98:40,1,180.000000596046
426,54,28347,6,0,B|482:150|410:222,1,180.000000596046,6|8,0:0|0:0,0:0:0
412,219,28901,1,0,0:0:0
192,208,29085,2,0,B|168:160|196:108,1,90.000000298023
300,120,29455,2,0,B|320:168|296:220,1,90.000000298023,8|0,0:0|0:0,0:0:0
84,208,29824,2,0,B|14:138|70:42,1,180.000000596046,6|8,0:0|0:0,0:0:0
70,43,30378,1,0,0:0:0
160,40,30562,6,0,B|252:8|336:40,1,180.000000596046,0|8,0:0|0:0,0:0:0
342,192,31116,1,0,0:0:0
321,279,31301,1,6,0:0:0
232,287,31485,1,0,0:0:0
196,204,31670,1,8,0:0:0
264,145,31855,1,0,0:0:0
344,104,32039,6,0,B|435:104,1,90.000000298023
432,192,32409,2,0,B|341:192,1,90.000000298023,8|0,0:0|0:0,0:0:0
252,208,32778,2,0,P|196:140|248:80,1,180.000000596046,2|8,0:0|0:0,0:0:0
328,64,33332,1,0,0:0:0
416,80,33516,6,0,P|440:120|424:164,1,90.000000298023
83,159,33886,2,0,P|72:120|96:80,1,90.000000298023,8|0,0:0|0:0,0:0:0
256,72,34255,1,6,0:0:0
256,72,34439,1,0,0:0:0
256,192,34624,1,8,0:0:0
256,192,34809,1,0,0:0:0
424,72,34993,5,0,0:0:0
424,72,35178,1,0,0:0:0
416,192,35363,1,8,0:0:0
416,192,35547,1,0,0:0:0
328,216,35732,2,0,P|396:284|476:260,2,180.000000596046,2|8|0,0:0|0:0|0:0,0:0:0
368,136,36655,5,0,0:0:0
276,136,36840,1,8,0:0:0
224,208,37024,1,0,0:0:0
96,136,37209,2,0,B|312:136,1,180.000000596046,6|8,0:0|0:0,0:0:0
276,136,37763,5,0,0:0:0
276,136,37855,1,0,0:0:0
276,136,37947,1,0,0:0:0
368,136,38132,2,0,B|480:136,1,90.000000298023,0|8,0:0|0:0,0:0:0
464,224,38501,2,0,B|464:320,1,90.000000298023,0|2,0:0|0:0,0:0:0
360,280,38870,1,0,0:0:0
360,280,38963,1,0,0:0:0
360,280,39055,2,0,B|360:96,1,180.000000596046,8|0,0:0|0:0,0:0:0
256,60,39609,6,0,P|256:8,2,45.0000001490115,0|0|8,0:0|0:0|0:0,0:0:0
152,100,39978,1,0,0:0:0
152,100,40071,1,0,0:0:0
152,100,40163,2,0,B|152:304,1,180.000000596046,6|8,0:0|0:0,0:0:0
260,240,40717,1,0,0:0:0
338,171,40901,6,0,B|376:209|438:215,1,90.000000298023
254,300,41271,2,0,B|226:260|174:264,1,90.000000298023,8|0,0:0|0:0,0:0:0
228,99,41640,2,0,B|171:150|170:224|180:291,1,180.000000596046,2|8,0:0|0:0,0:0:0
176,264,42194,1,0,0:0:0
284,99,42378,6,0,B|341:150|342:224|332:291,1,180.000000596046,0|8,0:0|0:0,0:0:0
335,264,42932,1,0,0:0:0
416,224,43117,2,0,B|400:160|464:112,2,90.000000298023,6|0|8,0:0|0:0|0:0,0:0:0
380,308,43671,6,0,B|380:357,2,45.0000001490115
314,245,44040,1,0,0:0:0
314,245,44132,1,0,0:0:0
314,245,44225,1,8,0:0:0
221,190,44409,1,0,0:0:0
152,96,44594,2,0,B|202:59|290:63|326:111,1,180.000000596046,2|8,0:0|0:0,0:0:0
360,288,45332,6,0,B|310:325|222:321|186:273,1,180.000000596046,0|8,0:0|0:0,0:0:0
152,96,45886,1,0,0:0:0
152,96,46071,6,0,B|224:160,1,90.000000298023,6|0,0:0|0:0,0:0:0
360,288,46440,2,0,B|288:224,1,90.000000298023,8|0,0:0|0:0,0:0:0
360,96,46809,6,0,B|288:160,1,90.000000298023
152,288,47179,2,0,B|224:224,1,90.000000298023,8|0,0:0|0:0,0:0:0
96,36,47548,6,0,B|168:100,1,90.000000298023,2|0,0:0|0:0,0:0:0
428,348,47917,2,0,B|356:284,1,90.000000298023,8|0,0:0|0:0,0:0:0
348,152,48286,6,0,B|393:133|446:161,2,90.000000298023,0|0|8,0:0|0:0|0:0,0:0:0
256,192,48840,1,0,0:0:0
164,152,49025,2,0,B|116:136|60:160,2,90.000000298023,6|0|8,0:0|0:0|0:0,0:0:0
388,300,49579,6,0,B|443:300,2,45.0000001490115
124,300,49948,2,0,B|69:300,2,45.0000001490115,0|0|8,0:0|0:0|0:0,0:0:0
256,192,50317,1,0,0:0:0
188,140,50502,2,0,P|256:88|328:144,1,180.000000596046,2|8,0:0|0:0,0:0:0
256,192,51056,12,4,51979,0:0:0
256,336,61580,6,0,B|256:216,1,90.000000298023
256,48,61949,2,0,B|256:168,1,90.000000298023,8|0,0:0|0:0,0:0:0
440,192,62318,2,0,B|344:192,1,90.000000298023
72,192,62687,2,0,B|168:192,1,90.000000298023,8|0,0:0|0:0,0:0:0
256,192,63057,5,0,0:0:0
256,192,63149,1,0,0:0:0
256,192,63241,1,0,0:0:0
256,192,63334,1,0,0:0:0
256,192,63426,1,8,0:0:0
256,192,63518,1,0,0:0:0
256,192,63610,1,0,0:0:0
256,192,63703,1,0,0:0:0
256,192,63795,1,4,0:0:0
256,102,63980,5,0,0:0:0
334,146,64164,1,8,0:0:0
334,236,64349,1,0,0:0:0
256,280,64534,1,0,0:0:0
178,236,64718,1,0,0:0:0
178,146,64903,1,8,0:0:0
208,60,65087,6,0,B|256:36|304:68,1,90.000000298023
320,148,65457,2,0,B|344:196|312:244,1,90.000000298023,0|8,0:0|0:0,0:0:0
228,244,65826,6,0,B|180:268|132:236,1,90.000000298023
116,156,66195,2,0,B|92:108|124:60,1,90.000000298023,0|8,0:0|0:0,0:0:0
208,60,66564,1,0,0:0:0
208,60,66657,1,0,0:0:0
208,60,66749,5,4,0:0:0
280,112,66934,1,0,0:0:0
348,52,67118,1,8,0:0:0
400,124,67303,1,0,0:0:0
400,124,67488,2,0,B|360:156|312:124,1,90.000000298023
348,52,67857,6,0,B|304:20|260:48,1,90.000000298023,8|0,0:0|0:0,0:0:0
232,128,68226,2,0,B|188:160|148:124,1,90.000000298023
72,172,68595,1,8,0:0:0
72,172,68780,1,0,0:0:0
144,224,68965,2,0,B|248:224,3,90.000000298023,0|0|8|0,0:0|0:0|0:0|0:0,0:0:0
324,224,69703,5,4,0:0:0
414,224,69888,1,0,0:0:0
414,313,70072,1,8,0:0:0
323,313,70257,1,0,0:0:0
323,313,70349,1,0,0:0:0
323,313,70442,1,0,0:0:0
233,313,70626,5,0,0:0:0
233,222,70811,1,8,0:0:0
324,224,70996,1,0,0:0:0
324,134,71180,2,0,B|414:169,1,90.000000298023
323,313,71549,2,0,B|413:278,1,90.000000298023,8|0,0:0|0:0,0:0:0
406,281,71919,5,0,0:0:0
406,191,72103,1,0,0:0:0
408,100,72288,2,4,P|350:48|244:88,1,180.000000596046,8|4,0:0|0:0,0:0:0
212,72,72749,1,0,0:0:0
172,48,72842,1,0,0:0:0
128,52,72934,1,0,0:0:0
96,80,73026,1,8,0:0:0
156,148,73211,5,0,0:0:0
156,238,73396,2,0,B|156:338,1,90.000000298023
246,328,73765,2,0,B|340:328,1,90.000000298023,8|0,0:0|0:0,0:0:0
426,328,74134,2,0,B|426:221,1,90.000000298023
335,238,74503,2,0,B|222:238,1,90.000000298023,8|0,0:0|0:0,0:0:0
245,328,74873,2,0,B|152:328,2,90.000000298023,0|0|8,0:0|0:0|0:0,0:0:0
245,327,75427,1,0,0:0:0
245,327,75611,5,4,0:0:0
352,128,75980,1,8,0:0:0
96,128,76165,1,0,0:0:0
245,327,76350,1,0,0:0:0
352,128,76904,5,0,0:0:0
228,240,77088,2,0,B|228:144,1,90.000000298023
140,152,77457,1,8,0:0:0
52,152,77642,2,0,B|52:248,1,90.000000298023
140,248,78011,5,0,0:0:0
140,248,78104,1,0,0:0:0
140,248,78196,1,8,0:0:0
140,248,78288,1,0,0:0:0
140,248,78381,1,0,0:0:0
140,248,78473,1,0,0:0:0
140,248,78565,1,4,0:0:0
228,240,78750,6,0,B|308:168,1,90.000000298023,0|8,0:0|0:0,0:0:0
365,123,79119,2,0,B|275:48,1,90.000000298023
205,65,79488,2,0,B|205:154,1,90.000000298023,0|8,0:0|0:0,0:0:0
126,109,79858,1,0,0:0:0
126,109,80042,1,0,0:0:0
126,109,80227,1,0,0:0:0
36,109,80411,5,8,0:0:0
36,109,80504,1,0,0:0:0
36,109,80596,1,0,0:0:0
36,199,80781,1,0,0:0:0
36,199,80873,1,0,0:0:0
36,199,80965,1,0,0:0:0
126,199,81150,2,0,B|173:199,2,45.0000001490115,8|0|0,0:0|0:0|0:0,0:0:0
82,277,81519,6,0,B|82:323,2,45.0000001490115,4|0|0,0:0|0:0|0:0,0:0:0
172,277,81889,2,0,B|271:278,1,90.000000298023,8|0,0:0|0:0,0:0:0
261,278,82258,1,0,0:0:0
261,278,82442,1,0,0:0:0
278,142,82812,5,0,0:0:0
246,110,82904,1,0,0:0:0
214,78,82996,1,0,0:0:0
123,78,83181,1,0,0:0:0
123,168,83366,1,8,0:0:0
123,257,83550,1,0,0:0:0
52,312,83735,2,0,P|128:352|208:296,1,180.000000596046,0|8,0:0|0:0,0:0:0
123,78,84473,5,4,0:0:0
123,78,84566,1,0,0:0:0
123,78,84658,1,0,0:0:0
123,78,84750,1,0,0:0:0
123,78,84843,1,8,0:0:0
285,71,85027,5,0,0:0:0
347,134,85212,2,0,B|260:179,1,90.000000298023
204,111,85581,2,0,B|286:194,1,90.000000298023,8|0,0:0|0:0,0:0:0
245,262,85950,2,0,B|269:168,1,90.000000298023
268,176,86320,5,8,0:0:0
204,112,86504,1,0,0:0:0
123,78,86689,1,0,0:0:0
40,112,86873,1,0,0:0:0
296,112,87427,5,4,0:0:0
296,200,87612,2,0,B|296:296,1,90.000000298023,0|8,0:0|0:0,0:0:0
208,296,87981,1,0,0:0:0
120,296,88166,6,0,B|16:296,1,90.000000298023
208,200,88535,2,0,B|304:200,1,90.000000298023,8|0,0:0|0:0,0:0:0
120,120,88904,2,0,B|28:120,2,90.000000298023,0|0|8,0:0|0:0|0:0,0:0:0
34,70,89643,6,0,B|34:284,1,180.000000596046,2|8,0:0|0:0,0:0:0
342,252,90381,6,0,B|256:289|135:236,1,180.000000596046,6|8,0:0|0:0,0:0:0
166,248,90935,1,0,0:0:0
209,172,91120,2,0,B|260:193|312:169,1,90.000000298023
260,97,91489,1,8,0:0:0
260,97,91674,1,0,0:0:0
260,97,91858,2,0,B|260:310,1,180.000000596046,2|8,0:0|0:0,0:0:0
53,21,92597,6,0,B|44:94|74:141|141:172,1,180.000000596046,0|8,0:0|0:0,0:0:0
459,363,93335,2,0,B|468:290|438:243|371:212,1,180.000000596046,6|8,0:0|0:0,0:0:0
328,120,93889,5,0,0:0:0
104,248,94074,1,0,0:0:0
208,32,94258,1,0,0:0:0
324,248,94443,1,8,0:0:0
96,120,94628,1,0,0:0:0
220,308,94812,2,0,P|280:376|372:372,1,180.000000596046,2|8,0:0|0:0,0:0:0
128,328,95551,6,0,B|37:135,1,180.000000596046,0|8,0:0|0:0,0:0:0
384,328,96289,2,0,B|475:135,1,180.000000596046,6|8,0:0|0:0,0:0:0
256,40,97028,6,0,B|256:248,1,180.000000596046,0|8,0:0|0:0,0:0:0
256,328,97766,1,2,0:0:0
257,221,97951,1,0,0:0:0
256,184,98043,1,0,0:0:0
256,144,98136,1,8,0:0:0
256,40,98320,1,0,0:0:0
256,40,98505,6,0,B|440:40,1,180.000000596046,0|8,0:0|0:0,0:0:0
256,40,99243,2,0,B|64:40,1,180.000000596046,6|8,0:0|0:0,0:0:0
256,144,99797,5,0,0:0:0
256,144,99982,1,0,0:0:0
312,208,100167,1,0,0:0:0
200,208,100351,1,8,0:0:0
256,272,100536,1,0,0:0:0
256,272,100720,1,2,0:0:0
256,144,101090,1,8,0:0:0
370,27,101459,6,0,B|401:117|369:207,1,180.000000596046,0|8,0:0|0:0,0:0:0
256,272,102013,1,0,0:0:0
142,357,102197,2,0,B|111:267|143:177,1,180.000000596046,6|8,0:0|0:0,0:0:0
141,180,102751,1,0,0:0:0
205,116,102936,5,0,0:0:0
205,116,103028,1,0,0:0:0
205,116,103121,1,0,0:0:0
236,204,103305,1,8,0:0:0
236,204,103398,1,0,0:0:0
236,204,103490,1,0,0:0:0
383,118,103674,2,0,B|311:116|258:151|234:211,1,180.000000596046,2|8,0:0|0:0,0:0:0
332,352,104413,6,0,B|404:354|464:312|481:259,1,180.000000596046,0|8,0:0|0:0,0:0:0
208,80,105151,2,0,P|128:48|40:112,1,180.000000596046,6|8,0:0|0:0,0:0:0
136,140,105705,5,0,0:0:0
136,140,105798,1,0,0:0:0
136,140,105890,1,0,0:0:0
180,215,106075,1,0,0:0:0
255,266,106259,1,8,0:0:0
330,215,106444,1,0,0:0:0
376,140,106628,1,2,0:0:0
136,140,106998,1,8,0:0:0
248,88,107367,5,0,0:0:0
264,88,107736,1,8,0:0:0
184,88,108106,1,6,0:0:0
328,88,108475,1,8,0:0:0
112,88,108844,5,0,0:0:0
400,88,109213,1,8,0:0:0
32,88,109583,1,6,0:0:0
480,88,109952,1,8,0:0:0
256,336,110321,5,0,0:0:0
432,216,110690,1,8,0:0:0
256,88,111060,1,6,0:0:0
88,216,111429,1,8,0:0:0
256,336,111613,6,0,B|316:336|352:280,1,90.000000298023
256,88,111983,2,0,B|204:88|164:140,1,90.000000298023,0|8,0:0|0:0,0:0:0
160,268,112352,1,0,0:0:0
368,156,112537,1,2,0:0:0
259,212,112906,5,8,0:0:0
259,212,113090,1,0,0:0:0
259,212,113275,1,0,0:0:0
259,212,113460,1,0,0:0:0
259,212,113644,2,0,B|259:105,1,90.000000298023,8|0,0:0|0:0,0:0:0
336,72,114014,6,0,B|369:106|375:154,2,90.000000298023,4|0|8,0:0|0:0|0:0,0:0:0
257,25,114567,1,0,0:0:0
179,69,114752,2,0,B|146:103|140:151,2,90.000000298023,0|0|8,0:0|0:0|0:0,0:0:0
257,25,115306,2,0,B|257:117,1,90.000000298023
344,140,115675,2,0,B|317:177|311:225,1,90.000000298023,0|8,0:0|0:0,0:0:0
256,288,116044,6,0,B|158:288,1,90.000000298023
108,215,116414,1,0,0:0:0
108,124,116598,1,8,0:0:0
171,60,116783,1,0,0:0:0
193,147,116968,6,0,B|194:200,2,45.0000001490115,4|0|0,0:0|0:0|0:0,0:0:0
280,128,117337,2,0,B|292:172|276:220,1,90.000000298023,8|0,0:0|0:0,0:0:0
360,256,117706,2,0,B|376:224|380:120|356:72,1,180.000000596046,0|8,0:0|0:0,0:0:0
360,80,118260,1,0,0:0:0
464,80,118445,2,0,B|448:112|444:216|468:264,1,180.000000596046,0|8,0:0|0:0,0:0:0
408,320,118998,5,0,0:0:0
408,319,119091,1,0,0:0:0
408,320,119183,1,0,0:0:0
318,320,119368,1,0,0:0:0
227,320,119552,2,0,B|119:320,2,90.000000298023,8|0|4,0:0|0:0|0:0,0:0:0
227,320,120106,1,0,0:0:0
272,240,120291,6,0,P|304:204|304:164,1,90.000000298023,8|0,0:0|0:0,0:0:0
216,144,120660,2,0,P|232:96|268:80,1,90.000000298023
328,16,121029,2,0,P|360:52|360:92,1,90.000000298023,8|0,0:0|0:0,0:0:0
444,132,121399,2,0,P|412:168|412:208,1,90.000000298023,0|0,0:0|0:0,0:0:0
348,272,121768,2,0,P|312:240|272:240,1,90.000000298023,8|0,0:0|0:0,0:0:0
181,239,122137,6,0,B|133:239,2,45.0000001490115
181,148,122506,2,0,B|229:148,2,45.0000001490115,8|0|0,0:0|0:0|0:0,0:0:0
180,240,122876,5,4,0:0:0
180,329,123060,1,0,0:0:0
270,329,123245,1,8,0:0:0
270,238,123430,1,0,0:0:0
270,148,123614,22,0,B|394:148,1,90.000000298023
270,239,123983,2,0,B|170:239,1,90.000000298023,8|0,0:0|0:0,0:0:0
364,40,124353,6,0,B|480:40,1,90.000000298023
180,328,124722,2,0,B|76:328,1,90.000000298023,8|0,0:0|0:0,0:0:0
270,148,125091,6,0,B|378:148,1,90.000000298023,4|0,0:0|0:0,0:0:0
184,236,125460,2,0,B|88:236,1,90.000000298023,8|0,0:0|0:0,0:0:0
256,192,125830,12,4,127307,0:0:0
256,224,139123,5,4,0:0:0
256,224,139215,1,0,0:0:0
256,224,139307,1,0,0:0:0
256,136,139492,1,8,0:0:0
256,136,139677,1,0,0:0:0
256,136,139861,2,0,B|302:143|346:119,1,90.000000298023
256,136,140231,2,0,B|297:158|343:151,1,90.000000298023,8|0,0:0|0:0,0:0:0
256,136,140600,2,0,B|296:192|360:208,1,90.000000298023
256,136,140969,5,8,0:0:0
192,72,141154,1,0,0:0:0
116,116,141338,1,0,0:0:0
128,204,141523,1,0,0:0:0
216,216,141708,1,8,0:0:0
432,136,142077,6,0,B|433:328,1,180.000000596046,4|8,0:0|0:0,0:0:0
432,316,142631,1,0,0:0:0
432,316,142815,1,0,0:0:0
340,316,143000,1,0,0:0:0
340,316,143185,1,8,0:0:0
264,268,143369,6,0,B|216:268,2,45.0000001490115
336,224,143738,2,0,B|336:120,1,90.000000298023,0|8,0:0|0:0,0:0:0
424,136,144108,2,0,B|424:232,1,90.000000298023
432,316,144477,1,0,0:0:0
340,316,144662,1,8,0:0:0
252,316,144846,1,0,0:0:0
248,228,145031,5,0,0:0:0
248,228,145123,1,0,0:0:0
248,228,145215,1,0,0:0:0
248,228,145308,1,0,0:0:0
248,228,145400,1,0,0:0:0
332,256,145585,2,0,B|332:152,1,90.000000298023
151,166,146139,1,8,0:0:0
333,166,146508,1,0,0:0:0
243,166,146692,6,0,B|242:296,1,90.000000298023,0|8,0:0|0:0,0:0:0
332,255,147062,1,0,0:0:0
332,165,147246,2,0,B|384:179|439:161,2,90.000000298023,0|0|8,0:0|0:0|0:0,0:0:0
243,165,147800,1,0,0:0:0
243,255,147985,6,0,B|243:351,1,90.000000298023,4|0,0:0|0:0,0:0:0
152,345,148354,1,8,0:0:0
152,254,148539,1,0,0:0:0
62,254,148723,2,0,B|62:350,1,90.000000298023,0|0,0:0|0:0,0:0:0
256,112,149277,6,0,B|256:208,1,90.000000298023
256,292,149647,1,0,0:0:0
165,202,149831,1,8,0:0:0
346,202,150016,1,0,0:0:0
256,292,150200,1,0,0:0:0
256,112,150570,1,8,0:0:0
256,112,150662,1,0,0:0:0
256,112,150754,1,0,0:0:0
345,66,150939,5,4,0:0:0
387,79,151031,1,0,0:0:0
409,117,151124,1,0,0:0:0
328,157,151308,2,0,B|266:223,1,90.000000298023,8|0,0:0|0:0,0:0:0
144,116,151677,2,0,B|226:197,1,90.000000298023
92,300,152047,2,0,B|156:234,1,90.000000298023,8|0,0:0|0:0,0:0:0
266,222,152416,1,0,0:0:0
383,189,152601,6,0,B|448:252,1,90.000000298023,0|8,0:0|0:0,0:0:0
456,112,152970,2,0,B|379:40,1,90.000000298023
312,96,153339,2,0,B|248:160,1,90.000000298023,0|8,0:0|0:0,0:0:0
248,160,153616,1,0,0:0:0
248,160,153708,1,0,0:0:0
244,76,153893,6,0,B|172:86|137:161|184:224,1,180.000000596046,4|8,0:0|0:0,0:0:0
248,160,154447,1,0,0:0:0
272,244,154631,2,0,B|330:231|358:153|312:96,1,180.000000596046,0|8,0:0|0:0,0:0:0
313,7,155185,1,0,0:0:0
393,52,155370,5,0,0:0:0
73,52,155739,1,8,0:0:0
393,52,156108,1,0,0:0:0
73,52,156478,1,8,0:0:0
96,76,156847,5,4,0:0:0
96,76,156939,1,0,0:0:0
96,76,157032,1,0,0:0:0
96,76,157124,1,0,0:0:0
96,76,157216,1,8,0:0:0
168,56,157401,6,0,B|164:147,1,90.000000298023
236,96,157770,2,0,B|180:178,1,90.000000298023,0|8,0:0|0:0,0:0:0
276,164,158139,2,0,B|176:212,1,90.000000298023
276,244,158509,6,0,B|180:232,1,90.000000298023,0|8,0:0|0:0,0:0:0
188,232,158878,1,0,0:0:0
120,176,159062,2,0,B|84:210|93:259,2,90.000000298023,0|0|8,0:0|0:0|0:0,0:0:0
273,40,159801,6,0,B|387:85,1,90.000000298023
281,123,160170,1,8,0:0:0
365,155,160355,1,0,0:0:0
365,244,160540,2,0,B|251:199,1,90.000000298023
281,301,160909,1,8,0:0:0
198,264,161093,1,0,0:0:0
256,192,161278,12,0,162386,0:0:0
359,94,162755,6,0,B|412:177|365:268,2,180.000000596046,6|8|0,0:0|0:0|0:0,0:0:0
268,94,163678,1,0,0:0:0
268,94,163770,1,0,0:0:0
268,94,163863,1,8,0:0:0
177,94,164047,1,0,0:0:0
86,94,164232,2,0,B|33:177|80:268,2,180.000000596046,2|8|0,0:0|0:0|0:0,0:0:0
132,170,165155,5,0,0:0:0
182,244,165340,1,8,0:0:0
232,168,165524,1,0,0:0:0
232,168,165709,2,0,B|280:220|360:212|384:124,1,180.000000596046,6|8,0:0|0:0,0:0:0
420,64,166263,5,0,0:0:0
420,64,166355,1,0,0:0:0
420,64,166448,1,0,0:0:0
336,28,166632,2,0,B|241:28,2,90.000000298023,0|8|0,0:0|0:0|0:0,0:0:0
420,64,167186,2,0,B|420:250,1,180.000000596046,2|8,0:0|0:0,0:0:0
420,336,167740,1,0,0:0:0
328,336,167925,6,0,B|224:336,1,90.000000298023
148,332,168294,1,8,0:0:0
148,244,168478,2,0,B|148:116,1,90.000000298023,0|6,0:0|0:0,0:0:0
328,152,169032,1,8,0:0:0
144,72,169402,6,0,P|64:60|40:144,1,180.000000596046,0|8,0:0|0:0,0:0:0
368,312,170140,2,0,P|448:324|472:240,1,180.000000596046,2|8,0:0|0:0,0:0:0
256,56,170879,6,0,B|440:56,1,180.000000596046,0|8,0:0|0:0,0:0:0
304,176,171617,2,0,B|96:176,1,180.000000596046,6|8,0:0|0:0,0:0:0
124,176,172171,5,0,0:0:0
124,176,172263,1,0,0:0:0
124,176,172356,1,0,0:0:0
120,88,172540,1,0,0:0:0
208,88,172725,1,8,0:0:0
296,88,172909,1,0,0:0:0
384,96,173094,2,0,B|434:185|384:280,1,180.000000596046,2|8,0:0|0:0,0:0:0
208,272,173833,6,0,B|160:176|224:80,1,180.000000596046,0|8,0:0|0:0,0:0:0
452,124,174571,1,6,0:0:0
76,124,174940,1,8,0:0:0
296,272,175310,6,0,B|296:336,2,45.0000001490115
296,181,175679,1,8,0:0:0
296,90,175864,1,0,0:0:0
385,90,176048,2,0,B|385:279,1,180.000000596046,2|8,0:0|0:0,0:0:0
296,272,176602,5,0,0:0:0
296,272,176787,1,0,0:0:0
206,272,176971,1,0,0:0:0
206,272,177156,1,8,0:0:0
206,181,177341,1,0,0:0:0
295,181,177525,2,0,P|279:93|199:61,1,180.000000596046,6|8,0:0|0:0,0:0:0
112,60,178079,5,0,0:0:0
112,150,178264,2,0,B|-3:150,2,90.000000298023,0|0|8,0:0|0:0|0:0,0:0:0
202,150,178818,1,0,0:0:0
291,150,179002,2,0,P|382:170|418:254,1,180.000000596046,2|8,0:0|0:0,0:0:0
328,236,179556,1,0,0:0:0
328,236,179741,5,0,0:0:0
264,296,179925,1,0,0:0:0
264,296,180110,1,8,0:0:0
176,320,180295,1,0,0:0:0
86,302,180479,2,0,B|38:204|97:112,2,180.000000596046,6|8|0,0:0|0:0|0:0,0:0:0
384,92,181587,5,8,0:0:0
256,288,181956,2,0,B|184:372|88:320,1,180.000000596046,2|8,0:0|0:0,0:0:0
68,232,182510,1,0,0:0:0
68,232,182602,1,0,0:0:0
68,232,182695,1,0,0:0:0
168,196,182879,5,0,0:0:0
168,196,183064,1,8,0:0:0
288,64,183433,2,0,B|400:96|356:232,1,180.000000596046,6|8,0:0|0:0,0:0:0
364,204,183987,5,0,0:0:0
364,204,184079,1,0,0:0:0
364,204,184172,1,0,0:0:0
300,267,184356,1,0,0:0:0
209,267,184541,1,8,0:0:0
145,203,184726,1,0,0:0:0
188,124,184910,2,0,P|256:76|326:129,1,180.000000596046,2|8,0:0|0:0,0:0:0
256,192,185464,12,4,186387,0:0:0
