osu file format v13

[General]
AudioFilename: Takahiro Eguchi - silver temple.mp3
AudioLeadIn: 2000
PreviewTime: 43451
Countdown: 0
SampleSet: Soft
StackLeniency: 0.7
Mode: 2
LetterboxInBreaks: 0
WidescreenStoryboard: 0

[Editor]
Bookmarks: 45451
DistanceSpacing: 1.1
BeatDivisor: 4
GridSize: 16
TimelineZoom: 1

[Metadata]
Title:silver temple
TitleUnicode:silver temple
Artist:Eguchi Takahiro
ArtistUnicode:江口孝宏
Creator:Sey
Version:Rain
Source:
Tags:samurai DANCEHALL electro planet ZiRoX eldnl mingmichael
BeatmapID:405444
BeatmapSetID:166828

[Difficulty]
HPDrainRate:7
CircleSize:4
OverallDifficulty:9
ApproachRate:9
SliderMultiplier:1.2
SliderTickRate:1

[Events]
//Background and Video events
0,0,"wallpaper2.jpg",0,0
//Break Periods
//Storyboard Layer 0 (Background)
//Storyboard Layer 1 (Fail)
//Storyboard Layer 2 (Pass)
//Storyboard Layer 3 (Foreground)
//Storyboard Sound Samples
//Background Colour Transformations
3,100,163,162,255

[TimingPoints]
785,333.333333333333,4,2,0,55,1,0
4784,-100,4,3,0,55,0,0
5701,-100,4,2,0,55,0,0
10118,-100,4,3,0,55,0,0
11034,-100,4,2,0,55,0,0
15451,-100,4,3,0,55,0,0
16451,-100,4,2,0,55,0,0
20784,-100,4,2,0,57,0,0
22118,-100,4,2,1,60,0,0
42118,-100,4,2,0,57,0,0
43451,-100,4,2,0,65,0,0
54118,-100,4,2,0,63,0,0
63451,-100,4,2,0,65,0,0
64784,-100,4,2,0,68,0,0
69451,-100,4,2,0,60,0,0
70118,-100,4,2,0,68,0,0
74784,-100,4,2,0,60,0,0
75451,-100,4,2,0,68,0,0
80118,-100,4,2,0,60,0,0
80784,-100,4,2,0,65,0,0
86118,-100,4,2,0,70,0,1
106118,-100,4,2,0,57,0,0
107451,-100,4,2,0,60,0,0
128784,-100,4,2,0,5,0,0

[Colours]
Combo1 : 168,168,168
Combo2 : 0,128,0
Combo3 : 12,104,180

[HitObjects]
64,192,785,6,0,L|160:112,1,120,2|0,0:0|0:0,0:0:0:0:
320,192,1284,2,0,L|416:112,1,120,2|0,0:0|0:0,0:0:0:0:
256,192,1784,1,0,0:0:0:0:
448,192,2118,6,0,L|352:112,1,120,2|0,0:0|0:0,0:0:0:0:
192,192,2618,2,0,L|96:112,1,120,2|0,0:0|0:0,0:0:0:0:
256,192,3117,1,0,0:0:0:0:
400,192,3451,6,0,L|400:128,1,60,2|0,0:0|0:0,0:0:0:0:
304,192,3784,2,0,L|224:192,2,60,0|2|0,0:0|0:0|0:0,0:0:0:0:
460,192,4284,2,0,L|400:192,1,60
272,192,4784,5,0,0:0:0:0:
192,192,4951,1,0,0:0:0:0:
112,192,5118,1,0,0:0:0:0:
192,192,5284,1,0,0:0:0:0:
272,192,5451,1,0,0:0:0:0:
416,192,5618,1,0,0:0:0:0:
80,96,6118,6,0,L|224:96,1,120,2|0,0:0|0:0,0:0:0:0:
304,96,6618,2,0,L|176:96,1,120,2|0,0:0|0:0,0:0:0:0:
368,96,7118,1,0,0:0:0:0:
432,96,7451,6,0,L|288:96,1,120,2|0,0:0|0:0,0:0:0:0:
208,96,7951,2,0,L|336:96,1,120,2|0,0:0|0:0,0:0:0:0:
144,96,8451,1,0,0:0:0:0:
416,192,8784,6,0,L|336:288,1,120,2|0,0:0|0:0,0:0:0:0:
448,288,9284,1,2,0:0:0:0:
240,192,9618,2,0,L|304:144,1,60
368,144,10118,6,0,L|336:208,1,60,0|0,0:0|0:0,0:0:0:0:
176,144,10451,2,0,L|208:80,1,60,0|0,0:0|0:0,0:0:0:0:
480,144,10784,2,0,L|454:198,1,60,0|0,0:0|0:0,0:0:0:0:
144,192,11451,6,0,L|80:192,2,60,2|0|0,0:0|0:0|0:0,0:0:0:0:
336,192,11951,2,0,L|272:192,1,60,2|0,0:0|0:0,0:0:0:0:
400,192,12284,1,0,0:0:0:0:
224,192,12451,1,0,0:0:0:0:
368,192,12784,6,0,L|432:192,2,60,2|0|0,0:0|0:0|0:0,0:0:0:0:
176,192,13284,2,0,L|240:192,1,60,2|0,0:0|0:0,0:0:0:0:
112,192,13617,1,0,0:0:0:0:
288,192,13784,1,0,0:0:0:0:
144,192,14118,6,0,L|80:192,2,60,2|0|0,0:0|0:0|0:0,0:0:0:0:
336,192,14618,2,0,L|272:192,1,60,2|0,0:0|0:0,0:0:0:0:
400,192,14951,1,0,0:0:0:0:
224,192,15118,1,0,0:0:0:0:
128,80,15451,6,0,L|144:144,1,60,0|0,0:0|0:0,0:0:0:0:
272,128,15784,2,0,L|256:64,1,60,0|0,0:0|0:0,0:0:0:0:
96,64,16118,2,0,L|112:128,1,60,0|0,0:0|0:0,0:0:0:0:
320,128,16451,1,0,0:0:0:0:
176,192,16784,5,2,0:0:0:0:
416,192,17118,1,0,0:0:0:0:
352,192,17284,2,0,L|288:192,1,60,2|0,0:0|0:0,0:0:0:0:
208,192,17618,2,0,L|288:192,1,60
416,192,17951,1,0,0:0:0:0:
96,192,18118,5,2,0:0:0:0:
160,192,18284,2,0,L|224:192,1,60
304,192,18618,2,0,L|224:192,1,60,2|0,0:0|0:0,0:0:0:0:
96,192,18951,1,0,0:0:0:0:
224,192,19118,1,0,0:0:0:0:
416,192,19451,6,0,L|416:128,1,60,2|0,0:0|0:0,0:0:0:0:
304,112,19784,2,0,L|304:192,1,60,0|2,0:0|0:0,0:0:0:0:
224,64,20118,2,0,L|304:64,1,60
432,192,20451,1,2,0:0:0:0:
112,128,20784,6,0,L|80:128,2,20,2|0|0,0:0|0:0|0:0,0:0:0:0:
144,128,20951,2,0,L|164:128,2,20,2|0|0,0:0|0:0|0:0,0:0:0:0:
176,128,21118,2,0,L|208:128,2,20,2|0|0,0:0|0:0|0:0,0:0:0:0:
208,128,21284,2,0,L|240:128,2,20,2|0|0,0:0|0:0|0:0,0:0:0:0:
240,128,21451,2,0,L|272:128,2,20,2|0|0,0:0|0:0|0:0,0:0:0:0:
288,128,21618,1,2,0:0:0:0:
240,128,21784,2,0,L|176:160,1,60,2|0,0:0|0:0,0:0:0:0:
448,144,22118,6,0,L|400:272,1,120,4|8,0:0|0:0,0:0:0:0:
250,176,22784,2,0,L|208:64,1,120,0|8,0:0|0:0,0:0:0:0:
64,144,23451,6,0,L|112:272,1,120,0|8,0:0|0:0,0:0:0:0:
262,176,24117,2,0,L|288:112,1,60,0|0,0:0|0:0,0:0:0:0:
164,80,24451,2,0,L|224:80,1,60,8|0,0:0|0:0,0:0:0:0:
96,144,24784,2,0,L|160:144,1,60
300,80,25118,2,0,L|240:80,1,60,8|0,0:0|0:0,0:0:0:0:
368,144,25451,2,0,L|304:144,1,60
448,192,25784,6,0,L|496:256,1,60,8|0,0:0|0:0,0:0:0:0:
372,240,26118,2,0,L|336:192,1,60
224,192,26451,2,0,L|272:256,1,60,8|0,0:0|0:0,0:0:0:0:
128,192,26784,2,0,L|64:192,2,60,0|0|8,0:0|0:0|0:0,0:0:0:0:
224,192,27284,1,0,0:0:0:0:
336,192,27451,6,0,P|352:128|416:80,1,120,0|8,0:0|0:0,0:0:0:0:
176,192,28118,2,0,P|160:128|96:80,1,120,0|8,0:0|0:0,0:0:0:0:
384,192,28784,1,0,0:0:0:0:
448,192,28951,1,0,0:0:0:0:
384,192,29118,1,8,0:0:0:0:
128,192,29451,5,0,0:0:0:0:
64,192,29618,1,0,0:0:0:0:
128,192,29785,1,8,0:0:0:0:
192,192,29951,2,0,L|256:144,1,60
288,148,30284,2,0,L|352:104,1,60,0|8,0:0|0:0,0:0:0:0:
448,128,30618,2,0,L|384:160,1,60
256,192,30951,1,0,0:0:0:0:
128,192,31118,6,0,L|80:128,2,60,8|0|0,0:0|0:0|0:0,0:0:0:0:
256,192,31618,1,0,0:0:0:0:
384,192,31784,2,0,L|432:128,2,60,8|0|0,0:0|0:0|0:0,0:0:0:0:
256,192,32284,1,0,0:0:0:0:
96,192,32451,1,8,0:0:0:0:
384,192,32618,1,0,0:0:0:0:
256,192,32784,6,0,L|160:112,1,120,0|8,0:0|0:0,0:0:0:0:
384,192,33451,2,0,L|480:288,1,120,0|8,0:0|0:0,0:0:0:0:
160,192,34118,2,0,L|40:192,1,120,0|8,0:0|0:0,0:0:0:0:
144,192,34784,1,0,0:0:0:0:
256,192,34951,6,0,L|208:144,1,60,0|8,0:0|0:0,0:0:0:0:
352,192,35284,2,0,L|304:144,1,60
448,192,35618,2,0,L|400:144,1,60,0|8,0:0|0:0,0:0:0:0:
352,192,35951,1,0,0:0:0:0:
480,192,36118,1,0,0:0:0:0:
352,192,36284,1,0,0:0:0:0:
256,192,36451,6,0,L|208:144,2,60,8|0|0,0:0|0:0|0:0,0:0:0:0:
160,192,36951,2,0,L|112:144,2,60,0|8|0,0:0|0:0|0:0,0:0:0:0:
320,192,37451,1,0,0:0:0:0:
464,192,37618,1,0,0:0:0:0:
240,192,37784,1,8,0:0:0:0:
352,192,37951,1,0,0:0:0:0:
64,198,38118,6,0,P|97:148|144:112,1,120,0|8,0:0|0:0,0:0:0:0:
448,198,38784,2,0,P|415:148|368:112,1,120,0|8,0:0|0:0,0:0:0:0:
64,198,39451,2,0,P|97:148|144:112,1,120,0|8,0:0|0:0,0:0:0:0:
368,192,40118,2,0,L|304:144,1,60
368,192,40451,5,8,0:0:0:0:
448,192,40618,1,0,0:0:0:0:
368,192,40784,1,0,0:0:0:0:
288,192,40951,1,0,0:0:0:0:
208,192,41118,1,8,0:0:0:0:
96,192,41284,1,0,0:0:0:0:
208,192,41451,5,0,0:0:0:0:
368,192,41618,1,0,0:0:0:0:
208,192,41784,1,8,0:0:0:0:
320,192,41951,1,0,0:0:0:0:
256,192,42118,12,0,43118,0:0:0:0:
80,192,43451,6,0,L|160:192,2,60,4|0|8,0:0|0:0|0:0,0:0:0:0:
208,128,43951,2,0,L|256:176,1,60,0|2,0:0|0:0,0:0:0:0:
384,144,44284,2,0,L|432:192,1,60,0|8,0:0|0:0,0:0:0:0:
432,192,44784,6,0,L|352:192,2,60,0|0|8,0:0|0:0|0:0,0:0:0:0:
304,128,45284,2,0,L|256:176,1,60,0|2,0:0|0:0,0:0:0:0:
128,144,45617,2,0,L|80:192,1,60,0|8,0:0|0:0,0:0:0:0:
352,192,46118,5,2,0:0:0:0:
416,192,46284,1,0,0:0:0:0:
256,192,46451,1,8,0:0:0:0:
128,192,46784,1,2,0:0:0:0:
192,192,46950,1,0,0:0:0:0:
32,192,47117,1,8,0:0:0:0:
288,112,47451,6,0,L|336:64,1,60,2|0,0:0|0:0,0:0:0:0:
224,112,47784,2,0,L|176:176,1,60,8|0,0:0|0:0,0:0:0:0:
352,128,48118,2,0,L|384:192,1,60,2|0,0:0|0:0,0:0:0:0:
160,112,48451,2,0,L|128:48,1,60,8|0,0:0|0:0,0:0:0:0:
384,272,48784,6,0,L|304:240,2,60,2|0|8,0:0|0:0|0:0,0:0:0:0:
256,192,49284,1,0,0:0:0:0:
464,192,49451,2,0,L|400:192,2,60,2|0|8,0:0|0:0|0:0,0:0:0:0:
128,272,50118,6,0,L|208:240,2,60,2|0|8,0:0|0:0|0:0,0:0:0:0:
256,192,50618,1,0,0:0:0:0:
48,192,50785,2,0,L|112:192,2,60,2|0|8,0:0|0:0|0:0,0:0:0:0:
144,192,51284,1,0,0:0:0:0:
384,192,51451,6,0,P|352:256|400:288,1,120,2|8,0:0|0:0,0:0:0:0:
288,192,51951,2,0,P|320:224|304:256,1,60,0|2,0:0|0:0,0:0:0:0:
160,192,52284,2,0,P|165:163|191:149,1,60,0|8,0:0|0:0,0:0:0:0:
352,192,52618,2,0,P|346:163|320:149,1,60,0|2,0:0|0:0,0:0:0:0:
192,192,53118,6,0,L|144:240,1,60,8|0,0:0|0:0,0:0:0:0:
304,192,53451,2,0,L|256:240,1,60,2|0,0:0|0:0,0:0:0:0:
400,192,53784,2,0,L|352:240,1,60,8|0,0:0|0:0,0:0:0:0:
240,80,54118,6,0,L|320:80,1,60,2|0,0:0|0:0,0:0:0:0:
144,80,54451,2,0,L|144:16,1,60,8|0,0:0|0:0,0:0:0:0:
64,128,54784,2,0,L|32:64,1,60,2|0,0:0|0:0,0:0:0:0:
144,224,55118,2,0,L|80:224,1,60,8|0,0:0|0:0,0:0:0:0:
272,80,55451,6,0,L|192:80,1,60,2|0,0:0|0:0,0:0:0:0:
368,80,55784,2,0,L|368:16,1,60,8|0,0:0|0:0,0:0:0:0:
448,128,56117,2,0,L|480:64,1,60,2|0,0:0|0:0,0:0:0:0:
368,224,56451,2,0,L|432:224,1,60,8|0,0:0|0:0,0:0:0:0:
112,192,56784,6,0,P|160:128|224:112,1,120,2|8,0:0|0:0,0:0:0:0:
112,192,57284,1,0,0:0:0:0:
336,192,57451,2,0,P|304:256|240:288,1,120,2|8,0:0|0:0,0:0:0:0:
368,192,57951,1,0,0:0:0:0:
32,192,58118,6,0,P|80:128|144:112,1,120,2|8,0:0|0:0,0:0:0:0:
160,192,58618,1,0,0:0:0:0:
416,192,58784,2,0,P|384:256|320:288,1,120,2|8,0:0|0:0,0:0:0:0:
384,288,59284,1,0,0:0:0:0:
80,96,59451,6,0,L|208:96,1,120,2|8,0:0|0:0,0:0:0:0:
112,160,59951,1,0,0:0:0:0:
352,144,60118,2,0,L|288:144,2,60,2|0|8,0:0|0:0|0:0,0:0:0:0:
432,144,60618,1,0,0:0:0:0:
192,96,60784,6,0,L|312:96,1,120,2|8,0:0|0:0,0:0:0:0:
400,160,61284,1,0,0:0:0:0:
160,144,61451,2,0,L|220:144,2,60,2|0|8,0:0|0:0|0:0,0:0:0:0:
80,144,61951,1,0,0:0:0:0:
304,160,62118,6,0,P|336:288|160:272,1,360,2|8,0:0|0:0,0:0:0:0:
432,192,63451,5,2,0:0:0:0:
368,192,63534,1,0,0:0:0:0:
304,192,63618,1,0,0:0:0:0:
240,192,63701,1,2,0:0:0:0:
176,192,63784,1,0,0:0:0:0:
240,192,63868,1,0,0:0:0:0:
304,192,63951,1,0,0:0:0:0:
240,192,64034,1,0,0:0:0:0:
176,192,64118,5,2,0:0:0:0:
112,192,64201,1,0,0:0:0:0:
176,192,64284,1,0,0:0:0:0:
240,192,64368,1,0,0:0:0:0:
304,192,64451,1,2,0:0:0:0:
240,192,64534,1,0,0:0:0:0:
304,192,64618,1,0,0:0:0:0:
368,192,64701,1,0,0:0:0:0:
464,128,64784,6,0,L|432:64,1,60,6|0,0:0|0:0,0:0:0:0:
336,64,65118,2,0,L|320:128,1,60,8|0,0:0|0:0,0:0:0:0:
208,112,65451,2,0,L|176:48,1,60,0|0,0:0|0:0,0:0:0:0:
80,64,65785,2,0,L|64:128,1,60,8|0,0:0|0:0,0:0:0:0:
304,192,66118,6,0,L|240:224,1,60
416,304,66451,2,0,L|352:272,1,60,8|0,0:0|0:0,0:0:0:0:
176,192,66784,2,0,L|96:160,1,60
304,272,67118,2,0,L|240:304,1,60,8|0,0:0|0:0,0:0:0:0:
384,192,67451,6,0,L|432:128,1,60
224,144,67784,2,0,L|288:96,1,60,8|0,0:0|0:0,0:0:0:0:
208,144,68118,1,0,0:0:0:0:
64,144,68284,1,0,0:0:0:0:
272,144,68451,1,8,0:0:0:0:
144,144,68618,2,0,L|208:128,1,60
352,128,68951,2,0,L|293:142,1,60,0|8,0:0|0:0,0:0:0:0:
144,144,69284,1,0,0:0:0:0:
432,144,69451,6,0,L|491:39,1,120,2|0,0:0|0:0,0:0:0:0:
304,192,70118,5,0,0:0:0:0:
432,192,70284,1,0,0:0:0:0:
304,192,70451,1,8,0:0:0:0:
192,192,70618,1,0,0:0:0:0:
96,192,70784,1,0,0:0:0:0:
192,192,70951,1,0,0:0:0:0:
304,192,71118,1,8,0:0:0:0:
432,192,71284,1,0,0:0:0:0:
192,192,71451,5,0,0:0:0:0:
96,192,71618,1,0,0:0:0:0:
192,192,71784,1,8,0:0:0:0:
304,192,71951,1,0,0:0:0:0:
432,192,72118,1,0,0:0:0:0:
304,192,72284,1,0,0:0:0:0:
96,192,72451,2,0,L|32:192,1,60,8|0,0:0|0:0,0:0:0:0:
96,192,72784,5,0,0:0:0:0:
240,192,72951,2,0,L|304:192,1,60,0|8,0:0|0:0,0:0:0:0:
160,112,73284,2,0,L|240:112,1,60
48,48,73618,2,0,L|112:48,1,60,0|8,0:0|0:0,0:0:0:0:
256,192,73951,6,0,L|320:144,1,60,4|0,0:0|0:0,0:0:0:0:
352,192,74284,1,0,0:0:0:0:
448,192,74451,1,8,0:0:0:0:
352,192,74618,1,0,0:0:0:0:
80,192,74784,2,0,P|96:128|144:80,1,120,4|8,0:0|0:0,0:0:0:0:
352,112,75451,6,0,L|394:69,2,60,0|0|8,0:0|0:0|0:0,0:0:0:0:
176,192,75951,2,0,L|128:144,2,60,0|0|0,0:0|0:0|0:0,0:0:0:0:
352,192,76451,6,0,L|395:150,2,60,8|0|0,0:0|0:0|0:0,0:0:0:0:
192,160,76951,2,0,L|149:117,2,60,0|8|0,0:0|0:0|0:0,0:0:0:0:
69,266,77451,2,0,L|112:224,2,60,0|0|8,0:0|0:0|0:0,0:0:0:0:
208,192,77951,1,0,0:0:0:0:
336,192,78118,6,0,L|400:192,1,60
272,288,78451,2,0,L|336:288,1,60,8|0,0:0|0:0,0:0:0:0:
392,288,78784,6,0,L|332:288,1,60
80,192,79117,2,0,L|140:192,1,60,8|0,0:0|0:0,0:0:0:0:
304,192,79451,1,0,0:0:0:0:
208,192,79618,1,0,0:0:0:0:
384,192,79784,1,8,0:0:0:0:
144,192,79951,1,0,0:0:0:0:
304,192,80118,6,0,P|336:144|416:144,1,120,4|0,0:0|0:0,0:0:0:0:
80,192,80784,5,0,0:0:0:0:
384,192,81118,1,8,0:0:0:0:
192,192,81451,1,0,0:0:0:0:
240,192,81618,1,0,0:0:0:0:
288,192,81784,1,8,0:0:0:0:
432,192,82118,5,0,0:0:0:0:
128,192,82452,1,8,0:0:0:0:
320,192,82785,1,0,0:0:0:0:
272,192,82952,1,0,0:0:0:0:
224,192,83118,1,8,0:0:0:0:
112,192,83451,5,0,0:0:0:0:
336,192,83784,1,8,0:0:0:0:
48,192,84118,1,0,0:0:0:0:
288,192,84451,1,8,0:0:0:0:
224,192,84618,2,0,L|304:192,1,60,2|0,0:0|0:0,0:0:0:0:
416,192,84951,6,0,L|352:192,2,60,0|8|0,0:0|0:0|0:0,0:0:0:0:
224,192,85451,2,0,L|256:192|256:192,2,30,4|0|2,0:0|0:0|0:0,0:0:0:0:
338,192,85784,2,0,L|368:192,2,30,10|0|2,0:0|0:0|0:0,0:0:0:0:
112,112,86118,6,0,L|176:112,2,60,4|0|8,0:0|0:0|0:0,0:0:0:0:
304,112,86618,1,0,0:0:0:0:
384,112,86784,1,0,0:0:0:0:
480,112,86951,1,0,0:0:0:0:
224,112,87118,1,8,0:0:0:0:
32,240,87451,6,0,L|96:240,1,60,0|0,0:0|0:0,0:0:0:0:
192,240,87784,1,8,0:0:0:0:
288,240,87951,1,0,0:0:0:0:
192,240,88117,1,0,0:0:0:0:
288,240,88284,1,0,0:0:0:0:
384,240,88451,2,0,L|432:192,1,60,8|0,0:0|0:0,0:0:0:0:
304,96,88784,6,0,L|368:144,2,60,0|0|8,0:0|0:0|0:0,0:0:0:0:
96,144,89284,2,0,L|160:144,1,60
272,144,89618,1,0,0:0:0:0:
48,144,89784,2,0,L|96:96,1,60,8|0,0:0|0:0,0:0:0:0:
368,192,90118,6,0,L|400:160,2,30
256,192,90451,2,0,L|224:224,2,30,8|0|0,0:0|0:0|0:0,0:0:0:0:
432,192,90784,1,0,0:0:0:0:
208,192,90951,2,0,L|144:192,2,60,0|8|0,0:0|0:0|0:0,0:0:0:0:
400,192,91451,6,0,L|352:128,1,60
240,144,91784,2,0,L|276:192,1,60,8|0,0:0|0:0,0:0:0:0:
144,192,92118,2,0,L|96:128,1,60
288,144,92451,2,0,L|324:192,1,60,8|0,0:0|0:0,0:0:0:0:
96,96,92784,5,0,0:0:0:0:
128,96,92868,1,0,0:0:0:0:
160,96,92951,1,0,0:0:0:0:
288,224,93118,1,8,0:0:0:0:
256,224,93201,1,0,0:0:0:0:
224,224,93285,1,0,0:0:0:0:
448,144,93451,6,0,L|388:144,1,60
260,144,93784,2,0,L|320:144,1,60,8|0,0:0|0:0,0:0:0:0:
176,48,94118,6,0,L|176:108,1,60
96,160,94451,2,0,L|43:134,1,60,8|0,0:0|0:0,0:0:0:0:
240,208,94784,2,0,L|304:208,1,60
426,149,95118,2,0,L|384:192,1,60,8|0,0:0|0:0,0:0:0:0:
192,160,95451,6,0,L|256:128,1,60,0|0,0:0|0:0,0:0:0:0:
112,192,95784,2,0,L|96:128,1,60,8|0,0:0|0:0,0:0:0:0:
256,192,96118,1,0,0:0:0:0:
368,192,96284,1,0,0:0:0:0:
256,192,96451,1,8,0:0:0:0:
112,192,96618,1,0,0:0:0:0:
368,192,96784,6,0,L|432:192,1,60
160,192,97118,1,8,0:0:0:0:
256,192,97284,2,0,L|304:128,1,60
436,144,97618,2,0,L|400:192,1,60,0|8,0:0|0:0,0:0:0:0:
224,192,97951,1,0,0:0:0:0:
144,192,98118,6,0,L|80:192,1,60
352,192,98452,1,8,0:0:0:0:
256,192,98618,2,0,L|208:128,1,60
76,144,98952,2,0,L|112:192,1,60,0|8,0:0|0:0,0:0:0:0:
288,192,99285,1,0,0:0:0:0:
416,192,99451,6,0,P|368:288|352:288,1,120,0|8,0:0|0:0,0:0:0:0:
272,192,99951,2,0,P|320:176|336:160,2,60,0|2|0,0:0|0:0|0:0,0:0:0:0:
448,64,100451,2,0,P|384:96|336:112,1,120,8|0,0:0|0:0,0:0:0:0:
80,176,100951,2,0,L|160:160,2,60,0|8|0,0:0|0:0|0:0,0:0:0:0:
304,144,101451,2,0,L|240:160,1,60,0|0,0:0|0:0,0:0:0:0:
421,165,101784,2,0,L|464:208,1,60,8|0,0:0|0:0,0:0:0:0:
96,192,102118,6,0,P|144:288|160:288,1,120,0|8,0:0|0:0,0:0:0:0:
240,208,102618,2,0,L|304:224,2,60,0|2|0,0:0|0:0|0:0,0:0:0:0:
64,64,103118,2,0,P|128:96|176:112,1,120,8|0,0:0|0:0,0:0:0:0:
432,176,103618,2,0,L|352:160,2,60,0|8|0,0:0|0:0|0:0,0:0:0:0:
208,144,104118,2,0,L|272:160,1,60,0|0,0:0|0:0,0:0:0:0:
90,165,104451,2,0,L|48:208,1,60,8|0,0:0|0:0,0:0:0:0:
432,304,104784,6,0,B|464:208|464:208|320:192|320:192|384:80,1,360
96,192,106118,5,0,0:0:0:0:
144,192,106201,1,0,0:0:0:0:
192,192,106284,1,0,0:0:0:0:
240,192,106368,1,0,0:0:0:0:
288,192,106451,1,0,0:0:0:0:
336,192,106534,1,0,0:0:0:0:
384,192,106618,1,0,0:0:0:0:
432,192,106701,1,0,0:0:0:0:
384,192,106784,1,0,0:0:0:0:
336,192,106868,1,0,0:0:0:0:
288,192,106951,1,0,0:0:0:0:
240,192,107034,1,0,0:0:0:0:
192,192,107118,1,0,0:0:0:0:
144,192,107201,1,0,0:0:0:0:
96,192,107284,1,0,0:0:0:0:
144,192,107368,1,0,0:0:0:0:
256,80,107451,6,0,L|336:96,2,60,4|0|8,0:0|0:0|0:0,0:0:0:0:
144,96,107951,2,0,L|80:128,2,60
304,80,108451,1,8,0:0:0:0:
448,80,108618,1,0,0:0:0:0:
384,128,108784,6,0,L|304:144,2,60,0|0|8,0:0|0:0|0:0,0:0:0:0:
336,144,109284,2,0,L|400:176,2,60
176,128,109784,1,8,0:0:0:0:
48,128,109951,1,0,0:0:0:0:
192,208,110118,6,0,L|144:160,1,60
320,208,110451,2,0,L|368:160,1,60,8|0,0:0|0:0,0:0:0:0:
101,149,110784,2,0,L|144:192,1,60
410,149,111118,2,0,L|368:192,1,60,8|0,0:0|0:0,0:0:0:0:
256,192,111451,1,0,0:0:0:0:
400,192,111618,1,0,0:0:0:0:
224,192,111784,6,0,L|160:144,2,60,8|0|2,0:0|0:0|0:0,0:0:0:0:
416,144,112451,1,8,0:0:0:0:
256,80,112784,6,0,L|176:96,2,60,0|0|8,0:0|0:0|0:0,0:0:0:0:
368,96,113284,2,0,L|432:128,2,60
208,80,113784,1,8,0:0:0:0:
80,80,113951,1,0,0:0:0:0:
288,128,114117,6,0,L|368:144,2,60,0|0|8,0:0|0:0|0:0,0:0:0:0:
176,144,114617,2,0,L|112:176,2,60
336,128,115117,1,8,0:0:0:0:
464,128,115284,1,0,0:0:0:0:
320,208,115451,6,0,L|368:160,1,60
192,208,115784,2,0,L|144:160,1,60,8|0,0:0|0:0,0:0:0:0:
410,149,116117,2,0,L|368:192,1,60
101,149,116451,2,0,L|144:192,1,60,8|0,0:0|0:0,0:0:0:0:
256,192,116784,1,0,0:0:0:0:
112,192,116951,1,0,0:0:0:0:
288,192,117117,6,0,L|352:144,2,60,8|0|4,0:0|0:0|0:0,0:0:0:0:
96,144,117784,1,8,0:0:0:0:
400,80,118118,6,0,L|432:144,2,60,0|0|8,0:0|0:0|0:0,0:0:0:0:
464,128,118618,1,0,0:0:0:0:
272,80,118784,6,0,L|304:144,2,60,0|0|8,0:0|0:0|0:0,0:0:0:0:
208,128,119284,1,0,0:0:0:0:
496,192,119451,6,0,L|416:192,1,60
288,192,119784,1,8,0:0:0:0:
128,192,119951,6,0,L|208:192,1,60
336,192,120284,1,0,0:0:0:0:
256,192,120451,1,8,0:0:0:0:
176,192,120618,1,0,0:0:0:0:
400,96,120784,6,0,P|384:128|352:144,1,60
224,96,121118,2,0,P|240:128|272:144,1,60,8|0,0:0|0:0,0:0:0:0:
448,112,121451,2,0,P|432:144|400:160,1,60,0|0,0:0|0:0,0:0:0:0:
176,96,121784,2,0,P|192:128|224:144,1,60,8|0,0:0|0:0,0:0:0:0:
96,192,122118,1,0,0:0:0:0:
400,112,122451,1,8,0:0:0:0:
272,112,122618,1,0,0:0:0:0:
144,112,122784,6,0,L|204:112,2,60,4|0|8,0:0|0:0|0:0,0:0:0:0:
112,80,123451,6,0,L|80:144,2,60,0|0|8,0:0|0:0|0:0,0:0:0:0:
48,128,123951,1,0,0:0:0:0:
240,80,124117,6,0,L|208:144,2,60,0|0|8,0:0|0:0|0:0,0:0:0:0:
304,128,124617,1,0,0:0:0:0:
16,192,124784,6,0,L|96:192,1,60
256,192,125117,1,8,0:0:0:0:
416,192,125284,6,0,L|336:192,1,60
176,192,125617,1,0,0:0:0:0:
256,192,125784,1,8,0:0:0:0:
336,192,125951,1,0,0:0:0:0:
112,96,126117,6,0,P|128:128|160:144,1,60
288,96,126451,2,0,P|272:128|240:144,1,60,8|0,0:0|0:0,0:0:0:0:
64,112,126784,2,0,P|80:144|112:160,1,60,0|0,0:0|0:0,0:0:0:0:
336,96,127117,6,0,P|320:128|288:144,1,60,8|2,0:0|0:0,0:0:0:0:
416,192,127451,1,0,0:0:0:0:
336,192,127618,1,0,0:0:0:0:
96,192,127784,2,0,L|160:192,1,60,8|0,0:0|0:0,0:0:0:0:
352,112,128117,6,0,L|416:112,2,60,4|0|2,0:0|0:0|0:0,0:0:0:0:
256,192,128784,12,0,135784,0:0:0:0:
