osu file format v13

[General]
AudioFilename: Takahiro_Eguchi_-_Silver_Temple (1).mp3
AudioLeadIn: 0
PreviewTime: 42185
Countdown: 0
SampleSet: Soft
StackLeniency: 0.8
Mode: 0
LetterboxInBreaks: 0
WidescreenStoryboard: 0

[Editor]
Bookmarks: 80513
DistanceSpacing: 1.2
BeatDivisor: 4
GridSize: 4
TimelineZoom: 2.4

[Metadata]
Title:silver temple
TitleUnicode:silver temple
Artist:Eguchi Takahiro
ArtistUnicode:江口 孝宏
Creator:Raiku
Version:Insane
Source:
Tags:xWillx Lanturn Alternative samuraiDANCEHALL electro planet
BeatmapID:392786
BeatmapSetID:154954

[Difficulty]
HPDrainRate:7
CircleSize:4
OverallDifficulty:8
ApproachRate:9
SliderMultiplier:1.4
SliderTickRate:1

[Events]
//Background and Video events
0,0,"dragonbg.jpg",0,0
//Break Periods
//Storyboard Layer 0 (Background)
//Storyboard Layer 1 (Fail)
//Storyboard Layer 2 (Pass)
//Storyboard Layer 3 (Foreground)
//Storyboard Sound Samples
//Background Colour Transformations
3,100,64,128,128

[TimingPoints]
852,333.333333333333,4,2,1,50,1,0
86185,-100,4,2,1,50,0,1
96685,-100,4,2,1,50,0,0
96852,-100,4,2,1,50,0,1
107518,-100,4,2,1,50,0,0

[Colours]
Combo1 : 169,169,169
Combo2 : 169,222,222
Combo3 : 169,192,192
Combo4 : 6,111,119
Combo5 : 222,169,69

[HitObjects]
92,96,852,22,0,P|168:112|252:116,1,140,0|2,0:0|0:0,0:0:0:0:
304,119,1351,1,0,0:0:0:0:
268,183,1518,2,0,P|254:216|248:250,1,70,0|2,0:0|0:0,0:0:0:0:
340,184,1851,1,0,0:0:0:0:
52,316,2185,6,0,P|84:308|159:228,1,140,0|2,0:0|0:0,0:0:0:0:
88,208,2685,1,0,0:0:0:0:
300,256,2851,2,0,P|268:260|216:276,1,70,0|2,0:0|0:0,0:0:0:0:
375,263,3185,1,0,0:0:0:0:
452,80,3518,6,0,P|436:188|436:240,1,140,0|2,0:0|0:0,0:0:0:0:
512,164,4018,1,0,0:0:0:0:
310,87,4185,2,0,P|332:114|364:128,1,70,0|2,0:0|0:0,0:0:0:0:
382,54,4518,1,0,0:0:0:0:
100,144,4851,21,0,0:0:0:0:
208,80,5018,1,0,0:0:0:0:
208,200,5185,1,0,0:0:0:0:
276,64,5351,5,0,0:0:0:0:
176,264,5518,1,0,0:0:0:0:
64,84,5685,1,0,0:0:0:0:
308,124,6185,6,0,P|328:208|356:264,1,140,0|2,0:0|0:0,0:0:0:0:
445,208,6685,2,0,P|357:178|309:230,1,140,0|2,0:0|0:0,0:0:0:0:
272,256,7185,1,0,0:0:0:0:
216,316,7351,1,0,0:0:0:0:
324,200,7518,6,0,P|389:150|456:129,1,140,0|2,0:0|0:0,0:0:0:0:
256,144,8018,1,0,0:0:0:0:
391,69,8185,1,0,0:0:0:0:
408,248,8351,1,2,0:0:0:0:
326,114,8518,2,0,P|303:80|245:71,1,70
203,85,8851,1,0,0:0:0:0:
52,44,9185,2,0,P|84:72|104:104,1,70,2|0,0:0|0:0,0:0:0:0:
76,288,9685,2,0,P|124:276|152:244,1,70,2|0,0:0|0:0,0:0:0:0:
220,176,10185,21,0,0:0:0:0:
328,112,10351,1,0,0:0:0:0:
328,232,10518,1,0,0:0:0:0:
400,100,10685,5,0,0:0:0:0:
304,300,10851,1,0,0:0:0:0:
184,112,11018,1,0,0:0:0:0:
64,88,11518,6,0,P|76:160|84:252,1,140,0|2,0:0|0:0,0:0:0:0:
12,236,12018,1,0,0:0:0:0:
144,128,12185,2,0,P|176:96|204:56,1,70,0|2,0:0|0:0,0:0:0:0:
272,84,12518,1,0,0:0:0:0:
272,124,12601,1,0,0:0:0:0:
268,164,12685,1,0,0:0:0:0:
264,204,12768,1,0,0:0:0:0:
256,244,12851,5,0,0:0:0:0:
200,296,13018,1,0,0:0:0:0:
96,200,13185,1,2,0:0:0:0:
200,296,13351,1,0,0:0:0:0:
12,236,13518,1,0,0:0:0:0:
200,296,13685,1,2,0:0:0:0:
236,308,13768,1,0,0:0:0:0:
276,316,13851,1,2,0:0:0:0:
316,320,13935,1,0,0:0:0:0:
356,320,14018,1,2,0:0:0:0:
396,316,14101,1,0,0:0:0:0:
432,304,14185,22,0,P|476:284|500:240,1,70
280,216,14518,2,0,P|224:204|184:156,1,70,2|0,0:0|0:0,0:0:0:0:
221,35,14851,2,0,P|253:22|287:26,1,70,0|2,0:0|0:0,0:0:0:0:
477,73,15185,1,0,0:0:0:0:
417,216,15351,1,0,0:0:0:0:
462,63,15518,5,0,0:0:0:0:
338,190,15685,1,0,0:0:0:0:
447,48,15851,1,0,0:0:0:0:
284,107,16018,1,0,0:0:0:0:
441,31,16185,1,0,0:0:0:0:
284,12,16351,1,0,0:0:0:0:
32,264,16851,6,0,P|108:264|184:240,1,140,0|2,0:0|0:0,0:0:0:0:
53,341,17351,1,0,0:0:0:0:
48,108,17685,1,2,0:0:0:0:
136,52,17851,1,0,0:0:0:0:
136,92,17935,1,0,0:0:0:0:
132,128,18018,1,0,0:0:0:0:
124,168,18101,1,0,0:0:0:0:
112,204,18185,5,0,0:0:0:0:
0,172,18351,1,0,0:0:0:0:
214,133,18518,1,2,0:0:0:0:
368,271,18685,2,0,P|425:316|504:351,2,140,0|2|0,0:0|0:0|0:0,0:0:0:0:
276,200,19518,21,0,0:0:0:0:
176,156,19685,1,0,0:0:0:0:
128,260,19851,1,2,0:0:0:0:
232,312,20018,1,0,0:0:0:0:
452,272,20351,2,0,P|400:292|360:300,1,70,2|0,0:0|0:0,0:0:0:0:
232,312,20851,54,0,L|252:272,4,23.3333333333333
276,200,21185,2,0,L|304:216,4,23.3333333333333
176,156,21518,2,0,L|144:176,4,23.3333333333333
284,88,21851,2,0,L|256:56,4,23.3333333333333
384,32,22185,22,0,P|376:128|336:204,1,140,0|2,0:0|0:0,0:0:0:0:
464,80,22851,1,0,0:0:0:0:
472,172,23018,1,2,0:0:0:0:
440,252,23185,1,0,0:0:0:0:
368,300,23351,1,0,0:0:0:0:
392,200,23518,6,0,P|444:260|472:336,1,140,0|2,0:0|0:0,0:0:0:0:
316,153,24185,1,0,0:0:0:0:
247,60,24351,1,2,0:0:0:0:
316,153,24518,1,0,0:0:0:0:
264,248,24685,6,0,P|212:292|152:284,1,70
112,176,25018,2,0,P|164:132|224:140,1,70,0|2,0:0|0:0,0:0:0:0:
398,130,25351,2,0,P|432:132|462:149,1,70,0|0,0:0|0:0,0:0:0:0:
421,292,25685,2,0,P|386:288|356:270,1,70,2|0,0:0|0:0,0:0:0:0:
112,176,26018,1,0,0:0:0:0:
186,290,26185,22,0,P|212:321|271:341,1,70
388,136,26518,2,0,P|363:107|304:88,1,70,2|0,0:0|0:0,0:0:0:0:
112,176,26851,2,0,L|45:206,1,70,0|2,0:0|0:0,0:0:0:0:
50,115,27185,2,0,L|116:84,1,70,0|2,0:0|0:0,0:0:0:0:
232,52,27518,6,0,P|336:56|420:80,1,140,0|2,0:0|0:0,0:0:0:0:
500,104,28018,1,0,0:0:0:0:
404,204,28185,2,0,L|420:132,1,70,0|2,0:0|0:0,0:0:0:0:
486,186,28518,2,0,L|470:262,1,70
408,344,28851,1,0,0:0:0:0:
408,344,29185,2,0,P|356:280|333:222,1,140,2|0,0:0|0:0,0:0:0:0:
280,268,29685,2,0,P|312:252|336:224,1,70,2|0,0:0|0:0,0:0:0:0:
232,116,30018,6,0,P|200:132|176:160,1,70
312,116,30351,2,0,P|333:87|350:55,1,70,0|2,0:0|0:0,0:0:0:0:
200,268,30685,2,0,P|177:295|154:328,1,70
270,187,31018,1,2,0:0:0:0:
104,186,31185,1,0,0:0:0:0:
183,162,31351,6,0,P|223:134|235:94,1,70
205,34,31685,2,0,P|173:50|155:80,1,70,0|2,0:0|0:0,0:0:0:0:
376,120,32018,2,0,P|336:108|285:106,1,70
448,144,32351,1,2,0:0:0:0:
312,32,32518,1,0,0:0:0:0:
448,144,32685,1,2,0:0:0:0:
388,192,32851,22,0,P|364:276|360:344,1,140,0|2,0:0|0:0,0:0:0:0:
488,28,33518,2,0,P|451:52|424:77,1,70,0|2,0:0|0:0,0:0:0:0:
376,120,33851,1,0,0:0:0:0:
455,221,34018,1,0,0:0:0:0:
328,244,34185,2,0,P|256:228|140:200,1,140,0|2,0:0|0:0,0:0:0:0:
276,156,34685,2,0,L|140:124,1,140,0|2,0:0|0:0,0:0:0:0:
160,44,35185,1,0,0:0:0:0:
140,124,35351,1,0,0:0:0:0:
117,203,35518,5,0,0:0:0:0:
93,281,35685,1,0,0:0:0:0:
172,324,35851,2,0,P|176:280|220:232,1,70,2|0,0:0|0:0,0:0:0:0:
264,312,36185,2,0,P|300:320|372:280,1,70,0|2,0:3|0:0,0:0:0:0:
328,168,36518,2,0,P|288:160|248:172,1,70
296,240,36851,5,0,0:0:0:0:
368,96,37018,1,0,0:0:0:0:
404,212,37185,1,2,0:0:0:0:
252,112,37351,1,0,0:0:0:0:
176,148,37518,2,0,P|196:176|251:193,1,70,0|2,0:0|0:0,0:0:0:0:
283,33,37851,2,0,P|246:28|194:53,1,70,0|2,0:0|0:0,0:0:0:0:
56,224,38185,6,0,P|44:256|48:291,2,70,0|0|2,0:0|0:0|0:0,0:0:0:0:
348,176,38851,2,0,P|380:188|408:216,1,70,0|2,0:0|0:0,0:0:0:0:
464,292,39185,1,0,0:0:0:0:
336,256,39351,1,0,0:0:0:0:
472,168,39518,1,0,0:0:0:0:
384,336,39685,1,0,0:0:0:0:
348,176,39851,1,2,0:0:0:0:
132,312,40185,2,0,P|168:292|204:252,1,70,0|2,0:0|0:0,0:0:0:0:
112,200,40518,1,0,0:0:0:0:
212,136,40685,22,0,P|256:128|292:140,1,70
484,192,41018,2,0,P|440:200|404:188,1,70,0|2,0:0|0:0,0:0:0:0:
313,29,41351,2,0,P|340:65|345:103,1,70
382,298,41685,2,0,P|355:262|350:224,1,70,2|0,0:0|0:0,0:0:0:0:
340,160,42018,1,2,0:0:0:0:
256,192,42185,12,0,43518,0:0:0:0:
144,84,43851,6,0,P|113:104|99:162,1,70,2|0,0:0|0:0,0:0:0:0:
212,48,44185,1,0,0:0:0:0:
176,160,44351,1,2,0:0:0:0:
324,144,44518,2,0,P|296:220|236:268,1,140
254,260,45018,1,0,0:0:0:0:
100,148,45185,1,2,0:0:0:0:
176,292,45351,1,0,0:0:0:0:
40,224,45518,2,0,P|88:236|104:248,1,70,0|2,0:0|0:0,0:0:0:0:
176,292,45851,1,0,0:0:0:0:
464,276,46185,6,0,P|376:316|312:332,1,140,0|2,0:0|0:0,0:0:0:0:
340,248,46685,2,0,P|384:232|416:216,1,70
416,348,47018,1,2,0:0:0:0:
480,196,47185,1,0,0:0:0:0:
352,32,47518,2,0,P|332:68|304:96,1,70
188,116,47851,2,0,P|164:144|144:184,1,70,2|0,0:0|0:0,0:0:0:0:
116,244,48185,1,0,0:0:0:0:
344,172,48351,1,2,0:0:0:0:
271,318,48518,1,0,0:0:0:0:
40,52,48851,6,0,P|88:124|148:176,1,140,0|2,0:0|0:0,0:0:0:0:
212,220,49351,1,0,0:0:0:0:
312,244,49518,2,0,P|356:252|404:216,1,70,0|2,0:0|0:0,0:0:0:0:
376,100,49851,2,0,P|332:92|284:128,1,70
244,144,50185,1,0,0:0:0:0:
120,208,50351,1,0,0:0:0:0:
236,284,50518,1,2,0:0:0:0:
244,144,50685,1,0,0:0:0:0:
308,100,50851,2,0,P|352:92|400:128,1,70,0|2,0:0|0:0,0:0:0:0:
380,244,51185,2,0,P|336:252|288:216,1,70
344,172,51518,21,0,0:0:0:0:
464,244,51685,1,0,0:0:0:0:
420,172,51851,1,2,0:0:0:0:
420,320,52018,1,0,0:0:0:0:
344,320,52185,2,0,P|272:324|244:336,1,70,0|2,0:0|0:0,0:0:0:0:
200,340,52518,1,0,0:0:0:0:
64,172,52851,2,0,P|152:172|212:188,1,140,0|2,0:0|0:0,0:0:0:0:
476,88,53518,2,0,P|368:80|348:68,1,105,0|0,0:0|0:0,0:0:0:0:
344,60,53851,2,0,P|276:68|244:80,1,70,0|0,0:0|0:0,0:0:0:0:
64,88,54185,6,0,P|140:128|220:144,1,140,0|2,0:0|0:0,0:0:0:0:
64,172,54685,1,0,0:0:0:0:
280,204,54851,2,0,P|208:220|140:252,1,140,0|2,0:0|0:0,0:0:0:0:
280,284,55351,1,0,0:0:0:0:
60,288,55518,6,0,P|136:328|216:344,1,140,0|2,0:0|0:0,0:0:0:0:
60,372,56018,1,0,0:0:0:0:
200,120,56185,1,0,0:0:0:0:
200,120,56351,2,0,P|160:132|128:160,2,70,2|0|0,0:0|0:0|0:0,0:0:0:0:
284,100,56851,2,0,P|340:84|424:44,1,140,0|2,0:0|0:0,0:0:0:0:
260,176,57351,5,0,0:0:0:0:
404,176,57518,2,0,P|364:172|316:148,1,70,0|2,0:0|0:0,0:0:0:0:
296,24,57851,1,0,0:0:0:0:
448,112,58018,1,0,0:0:0:0:
224,48,58185,22,0,P|152:64|68:104,1,140,0|2,0:0|0:0,0:0:0:0:
224,284,58851,2,0,P|284:320|380:356,1,140
80,288,59518,6,0,P|68:200|76:136,1,140,0|2,0:0|0:0,0:0:0:0:
80,72,60018,1,0,0:0:0:0:
168,204,60185,1,0,0:0:0:0:
236,60,60351,2,0,P|316:52|356:68,1,70,2|0,0:0|0:0,0:0:0:0:
412,184,60685,2,0,P|380:192|332:192,1,70
168,204,61018,1,0,0:0:0:0:
272,164,61185,1,2,0:0:0:0:
362,93,61351,2,0,P|376:64|418:17,2,70,0|0|2,0:0|0:0|0:0,0:0:0:0:
316,264,61851,1,0,0:0:0:0:
236,60,62018,1,0,0:0:0:0:
168,204,62185,5,0,0:0:0:0:
14,204,62518,1,2,0:0:0:0:
92,344,62851,1,0,0:0:0:0:
364,288,63351,21,0,0:0:0:0:
363,288,63435,1,0,0:0:0:0:
363,288,63518,2,0,L|395:241,7,35,0|0|0|0|2|0|0|0,0:0|0:0|0:0|0:0|0:0|0:0|0:0|0:0,0:0:0:0:
415,197,64185,2,0,L|395:173,12,23.3333333333333,0|0|0|2|0|0|0|0|0|0|0|0|0,0:0|0:0|0:0|0:0|0:0|0:0|0:0|0:0|0:0|0:0|0:0|0:0|0:0,0:0:0:0:
252,97,65185,22,0,P|236:134|140:171,1,140,2|0,0:0|0:0,0:0:0:0:
170,89,65685,1,2,0:0:0:0:
127,257,65851,1,0,0:0:0:0:
82,324,66018,2,0,P|58:299|50:266,1,70
169,187,66351,2,0,P|194:210|204:244,1,70,0|2,0:0|0:0,0:0:0:0:
80,172,66685,2,0,P|53:145|49:104,1,70
170,89,67018,1,2,0:0:0:0:
80,172,67185,1,0,0:0:0:0:
103,50,67351,6,0,P|140:16|188:20,1,70
244,136,67685,1,0,0:0:0:0:
80,172,67851,1,2,0:0:0:0:
244,136,68018,2,0,P|280:128|324:144,1,70
312,272,68351,2,0,P|276:280|232:264,1,70,2|0,0:0|0:0,0:0:0:0:
244,136,68685,2,0,P|280:128|324:144,1,70
376,204,69018,1,0,0:0:0:0:
276,56,69185,1,2,0:0:0:0:
192,208,69351,1,0,0:0:0:0:
376,204,69518,1,0,0:0:0:0:
64,200,69851,1,0,0:0:0:0:
64,200,70018,1,0,0:0:0:0:
64,200,70185,6,0,P|88:244|128:268,1,70
234,262,70518,2,0,P|207:219|175:203,1,70,2|0,0:0|0:0,0:0:0:0:
64,200,70851,2,0,P|88:244|128:268,1,70,0|2,0:0|0:0,0:0:0:0:
234,262,71185,2,0,P|270:274|306:310,1,70
384,256,71518,21,0,0:0:0:0:
496,204,71685,1,0,0:0:0:0:
400,132,71851,1,2,0:0:0:0:
288,176,72018,1,0,0:0:0:0:
304,68,72185,1,0,0:0:0:0:
400,132,72351,1,2,0:0:0:0:
304,68,72518,2,0,P|255:53|218:52,1,70
152,43,72851,5,0,0:0:0:0:
24,44,73018,1,0,0:0:0:0:
88,148,73185,1,2,0:0:0:0:
152,44,73351,1,0,0:0:0:0:
24,44,73518,1,0,0:0:0:0:
168,128,73685,2,0,P|192:144|232:184,1,70,2|0,0:0|0:0,0:0:0:0:
408,36,74018,5,0,0:0:0:0:
304,160,74351,2,0,P|316:208|352:248,1,70,0|2,0:0|0:0,0:0:0:0:
476,280,74685,2,0,P|460:320|424:348,1,70
56,192,75518,6,0,P|80:272|156:292,1,140,0|2,0:0|0:0,0:0:0:0:
136,208,76018,2,0,P|144:160|164:136,1,70
232,276,76351,1,2,0:0:0:0:
127,294,76518,1,0,0:0:0:0:
236,192,76685,2,0,P|256:148|252:104,1,70
176,32,77018,2,0,P|160:72|164:112,1,70,0|2,0:0|0:0,0:0:0:0:
236,192,77351,1,0,0:0:0:0:
252,32,77518,1,0,0:0:0:0:
160,188,77685,1,2,0:0:0:0:
224,108,77851,1,0,0:0:0:0:
328,88,78018,1,0,0:0:0:0:
420,252,78185,22,0,P|428:292|420:336,1,70
336,264,78518,2,0,P|332:212|344:180,1,70,2|0,0:0|0:0,0:0:0:0:
420,252,78851,2,0,P|428:292|420:336,1,70,0|2,0:0|0:0,0:0:0:0:
412,172,79185,1,0,0:0:0:0:
344,348,79351,2,0,P|308:344|260:292,1,70
132,194,79685,2,0,P|85:174|26:183,1,70,0|2,0:0|0:0,0:0:0:0:
75,257,80018,1,0,0:0:0:0:
48,44,80185,1,0,0:0:0:0:
368,120,80851,6,0,P|400:144|412:180,1,70
336,192,81185,2,0,P|304:212|292:248,1,70,2|0,0:0|0:0,0:0:0:0:
368,264,81518,1,0,0:0:0:0:
244,168,81685,1,2,0:0:0:0:
96,168,81851,2,0,P|144:156|180:160,1,70
184,284,82185,2,0,P|148:296|100:292,1,70
244,168,82518,1,2,0:0:0:0:
368,108,82685,2,0,P|408:96|440:96,1,70
404,180,83018,2,0,P|364:192|332:192,1,70,2|0,0:0|0:0,0:0:0:0:
244,168,83351,1,0,0:0:0:0:
123,128,83518,6,0,P|83:119|36:133,1,70
84,204,83851,2,0,P|109:214|133:249,1,70,2|0,0:0|0:0,0:0:0:0:
60,280,84185,2,0,P|32:316|28:344,1,70,0|2,0:0|0:0,0:0:0:0:
8,220,84518,1,0,0:0:0:0:
123,128,84685,2,0,P|215:80|271:24,1,140
116,52,85185,1,2,0:0:0:0:
280,124,85351,1,0,0:0:0:0:
196,188,85518,5,0,0:0:0:0:
160,212,85601,1,0,0:0:0:0:
128,232,85685,1,2,0:0:0:0:
60,280,85851,1,0,0:0:0:0:
60,280,86018,1,0,0:0:0:0:
188,328,86185,22,0,P|272:308|356:308,1,140,0|2,0:0|0:0,0:0:0:0:
416,312,86685,1,0,0:0:0:0:
376,232,86851,2,0,P|360:196|352:160,1,70,0|2,0:0|0:0,0:0:0:0:
416,312,87185,1,0,0:0:0:0:
448,136,87351,1,2,0:0:0:0:
328,88,87518,6,0,P|224:80|152:60,1,140,0|2,0:0|0:0,0:0:0:0:
104,60,88018,1,0,0:0:0:0:
116,100,88101,1,0,0:0:0:0:
132,136,88185,1,0,0:0:0:0:
152,172,88268,1,0,0:0:0:0:
176,204,88351,1,2,0:0:0:0:
224,136,88518,1,0,0:0:0:0:
128,284,88685,1,2,0:0:0:0:
296,288,88851,6,0,P|372:260|488:264,1,140,0|2,0:0|0:0,0:0:0:0:
432,332,89351,1,0,0:0:0:0:
396,184,89518,1,0,0:0:0:0:
296,288,89685,1,2,0:0:0:0:
432,332,89851,1,0,0:0:0:0:
432,332,90018,1,2,0:0:0:0:
376,264,90185,5,0,0:0:0:0:
344,236,90268,1,0,0:0:0:0:
308,212,90351,1,0,0:0:0:0:
272,188,90435,1,0,0:0:0:0:
236,168,90518,1,2,0:0:0:0:
160,132,90685,2,0,P|112:112|84:108,1,70
56,240,91018,2,0,P|96:260|144:260,1,70,2|0,0:0|0:0,0:0:0:0:
204,268,91351,1,2,0:0:0:0:
428,108,91518,22,0,P|344:100|276:72,1,140,0|2,0:0|0:0,0:0:0:0:
428,32,92018,1,0,0:0:0:0:
224,56,92185,1,0,0:0:0:0:
428,108,92351,1,2,0:0:0:0:
224,132,92518,2,0,P|184:148|152:164,1,70,0|2,0:0|0:0,0:0:0:0:
280,224,92851,5,0,0:0:0:0:
316,244,92935,1,0,0:0:0:0:
352,268,93018,1,0,0:0:0:0:
384,296,93101,1,0,0:0:0:0:
412,328,93185,1,2,0:0:0:0:
464,264,93351,1,0,0:0:0:0:
304,332,93518,1,0,0:0:0:0:
328,160,93685,1,2,0:0:0:0:
188,224,93851,2,0,P|152:244|96:236,1,70,0|2,0:0|0:0,0:0:0:0:
84,124,94185,6,0,P|108:156|148:168,1,70
216,64,94518,2,0,P|176:72|152:100,1,70,2|0,0:0|0:0,0:0:0:0:
108,260,94851,1,0,0:0:0:0:
84,124,95018,1,2,0:0:0:0:
188,224,95185,2,0,P|232:264|256:272,1,70,0|2,0:0|0:0,0:0:0:0:
392,308,95518,5,2,0:0:0:0:
360,280,95601,1,0,0:0:0:0:
340,244,95685,1,0,0:0:0:0:
328,204,95768,1,0,0:0:0:0:
324,160,95851,1,2,0:0:0:0:
324,120,95935,1,0,0:0:0:0:
332,80,96018,1,0,0:0:0:0:
348,40,96101,1,0,0:0:0:0:
368,4,96185,1,2,0:0:0:0:
255,85,96351,2,0,P|211:109|167:109,1,70
448,59,96685,1,0,0:0:0:0:
382,179,96851,22,0,P|330:231|242:260,1,140,0|2,0:0|0:0,0:0:0:0:
285,104,97351,1,0,0:0:0:0:
190,273,97518,1,0,0:0:0:0:
202,120,97685,1,2,0:0:0:0:
271,257,97851,2,0,P|287:297|319:329,1,70,0|2,0:0|0:0,0:0:0:0:
416,309,98185,5,0,0:0:0:0:
436,272,98268,1,0,0:0:0:0:
448,231,98351,1,0,0:0:0:0:
455,189,98435,1,0,0:0:0:0:
459,147,98518,1,2,0:0:0:0:
414,28,98685,1,0,0:0:0:0:
359,143,98851,2,0,P|330:175|291:182,1,70,0|2,0:0|0:0,0:0:0:0:
217,61,99185,2,0,P|248:32|285:23,1,70,0|2,0:0|0:0,0:0:0:0:
288,104,99518,6,0,P|248:138|212:148,1,70
154,173,99851,1,2,0:0:0:0:
217,61,100018,1,0,0:0:0:0:
252,242,100185,2,0,P|264:293|273:334,1,70,0|2,0:0|0:0,0:0:0:0:
340,290,100518,2,0,P|332:253|322:210,1,70,0|2,0:0|0:0,0:0:0:0:
424,97,100851,5,0,0:0:0:0:
425,139,100935,1,0,0:0:0:0:
430,181,101018,1,0,0:0:0:0:
442,222,101101,1,0,0:0:0:0:
458,261,101185,1,2,0:0:0:0:
496,335,101351,1,0,0:0:0:0:
400,324,101518,2,0,P|364:312|332:276,1,70,0|2,0:0|0:0,0:0:0:0:
316,192,101851,2,0,P|284:168|228:160,1,70,0|2,0:0|0:0,0:0:0:0:
100,156,102185,21,0,0:0:0:0:
96,316,102351,1,0,0:0:0:0:
256,316,102518,1,2,0:0:0:0:
255,160,102685,2,0,P|261:125|253:91,1,70
100,156,103018,2,0,P|92:189|97:224,1,70,2|0,0:0|0:0,0:0:0:0:
172,304,103351,1,2,0:0:0:0:
180,192,103518,5,0,0:0:0:0:
185,150,103601,1,0,0:0:0:0:
208,108,103685,1,0,0:0:0:0:
248,80,103768,1,0,0:0:0:0:
296,72,103851,1,2,0:0:0:0:
164,28,104018,1,0,0:0:0:0:
264,160,104185,1,0,0:0:0:0:
304,188,104268,1,0,0:0:0:0:
352,196,104351,1,2,0:0:0:0:
400,184,104435,1,0,0:0:0:0:
432,148,104518,1,0,0:0:0:0:
352,120,104685,1,2,0:0:0:0:
376,272,104851,6,0,B|352:320|304:336|304:336|240:304|196:344,1,210
460,336,105851,1,0,0:0:0:0:
340,140,106185,22,0,L|316:92,7,35,0|0|0|0|2|0|0|0,0:0|0:0|0:0|0:0|0:0|0:0|0:0|0:0,0:0:0:0:
284,92,106851,2,0,L|244:76,12,23.3333333333333,0|0|0|2|0|0|0|0|0|2|0|0|0,0:0|0:0|0:0|0:0|0:0|0:0|0:0|0:0|0:0|0:0|0:0|0:0|0:0,0:0:0:0:
425,183,107851,54,0,P|459:214|467:248,1,70,2|0,0:0|0:0,0:0:0:0:
456,319,108185,1,0,0:0:0:0:
373,303,108351,2,0,P|343:278|331:240,1,70,2|0,0:0|0:0,0:0:0:0:
344,166,108685,2,0,P|328:129|297:105,1,70
263,182,109018,1,0,0:0:0:0:
198,236,109185,2,0,P|164:260|106:260,1,70,2|0,0:0|0:0,0:0:0:0:
78,124,109518,2,0,P|114:102|171:101,1,70,0|2,0:0|0:0,0:0:0:0:
239,95,109851,1,0,0:0:0:0:
137,180,110018,1,0,0:0:0:0:
239,95,110185,22,0,P|289:77|337:91,1,70
436,139,110518,2,0,P|404:157|352:155,1,70,2|0,0:0|0:0,0:0:0:0:
292,153,110851,2,0,P|295:188|315:217,1,70,0|2,0:0|0:0,0:0:0:0:
391,242,111185,2,0,P|365:280|312:295,1,70,0|0,0:0|0:0,0:0:0:0:
267,281,111518,1,0,0:0:0:0:
432,328,111685,1,0,0:0:0:0:
372,161,111851,1,2,0:0:0:0:
338,338,112018,1,0,0:0:0:0:
469,228,112185,1,0,0:0:0:0:
260,60,112518,1,0,0:0:0:0:
260,60,112685,1,0,0:0:0:0:
90,73,112851,6,0,P|103:111|97:166,1,70
29,209,113185,2,0,P|34:256|56:303,1,70,2|0,0:0|0:0,0:0:0:0:
97,340,113518,1,0,0:0:0:0:
135,191,113685,1,2,0:0:0:0:
201,320,113851,1,0,0:0:0:0:
29,209,114018,1,0,0:0:0:0:
48,126,114185,6,0,P|67:87|113:70,1,70
210,60,114518,2,0,P|194:101|141:120,1,70,2|0,0:0|0:0,0:0:0:0:
48,127,114851,1,0,0:0:0:0:
210,60,115018,1,2,0:0:0:0:
135,191,115185,1,0,0:0:0:0:
297,126,115351,1,0,0:0:0:0:
216,249,115518,6,0,P|197:284|210:345,1,70
276,304,115851,2,0,P|313:300|348:272,1,70,2|0,0:0|0:0,0:0:0:0:
411,325,116185,1,0,0:0:0:0:
450,205,116351,1,2,0:0:0:0:
327,186,116518,1,0,0:0:0:0:
381,44,116685,1,0,0:0:0:0:
157,74,117018,2,0,P|115:73|55:49,1,70,0|2,0:0|0:0,0:0:0:0:
194,184,117351,1,0,0:0:0:0:
72,266,117518,1,0,0:0:0:0:
424,112,117851,1,0,0:0:0:0:
424,112,118018,1,0,0:0:0:0:
456,192,118185,22,0,P|432:272|356:292,1,140,0|2,0:0|0:0,0:0:0:0:
376,208,118685,2,0,P|368:160|348:136,1,70
280,276,119018,1,2,0:0:0:0:
385,294,119185,1,0,0:0:0:0:
276,192,119351,2,0,P|256:148|260:104,1,70
336,32,119685,2,0,P|352:72|348:112,1,70,0|2,0:0|0:0,0:0:0:0:
276,192,120018,1,0,0:0:0:0:
260,32,120185,1,0,0:0:0:0:
352,188,120351,1,2,0:0:0:0:
392,83,120518,1,0,0:0:0:0:
215,143,120685,1,0,0:0:0:0:
92,252,120851,6,0,P|84:292|92:336,1,70
176,264,121185,2,0,P|180:212|168:180,1,70,2|0,0:0|0:0,0:0:0:0:
87,321,121518,1,0,0:0:0:0:
35,187,121685,1,2,0:0:0:0:
87,321,121851,1,0,0:0:0:0:
168,348,122018,2,0,P|204:344|252:292,1,70
380,194,122351,2,0,P|427:174|486:183,1,70,0|2,0:0|0:0,0:0:0:0:
437,257,122685,1,0,0:0:0:0:
464,44,122851,1,0,0:0:0:0:
144,120,123518,6,0,P|112:144|100:180,1,70
176,192,123851,2,0,P|208:212|220:248,1,70,2|0,0:0|0:0,0:0:0:0:
144,264,124185,1,0,0:0:0:0:
268,168,124351,1,2,0:0:0:0:
416,168,124518,2,0,P|368:156|332:160,1,70
328,284,124851,2,0,P|364:296|412:292,1,70
268,168,125185,1,2,0:0:0:0:
144,108,125351,2,0,P|104:96|72:96,1,70
108,180,125685,2,0,P|148:192|180:192,1,70,2|0,0:0|0:0,0:0:0:0:
268,168,126018,1,0,0:0:0:0:
145,256,126185,5,0,0:0:0:0:
268,168,126351,1,0,0:0:0:0:
270,325,126518,1,2,0:0:0:0:
217,88,126685,1,0,0:0:0:0:
230,248,126851,1,0,0:0:0:0:
361,154,127018,1,2,0:0:0:0:
179,172,127185,1,0,0:0:0:0:
303,82,127351,1,0,0:0:0:0:
325,246,127518,6,0,L|348:273,4,23.3333333333333
456,184,127851,2,0,L|483:161,4,23.3333333333333,2|0|0|0|0,0:0|0:0|0:0|0:0|0:0,0:0:0:0:
384,74,128185,2,0,L|383:48,4,23.3333333333333,0|0|0|2|0,0:0|0:0|0:0|0:0|0:0,0:0:0:0:
274,158,128518,2,0,L|260:176,6,23.3333333333333,0|0|0|2|0|0|0,0:0|0:0|0:0|0:0|0:0|0:0|0:0,0:0:0:0:
