osu file format v12

[General]
AudioFilename: Takahiro_Eguchi_-_Silver_Temple (1).mp3
AudioLeadIn: 0
PreviewTime: 42185
Countdown: 0
SampleSet: Soft
StackLeniency: 0.7
Mode: 0
LetterboxInBreaks: 0
WidescreenStoryboard: 0

[Editor]
Bookmarks: 48847,50180
DistanceSpacing: 1
BeatDivisor: 4
GridSize: 4
TimelineZoom: 1.6

[Metadata]
Title:silver temple
TitleUnicode:silver temple
Artist:Eguchi Takahiro
ArtistUnicode:江口 孝宏
Creator:Raiku
Version:Easy
Source:
Tags:xWillx Lanturn Alternative samuraiDANCEHALL electro planet
BeatmapID:392785
BeatmapSetID:154954

[Difficulty]
HPDrainRate:2
CircleSize:3
OverallDifficulty:2
ApproachRate:2
SliderMultiplier:0.70000000596046
SliderTickRate:1

[Events]
//Background and Video events
0,0,"dragonbg.jpg",0,0
//Break Periods
//Storyboard Layer 0 (Background)
//Storyboard Layer 1 (Fail)
//Storyboard Layer 2 (Pass)
//Storyboard Layer 3 (Foreground)
//Storyboard Sound Samples
//Background Colour Transformations
3,100,163,162,255

[TimingPoints]
852.273293692142,333.333333333333,4,2,1,50,1,0
86185,-100,4,2,1,50,0,1
96685,-100,4,2,1,50,0,0
96852,-100,4,2,1,50,0,1
107518,-100,4,2,1,50,0,0

[Colours]
Combo1 : 222,169,69
Combo2 : 169,222,222
Combo3 : 169,192,192
Combo4 : 6,111,119

[HitObjects]
100,155,852,6,0,P|212:143|264:123,1,140.000001192092,2|0,0:0|0:0,0:0:0:0:
316,108,1852,1,2,0:0:0:0:
379,49,2185,2,0,P|396:138|351:188,1,140.000001192092,2|0,0:0|0:0,0:0:0:0:
285,206,3185,1,2,0:0:0:0:
202,228,3518,6,0,P|256:289|333:276,1,140.000001192092,2|0,0:0|0:0,0:0:0:0:
392,270,4518,1,2,0:0:0:0:
312,64,6185,6,0,P|184:116|168:108,1,140.000001192092,2|0,0:0|0:0,0:0:0:0:
118,92,7185,1,2,0:0:0:0:
40,53,7518,2,0,P|36:120|88:177,1,140.000001192092,2|0,0:0|0:0,0:0:0:0:
163,164,8518,1,2,0:0:0:0:
208,89,8852,2,0,P|248:150|218:231,1,140.000001192092,2|0,0:0|0:0,0:0:0:0:
198,288,9852,1,2,0:0:0:0:
273,157,11518,6,0,P|389:133|425:109,1,140.000001192092,2|0,0:0|0:0,0:0:0:0:
483,96,12518,1,2,0:0:0:0:
467,178,12852,2,0,L|467:278,1,70.000000596046,2|0,0:0|0:0,0:0:0:0:
384,292,13518,2,0,L|384:196,1,70.000000596046,0|2,0:0|0:0,0:0:0:0:
304,262,14185,2,0,P|336:363|439:359,1,210.000001788138,0|2,0:0|0:0,0:0:0:0:
72,132,16852,6,0,P|49:198|96:264,1,140.000001192092,2|0,0:0|0:0,0:0:0:0:
133,189,17852,1,2,0:0:0:0:
153,106,18185,2,0,L|213:51,1,70.000000596046,2|0,0:0|0:0,0:0:0:0:
287,95,18852,2,0,L|215:162,1,70.000000596046,0|2,0:0|0:0,0:0:0:0:
215,227,19518,5,2,0:0:0:0:
293,257,19852,2,0,P|239:311|155:288,1,140.000001192092,0|2,0:0|0:0,0:0:0:0:
256,192,20852,12,0,22185,0:0:0:0:
368,288,22852,6,0,P|313:235|233:245,2,140.000001192092
279,327,24852,2,0,P|185:304|170:189,1,210.000001788138,2|0,0:0|0:0,0:0:0:0:
72,183,26185,2,0,P|123:115|183:111,1,140.000001192092
348,250,27518,22,0,P|412:236|444:150,2,140.000001192092,2|0|2,0:0|0:0|0:0,0:0:0:0:
363,165,29185,1,0,0:0:0:0:
280,165,29518,2,0,P|243:197|248:247,1,70.000000596046,0|2,0:0|0:0,0:0:0:0:
277,296,30185,6,0,P|204:301|157:248,1,140.000001192092,2|0,0:0|0:0,0:0:0:0:
116,181,31185,1,0,0:0:0:0:
96,93,31518,2,0,P|61:108|32:160,2,70.000000596046,2|0|0,0:0|0:0|0:0,0:0:0:0:
184,77,32518,1,2,0:0:0:0:
212,169,32852,6,0,P|268:129|279:57,2,140.000001192092,2|0|2,0:0|0:0|0:0,0:0:0:0:
185,77,34518,1,0,0:0:0:0:
120,145,34852,2,0,P|79:168|64:200,1,70.000000596046,0|2,0:0|0:0,0:0:0:0:
146,231,35518,6,0,P|178:255|210:251,1,70.000000596046,2|0,0:0|0:0,0:0:0:0:
252,329,36185,2,0,P|283:300|291:260,1,70.000000596046
311,183,36852,1,2,0:0:0:0:
377,243,37185,1,0,0:0:0:0:
394,157,37518,2,0,P|384:124|348:105,1,70.000000596046,0|2,0:0|0:0,0:0:0:0:
401,29,38185,6,0,P|331:17|273:69,2,140.000001192092,2|0|2,0:0|0:0|0:0,0:0:0:0:
477,73,39852,1,0,0:0:0:0:
403,115,40185,1,0,0:0:0:0:
477,162,40518,1,2,0:0:0:0:
400,196,40852,2,0,P|304:228|220:312,1,210.000001788138,2|0,0:0|0:0,0:0:0:0:
256,192,42185,12,0,43518,0:0:0:0:
192,128,44185,5,0,0:0:0:0:
320,128,44852,1,0,0:0:0:0:
320,256,45518,1,2,0:0:0:0:
192,256,46185,5,2,0:0:0:0:
68,188,46852,2,0,P|52:260|68:332,1,140.000001192092
192,256,48185,1,2,0:0:0:0:
376,192,48852,5,2,0:0:0:0:
256,92,49518,1,0,0:0:0:0:
156,192,50185,1,0,0:0:0:0:
256,292,50852,1,2,0:0:0:0:
380,360,51518,6,0,P|408:288|364:220,1,140.000001192092,2|0,0:0|0:0,0:0:0:0:
256,292,52852,2,0,P|232:228|260:164,1,140.000001192092,0|2,0:0|0:0,0:0:0:0:
332,44,54185,6,0,P|248:76|172:72,1,140.000001192092,2|0,0:0|0:0,0:0:0:0:
60,72,55518,1,0,0:0:0:0:
128,196,56185,1,2,0:0:0:0:
252,264,56852,6,0,P|336:276|388:240,1,140.000001192092,2|0,0:0|0:0,0:0:0:0:
440,124,58185,2,0,P|368:104|308:132,1,140.000001192092,0|2,0:0|0:0,0:0:0:0:
380,250,59518,5,2,0:0:0:0:
311,130,60185,1,0,0:0:0:0:
240,252,60852,1,0,0:0:0:0:
161,132,61518,1,2,0:0:0:0:
311,130,62185,1,2,0:0:0:0:
256,192,63518,12,0,64852,0:0:0:0:
436,320,65518,5,0,0:0:0:0:
302,309,66185,2,0,P|325:240|378:198,1,140.000001192092,0|2,0:0|0:0,0:0:0:0:
453,227,67185,1,0,0:0:0:0:
439,146,67518,6,0,P|441:71|393:29,1,140.000001192092,2|0,0:0|0:0,0:0:0:0:
362,108,68518,2,0,P|288:119|233:64,1,140.000001192092,0|0,0:0|0:0,0:0:0:0:
313,37,69518,1,2,0:0:0:0:
168,36,70185,5,2,0:0:0:0:
31,86,70852,2,0,P|71:154|133:178,1,140.000001192092,0|0,0:0|0:0,0:0:0:0:
204,135,71852,1,0,0:0:0:0:
201,227,72185,2,0,P|274:224|323:279,1,140.000001192092,2|2,0:0|0:0,0:0:0:0:
239,311,73185,2,0,P|302:361|368:343,2,140.000001192092
317,266,74852,1,2,0:0:0:0:
170,160,75518,5,2,0:0:0:0:
28,133,76185,2,0,P|26:204|65:262,1,140.000001192092
148,257,77185,1,0,0:0:0:0:
108,336,77518,2,0,P|178:342|230:282,1,140.000001192092,2|2,0:0|0:0,0:0:0:0:
220,203,78518,2,0,P|286:223|317:286,1,140.000001192092
225,297,79518,1,0,0:0:0:0:
147,256,79852,1,2,0:0:0:0:
137,168,80185,1,0,0:0:0:0:
469,309,80852,5,2,0:0:0:0:
306,266,81518,2,0,P|252:224|250:144,1,140.000001192092
333,180,82518,1,0,0:0:0:0:
362,94,82852,2,0,P|418:149|406:232,1,140.000001192092,2|2,0:0|0:0,0:0:0:0:
443,292,83852,1,0,0:0:0:0:
359,268,84185,1,0,0:0:0:0:
333,180,84518,1,0,0:0:0:0:
272,112,84852,6,0,P|239:86|200:83,1,70.000000596046
128,64,85518,1,2,0:0:0:0:
128,64,85852,1,0,0:0:0:0:
128,64,86185,5,2,0:0:0:0:
320,64,86852,1,0,0:0:0:0:
128,192,87518,1,0,0:0:0:0:
320,192,88185,1,2,0:0:0:0:
288,288,88852,2,0,P|228:312|140:272,1,140.000001192092,2|0,0:0|0:0,0:0:0:0:
160,96,90185,2,0,P|220:72|308:112,1,140.000001192092,0|2,0:0|0:0,0:0:0:0:
316,216,91518,5,2,0:0:0:0:
124,216,92185,1,0,0:0:0:0:
316,88,92852,1,0,0:0:0:0:
124,88,93518,1,2,0:0:0:0:
316,216,94185,6,0,P|392:176|404:117,1,140.000001192092,2|0,0:0|0:0,0:0:0:0:
224,108,95518,2,0,P|262:37|329:26,1,140.000001192092,0|2,0:0|0:0,0:0:0:0:
316,216,96852,5,2,0:0:0:0:
224,108,97518,1,0,0:0:0:0:
136,216,98185,1,0,0:0:0:0:
51,108,98852,1,2,0:0:0:0:
136,216,99518,6,0,P|176:292|244:300,1,140.000001192092,2|0,0:0|0:0,0:0:0:0:
309,194,100852,2,0,P|385:178|413:122,1,140.000001192092,0|2,0:0|0:0,0:0:0:0:
412,292,102185,5,2,0:0:0:0:
240,292,102852,1,2,0:0:0:0:
244,128,103519,1,0,0:0:0:0:
412,128,104185,1,0,0:0:0:0:
412,292,104852,1,2,0:0:0:0:
256,192,106185,12,0,107518,0:0:0:0:
210,309,108185,6,0,P|195:240|124:205,1,140.000001192092,0|0,0:0|0:0,0:0:0:0:
60,231,109185,1,0,0:0:0:0:
73,146,109518,6,0,P|71:71|119:29,1,140.000001192092,2|2,0:0|0:0,0:0:0:0:
150,108,110518,2,0,P|224:119|279:64,1,140.000001192092,0|0,0:0|0:0,0:0:0:0:
199,37,111518,1,0,0:0:0:0:
199,222,112185,1,2,0:0:0:0:
320,136,112852,5,2,0:0:0:0:
372,4,113518,2,0,P|440:48|452:120,1,140.000001192092
448,188,114518,1,0,0:0:0:0:
364,211,114852,2,0,P|334:278|259:296,1,140.000001192092,2|2,0:0|0:0,0:0:0:0:
275,207,115852,6,0,P|209:231|183:298,2,140.000001192092,0|0|0,0:0|0:0|0:0,0:0:0:0:
274,297,117518,1,2,0:0:0:0:
444,292,118185,6,0,P|452:216|384:160,1,140.000001192092,2|0,0:0|0:0,0:0:0:0:
368,248,119185,1,0,0:0:0:0:
329,169,119518,2,0,P|357:103|432:90,1,140.000001192092,0|2,0:0|0:0,0:0:0:0:
414,171,120518,1,0,0:0:0:0:
368,249,120852,6,0,P|299:253|243:195,1,140.000001192092,2|0,0:0|0:0,0:0:0:0:
329,169,121852,2,0,P|261:117|189:134,1,140.000001192092
129,157,122852,1,2,0:0:0:0:
55,307,123518,6,0,P|130:343|198:298,1,140.000001192092,2|0,0:0|0:0,0:0:0:0:
242,268,124518,1,0,0:0:0:0:
296,202,124852,2,0,P|366:166|434:195,1,140.000001192092,0|2,0:0|0:0,0:0:0:0:
368,256,125852,1,0,0:0:0:0:
312,324,126185,5,2,0:0:0:0:
242,268,126518,1,0,0:0:0:0:
168,324,126852,1,0,0:0:0:0:
96,268,127185,1,0,0:0:0:0:
256,192,127518,12,0,128852,0:0:0:0:
